osu file format v14

[General]
AudioFilename: audio.mp3
AudioLeadIn: 0
PreviewTime: 83520
Countdown: 0
SampleSet: Normal
StackLeniency: 0.7
Mode: 1
LetterboxInBreaks: 0
WidescreenStoryboard: 1

[Editor]
DistanceSpacing: 0.2
BeatDivisor: 4
GridSize: 32
TimelineZoom: 3.699999

[Metadata]
Title:breakthrough
TitleUnicode:∦
Artist:one fourteen
ArtistUnicode:one fourteen
Creator:Ideal
Version:Kantan
Source:Expert Global Taiko Showdown 2022
Tags:egts 2022 semifinals sf nm1 nomod 1 luze ルゼ luzeria II break through electronic hardcore instrumental speed bespoke gts cynplytholowazy cynp-zy walozy overdahedge2014 botched b0tch3d akio ak1o
BeatmapID:3856175
BeatmapSetID:1850900

[Difficulty]
HPDrainRate:8
CircleSize:5
OverallDifficulty:3
ApproachRate:0
SliderMultiplier:1.2
SliderTickRate:1

[Events]
//Background and Video events
0,0,"bg.png",0,0
//Break Periods
2,66440,72120
//Storyboard Layer 0 (Background)
//Storyboard Layer 1 (Fail)
//Storyboard Layer 2 (Pass)
//Storyboard Layer 3 (Foreground)
//Storyboard Layer 4 (Overlay)
//Storyboard Sound Samples

[TimingPoints]
0,240,4,1,0,70,1,8
960,-100,4,1,0,90,0,0
4440,-100,4,1,0,80,0,0
4740,-100,4,1,0,90,0,0
6315,-100,4,1,0,80,0,0
6660,-100,4,1,0,90,0,0
7680,-100,4,1,0,80,0,0
8400,-100,4,1,0,85,0,0
15300,-100,4,1,0,90,0,0
15780,-100,4,1,0,85,0,0
16260,-100,4,1,0,90,0,0
20100,-100,4,1,0,85,0,0
22260,-100,4,1,0,80,0,0
23940,-100,4,1,0,85,0,0
26820,-100,4,1,0,90,0,0
27780,-100,4,1,0,85,0,0
30660,-100,4,1,0,90,0,0
31320,-100,4,1,0,85,0,0
39300,-100,4,1,0,80,0,0
43140,-100,4,1,0,85,0,0
46980,-100,4,1,0,80,0,0
50820,-100,4,1,0,85,0,0
54660,-100,4,1,0,95,0,0
62340,-100,4,1,0,90,0,0
66300,-100,4,1,0,75,0,0
82560,-100,4,1,0,90,0,0
83520,-100,4,1,0,95,0,1
106560,-100,4,1,0,90,0,0

[HitObjects]
274,194,960,5,12,0:0:0:0:
260,194,2880,1,4,0:0:0:0:
258,192,4320,1,4,0:0:0:0:
258,192,4800,1,4,0:0:0:0:
258,192,5400,1,4,0:0:0:0:
258,192,5760,1,12,0:0:0:0:
258,192,6120,1,4,0:0:0:0:
258,192,6720,1,12,0:0:0:0:
249,170,7680,1,12,0:0:0:0:
249,170,7920,1,12,0:0:0:0:
249,170,8160,1,0,0:0:0:0:
233,152,8640,1,4,0:0:0:0:
233,159,9360,1,8,0:0:0:0:
233,159,9600,1,0,0:0:0:0:
233,159,9840,1,0,0:0:0:0:
233,159,10080,1,8,0:0:0:0:
224,158,10560,1,0,0:0:0:0:
227,152,11040,1,8,0:0:0:0:
230,162,11520,1,8,0:0:0:0:
230,162,11760,1,8,0:0:0:0:
230,162,12000,1,0,0:0:0:0:
230,162,12480,1,0,0:0:0:0:
234,158,13200,1,0,0:0:0:0:
234,158,13440,1,8,0:0:0:0:
234,158,13680,1,8,0:0:0:0:
234,158,13920,1,0,0:0:0:0:
234,158,14400,1,0,0:0:0:0:
234,158,14880,1,8,0:0:0:0:
234,158,15360,1,12,0:0:0:0:
225,151,16320,1,8,0:0:0:0:
225,151,16680,1,8,0:0:0:0:
238,162,17040,1,8,0:0:0:0:
238,162,17400,1,8,0:0:0:0:
238,162,17760,1,0,0:0:0:0:
245,164,18240,1,0,0:0:0:0:
246,163,18600,1,0,0:0:0:0:
246,163,18960,1,0,0:0:0:0:
246,163,19320,1,0,0:0:0:0:
246,163,19680,1,8,0:0:0:0:
246,163,20160,1,0,0:0:0:0:
256,165,20880,1,8,0:0:0:0:
256,165,21120,1,0,0:0:0:0:
256,165,21360,1,8,0:0:0:0:
256,165,21600,1,0,0:0:0:0:
256,165,22080,1,8,0:0:0:0:
256,165,23760,1,8,0:0:0:0:
256,165,24000,1,0,0:0:0:0:
256,165,24480,1,8,0:0:0:0:
256,165,24720,1,0,0:0:0:0:
256,165,24960,1,8,0:0:0:0:
256,165,25440,1,0,0:0:0:0:
256,165,25920,1,8,0:0:0:0:
256,165,26400,1,0,0:0:0:0:
236,158,26640,1,0,0:0:0:0:
256,165,26880,1,12,0:0:0:0:
253,152,27840,1,4,0:0:0:0:
241,156,28320,1,8,0:0:0:0:
241,156,28560,1,0,0:0:0:0:
241,156,28800,1,8,0:0:0:0:
241,156,29280,1,0,0:0:0:0:
232,155,29760,1,8,0:0:0:0:
232,154,30240,1,0,0:0:0:0:
214,155,30480,1,0,0:0:0:0:
216,159,30720,1,12,0:0:0:0:
222,171,31680,1,4,0:0:0:0:
218,163,32160,1,0,0:0:0:0:
218,163,32400,1,8,0:0:0:0:
218,163,32640,1,0,0:0:0:0:
218,163,32880,1,8,0:0:0:0:
218,163,33120,1,0,0:0:0:0:
218,163,33600,1,0,0:0:0:0:
218,163,34080,1,8,0:0:0:0:
211,156,34320,1,0,0:0:0:0:
218,163,34560,1,8,0:0:0:0:
218,163,35520,1,8,0:0:0:0:
218,163,36000,1,8,0:0:0:0:
218,163,36240,1,8,0:0:0:0:
218,163,36480,1,0,0:0:0:0:
218,163,36720,1,8,0:0:0:0:
218,163,36960,1,0,0:0:0:0:
218,163,37440,1,0,0:0:0:0:
218,163,37920,1,8,0:0:0:0:
199,166,38160,1,0,0:0:0:0:
218,163,38400,1,8,0:0:0:0:
218,163,38640,1,0,0:0:0:0:
218,163,38880,1,8,0:0:0:0:
218,163,39360,1,0,0:0:0:0:
229,162,40080,1,0,0:0:0:0:
229,162,40320,1,8,0:0:0:0:
229,162,40800,1,0,0:0:0:0:
229,162,41280,1,0,0:0:0:0:
229,162,42000,1,8,0:0:0:0:
229,162,42240,1,0,0:0:0:0:
229,162,42480,1,0,0:0:0:0:
229,162,42720,1,8,0:0:0:0:
229,162,43200,1,8,0:0:0:0:
229,162,43560,1,8,0:0:0:0:
229,162,43920,1,8,0:0:0:0:
229,162,44280,1,8,0:0:0:0:
229,162,44640,1,0,0:0:0:0:
229,162,45120,1,8,0:0:0:0:
225,147,45480,1,0,0:0:0:0:
225,147,45840,1,8,0:0:0:0:
225,147,46200,1,0,0:0:0:0:
225,147,46560,1,8,0:0:0:0:
225,147,47040,1,8,0:0:0:0:
225,147,47760,1,0,0:0:0:0:
225,147,48000,1,8,0:0:0:0:
225,147,48480,1,8,0:0:0:0:
225,147,48960,1,0,0:0:0:0:
225,147,49680,1,8,0:0:0:0:
237,152,50160,1,12,0:0:0:0:
236,152,50400,1,12,0:0:0:0:
236,152,50640,1,0,0:0:0:0:
237,152,50880,1,8,0:0:0:0:
234,144,51240,1,8,0:0:0:0:
233,144,51600,1,8,0:0:0:0:
234,144,51960,1,8,0:0:0:0:
233,144,52320,1,0,0:0:0:0:
233,144,52800,1,0,0:0:0:0:
233,144,53160,1,0,0:0:0:0:
233,144,53520,1,0,0:0:0:0:
233,144,53880,1,0,0:0:0:0:
233,144,54240,1,8,0:0:0:0:
233,144,54720,1,4,0:0:0:0:
233,144,55440,1,12,0:0:0:0:
233,144,56160,1,4,0:0:0:0:
233,144,56640,1,12,0:0:0:0:
233,144,57360,1,12,0:0:0:0:
233,144,58080,1,4,0:0:0:0:
233,144,58560,1,4,0:0:0:0:
233,144,59280,1,12,0:0:0:0:
233,144,60000,1,4,0:0:0:0:
233,144,60480,1,12,0:0:0:0:
233,144,61200,1,12,0:0:0:0:
233,144,61920,1,4,0:0:0:0:
256,192,62400,12,0,66000,0:0:0:0:
236,182,66240,5,4,0:0:0:0:
256,189,73920,5,0,0:0:0:0:
256,189,74880,1,0,0:0:0:0:
256,189,75240,1,8,0:0:0:0:
262,178,75840,1,0,0:0:0:0:
262,178,76800,1,8,0:0:0:0:
261,178,77760,1,8,0:0:0:0:
261,178,78720,1,8,0:0:0:0:
261,178,79680,1,8,0:0:0:0:
261,178,81600,1,0,0:0:0:0:
260,178,82560,1,8,0:0:0:0:
260,178,82800,1,0,0:0:0:0:
260,178,83040,1,8,0:0:0:0:
253,185,83520,1,12,0:0:0:0:
260,178,84360,1,0,0:0:0:0:
264,177,84720,1,0,0:0:0:0:
264,177,84960,1,8,0:0:0:0:
258,178,85200,1,0,0:0:0:0:
256,177,85440,1,8,0:0:0:0:
256,172,86280,1,0,0:0:0:0:
251,175,86640,1,8,0:0:0:0:
256,171,86880,1,0,0:0:0:0:
256,171,87120,1,8,0:0:0:0:
250,170,87360,1,0,0:0:0:0:
258,168,88080,1,8,0:0:0:0:
256,171,88560,1,8,0:0:0:0:
258,168,88800,1,0,0:0:0:0:
256,171,89040,1,0,0:0:0:0:
256,171,89280,1,8,0:0:0:0:
256,171,89760,1,0,0:0:0:0:
258,168,90240,1,8,0:0:0:0:
258,168,90720,1,0,0:0:0:0:
245,166,91200,1,0,0:0:0:0:
257,168,91920,1,8,0:0:0:0:
257,168,92400,1,8,0:0:0:0:
257,168,92640,1,8,0:0:0:0:
257,168,92880,1,0,0:0:0:0:
257,168,93120,1,8,0:0:0:0:
257,151,93960,1,8,0:0:0:0:
236,152,94320,1,0,0:0:0:0:
236,152,94560,1,0,0:0:0:0:
236,152,94800,1,8,0:0:0:0:
236,152,95040,1,0,0:0:0:0:
234,157,95880,1,0,0:0:0:0:
244,151,96240,1,0,0:0:0:0:
244,151,96480,1,8,0:0:0:0:
235,151,96720,1,0,0:0:0:0:
235,151,96960,1,8,0:0:0:0:
235,151,97440,1,0,0:0:0:0:
235,151,97680,1,8,0:0:0:0:
235,151,97920,1,0,0:0:0:0:
235,151,98400,1,8,0:0:0:0:
235,151,98880,1,8,0:0:0:0:
235,151,99600,1,0,0:0:0:0:
235,151,99840,1,8,0:0:0:0:
235,151,100080,1,8,0:0:0:0:
235,151,100320,1,8,0:0:0:0:
227,152,100800,1,0,0:0:0:0:
235,151,101040,1,8,0:0:0:0:
235,151,101280,1,0,0:0:0:0:
235,151,101760,1,8,0:0:0:0:
235,151,102240,1,0,0:0:0:0:
235,151,102960,1,8,0:0:0:0:
235,151,103200,1,8,0:0:0:0:
235,151,103440,1,0,0:0:0:0:
235,151,103680,1,8,0:0:0:0:
235,151,104160,1,0,0:0:0:0:
218,149,104880,1,0,0:0:0:0:
218,149,105120,1,8,0:0:0:0:
218,149,105360,1,0,0:0:0:0:
218,149,105600,1,8,0:0:0:0:
218,149,106080,1,8,0:0:0:0:
218,149,106320,1,0,0:0:0:0:
218,149,106560,1,8,0:0:0:0:
218,149,108480,1,0,0:0:0:0:
218,149,108960,1,0,0:0:0:0:
211,143,109440,1,0,0:0:0:0:
210,143,109680,1,0,0:0:0:0:
211,143,109920,1,8,0:0:0:0:
211,143,110160,1,0,0:0:0:0:
189,134,110400,1,12,0:0:0:0:
256,192,110640,12,0,112320,0:0:0:0:
