osu file format v14

[General]
AudioFilename: audio.mp3
AudioLeadIn: 0
PreviewTime: 83520
Countdown: 0
SampleSet: Normal
StackLeniency: 0.7
Mode: 1
LetterboxInBreaks: 0
WidescreenStoryboard: 1

[Editor]
DistanceSpacing: 0.2
BeatDivisor: 4
GridSize: 32
TimelineZoom: 3.399999

[Metadata]
Title:breakthrough
TitleUnicode:∦
Artist:one fourteen
ArtistUnicode:one fourteen
Creator:Ideal
Version:Ak1o's Inner Oni
Source:Expert Global Taiko Showdown 2022
Tags:egts 2022 semifinals sf nm1 nomod 1 luze ルゼ luzeria II break through electronic hardcore instrumental speed bespoke gts cynplytholowazy cynp-zy walozy overdahedge2014 botched b0tch3d akio ak1o
BeatmapID:3867909
BeatmapSetID:1850900

[Difficulty]
HPDrainRate:6
CircleSize:2
OverallDifficulty:6.5
ApproachRate:10
SliderMultiplier:1.4
SliderTickRate:1

[Events]
//Background and Video events
0,0,"bg.png",0,0
//Break Periods
//Storyboard Layer 0 (Background)
//Storyboard Layer 1 (Fail)
//Storyboard Layer 2 (Pass)
//Storyboard Layer 3 (Foreground)
//Storyboard Layer 4 (Overlay)
//Storyboard Sound Samples

[TimingPoints]
0,240,4,1,0,70,1,8
840,-100,4,1,0,70,0,0
900,-100,4,1,0,75,0,0
960,-100,4,1,0,90,0,0
1020,-100,4,1,0,80,0,0
2820,-100,4,1,0,90,0,0
2940,-100,4,1,0,80,0,0
4260,-100,4,1,0,90,0,0
4380,-100,4,1,0,80,0,0
4530,-100,4,1,0,90,0,0
4830,-100,4,1,0,80,0,0
5370,-100,4,1,0,90,0,0
6180,-100,4,1,0,80,0,0
6690,-100,4,1,0,90,0,0
7440,-100,4,1,0,80,0,0
7500,-100,4,1,0,80,0,0
7560,-100,4,1,0,80,0,0
7620,-100,4,1,0,80,0,0
7680,-100,4,1,0,80,0,0
7740,-100,4,1,0,80,0,0
7800,-100,4,1,0,80,0,0
7860,-100,4,1,0,80,0,0
7920,-100,4,1,0,80,0,0
7980,-100,4,1,0,80,0,0
8040,-100,4,1,0,80,0,0
8100,-100,4,1,0,80,0,0
8160,-100,4,1,0,80,0,0
8280,-100,4,1,0,83,0,0
8400,-100,4,1,0,85,0,0
8610,-100,4,1,0,85,0,0
15330,-100,4,1,0,90,0,0
15840,-100,4,1,0,85,0,0
15900,-100,4,1,0,85,0,0
15960,-100,4,1,0,85,0,0
16020,-100,4,1,0,85,0,0
16080,-100,4,1,0,85,0,0
16140,-100,4,1,0,85,0,0
16200,-100,4,1,0,85,0,0
16320,-100,4,1,0,90,0,0
16380,-100,4,1,0,90,0,0
16440,-100,4,1,0,90,0,0
16500,-100,4,1,0,90,0,0
16560,-100,4,1,0,90,0,0
16680,-100,4,1,0,90,0,0
16740,-100,4,1,0,90,0,0
16800,-100,4,1,0,90,0,0
16860,-100,4,1,0,90,0,0
16920,-100,4,1,0,90,0,0
17040,-100,4,1,0,90,0,0
17100,-100,4,1,0,90,0,0
17160,-100,4,1,0,90,0,0
17220,-100,4,1,0,90,0,0
17280,-100,4,1,0,90,0,0
17400,-100,4,1,0,90,0,0
17460,-100,4,1,0,90,0,0
17520,-100,4,1,0,90,0,0
17580,-100,4,1,0,90,0,0
17640,-100,4,1,0,90,0,0
17760,-100,4,1,0,90,0,0
17820,-100,4,1,0,90,0,0
17880,-100,4,1,0,90,0,0
17940,-100,4,1,0,90,0,0
18000,-100,4,1,0,90,0,0
18120,-100,4,1,0,90,0,0
18180,-100,4,1,0,90,0,0
18240,-100,4,1,0,90,0,0
18300,-100,4,1,0,90,0,0
18360,-100,4,1,0,90,0,0
18420,-100,4,1,0,90,0,0
18480,-100,4,1,0,90,0,0
18600,-100,4,1,0,90,0,0
18660,-100,4,1,0,90,0,0
18720,-100,4,1,0,90,0,0
18780,-100,4,1,0,90,0,0
18840,-100,4,1,0,90,0,0
18960,-100,4,1,0,90,0,0
19020,-100,4,1,0,90,0,0
19080,-100,4,1,0,90,0,0
19140,-100,4,1,0,90,0,0
19200,-100,4,1,0,90,0,0
19320,-100,4,1,0,90,0,0
19380,-100,4,1,0,90,0,0
19440,-100,4,1,0,90,0,0
19500,-100,4,1,0,90,0,0
19560,-100,4,1,0,90,0,0
19680,-100,4,1,0,90,0,0
19740,-100,4,1,0,90,0,0
19800,-100,4,1,0,90,0,0
19860,-100,4,1,0,90,0,0
19920,-100,4,1,0,90,0,0
19980,-100,4,1,0,90,0,0
20040,-100,4,1,0,90,0,0
20100,-100,4,1,0,90,0,0
20160,-100,4,1,0,85,0,0
22290,-100,4,1,0,80,0,0
23520,-100,4,1,0,83,0,0
23580,-100,4,1,0,83,0,0
23640,-100,4,1,0,83,0,0
23700,-100,4,1,0,83,0,0
23760,-100,4,1,0,83,0,0
23800,-100,4,1,0,83,0,0
23840,-100,4,1,0,83,0,0
23880,-100,4,1,0,83,0,0
23920,-100,4,1,0,83,0,0
23960,-100,4,1,0,83,0,0
24000,-100,4,1,0,85,0,0
26850,-100,4,1,0,90,0,0
27810,-100,4,1,0,85,0,0
30690,-100,4,1,0,90,0,0
31290,-100,4,1,0,85,0,0
31440,-100,4,1,0,85,0,0
31470,-100,4,1,0,85,0,0
31530,-100,4,1,0,85,0,0
31590,-100,4,1,0,85,0,0
31650,-100,4,1,0,85,0,0
38880,-100,4,1,0,86,0,0
38940,-100,4,1,0,87,0,0
39000,-100,4,1,0,88,0,0
39060,-100,4,1,0,89,0,0
39330,-100,4,1,0,80,0,0
42960,-100,4,1,0,81,0,0
42990,-100,4,1,0,82,0,0
43050,-100,4,1,0,83,0,0
43110,-100,4,1,0,84,0,0
43170,-100,4,1,0,85,0,0
46800,-100,4,1,0,84,0,0
46830,-100,4,1,0,83,0,0
46890,-100,4,1,0,82,0,0
46950,-100,4,1,0,81,0,0
47010,-100,4,1,0,80,0,0
50120,-100,4,1,0,90,0,0
50240,-100,4,1,0,80,0,0
50360,-100,4,1,0,90,0,0
50640,-100,4,1,0,81,0,0
50670,-100,4,1,0,82,0,0
50730,-100,4,1,0,83,0,0
50790,-100,4,1,0,84,0,0
50850,-100,4,1,0,85,0,0
54690,-100,4,1,0,95,0,0
56490,-100,4,1,0,85,0,0
56610,-100,4,1,0,95,0,0
58280,-100,4,1,0,85,0,0
58530,-100,4,1,0,95,0,0
60330,-100,4,1,0,85,0,0
60450,-100,4,1,0,95,0,0
62400,-100,4,1,0,90,0,0
62460,-100,4,1,0,90,0,0
62520,-100,4,1,0,90,0,0
62580,-100,4,1,0,90,0,0
62640,-100,4,1,0,90,0,0
62700,-100,4,1,0,90,0,0
62760,-100,4,1,0,90,0,0
62820,-100,4,1,0,90,0,0
62880,-100,4,1,0,90,0,0
62940,-100,4,1,0,90,0,0
63000,-100,4,1,0,90,0,0
63060,-100,4,1,0,90,0,0
63120,-100,4,1,0,90,0,0
63180,-100,4,1,0,90,0,0
63240,-100,4,1,0,90,0,0
63300,-100,4,1,0,90,0,0
63360,-100,4,1,0,90,0,0
63420,-100,4,1,0,90,0,0
63480,-100,4,1,0,90,0,0
63540,-100,4,1,0,90,0,0
63600,-100,4,1,0,90,0,0
63660,-100,4,1,0,90,0,0
63720,-100,4,1,0,90,0,0
63780,-100,4,1,0,90,0,0
63840,-100,4,1,0,90,0,0
63900,-100,4,1,0,90,0,0
63960,-100,4,1,0,90,0,0
64020,-100,4,1,0,90,0,0
64080,-100,4,1,0,90,0,0
64140,-100,4,1,0,90,0,0
64200,-100,4,1,0,90,0,0
64260,-100,4,1,0,90,0,0
64320,-100,4,1,0,90,0,0
64380,-100,4,1,0,90,0,0
64440,-100,4,1,0,90,0,0
64500,-100,4,1,0,90,0,0
64560,-100,4,1,0,90,0,0
64620,-100,4,1,0,90,0,0
64680,-100,4,1,0,90,0,0
64740,-100,4,1,0,90,0,0
64800,-100,4,1,0,90,0,0
64860,-100,4,1,0,90,0,0
64920,-100,4,1,0,90,0,0
64980,-100,4,1,0,90,0,0
65040,-100,4,1,0,90,0,0
65100,-100,4,1,0,90,0,0
65160,-100,4,1,0,90,0,0
65220,-100,4,1,0,90,0,0
65280,-100,4,1,0,90,0,0
65340,-100,4,1,0,90,0,0
65400,-100,4,1,0,90,0,0
65460,-100,4,1,0,90,0,0
65520,-100,4,1,0,90,0,0
65580,-100,4,1,0,90,0,0
65640,-100,4,1,0,90,0,0
65700,-100,4,1,0,90,0,0
65760,-100,4,1,0,90,0,0
65820,-100,4,1,0,90,0,0
65880,-100,4,1,0,90,0,0
65940,-100,4,1,0,90,0,0
66000,-100,4,1,0,90,0,0
66060,-100,4,1,0,90,0,0
66120,-100,4,1,0,90,0,0
66180,-100,4,1,0,90,0,0
66240,-100,4,1,0,90,0,0
66270,-100,4,1,0,90,0,0
66330,-100,4,1,0,75,0,0
82560,-100,4,1,0,90,0,0
82620,-100,4,1,0,90,0,0
82680,-100,4,1,0,90,0,0
82740,-100,4,1,0,90,0,0
82800,-100,4,1,0,90,0,0
82860,-100,4,1,0,90,0,0
82920,-100,4,1,0,90,0,0
82980,-100,4,1,0,90,0,0
83040,-100,4,1,0,90,0,0
83160,-100,4,1,0,90,0,0
83280,-100,4,1,0,90,0,0
83520,-100,4,1,0,95,0,1
90840,-100,4,1,0,95,0,1
90960,-100,4,1,0,95,0,1
91020,-100,4,1,0,95,0,1
91080,-100,4,1,0,95,0,1
91200,-100,4,1,0,95,0,1
98400,-100,4,1,0,95,0,1
98460,-100,4,1,0,95,0,1
98520,-100,4,1,0,95,0,1
98580,-100,4,1,0,95,0,1
98640,-100,4,1,0,95,0,1
102720,-100,4,1,0,95,0,1
102780,-100,4,1,0,95,0,1
102840,-100,4,1,0,95,0,1
102900,-100,4,1,0,95,0,1
102960,-100,4,1,0,95,0,1
103020,-100,4,1,0,95,0,1
103080,-100,4,1,0,95,0,1
103140,-100,4,1,0,95,0,1
103200,-100,4,1,0,95,0,1
103260,-100,4,1,0,95,0,1
103320,-100,4,1,0,95,0,1
103380,-100,4,1,0,95,0,1
103440,-100,4,1,0,95,0,1
103500,-100,4,1,0,95,0,1
103560,-100,4,1,0,95,0,1
103620,-100,4,1,0,95,0,1
103680,-100,4,1,0,95,0,1
103740,-100,4,1,0,95,0,1
103800,-100,4,1,0,95,0,1
103860,-100,4,1,0,95,0,1
103920,-100,4,1,0,95,0,1
103980,-100,4,1,0,95,0,1
104040,-100,4,1,0,95,0,1
104100,-100,4,1,0,95,0,1
104160,-100,4,1,0,95,0,1
104220,-100,4,1,0,95,0,1
104280,-100,4,1,0,95,0,1
104340,-100,4,1,0,95,0,1
104400,-100,4,1,0,95,0,1
104460,-100,4,1,0,95,0,1
104520,-100,4,1,0,95,0,1
104580,-100,4,1,0,95,0,1
104640,-100,4,1,0,95,0,1
104700,-100,4,1,0,95,0,1
104760,-100,4,1,0,95,0,1
104820,-100,4,1,0,95,0,1
104880,-100,4,1,0,95,0,1
104940,-100,4,1,0,95,0,1
105000,-100,4,1,0,95,0,1
105060,-100,4,1,0,95,0,1
105120,-100,4,1,0,95,0,1
105180,-100,4,1,0,95,0,1
105240,-100,4,1,0,95,0,1
105300,-100,4,1,0,95,0,1
105360,-100,4,1,0,95,0,1
105420,-100,4,1,0,95,0,1
105480,-100,4,1,0,95,0,1
105540,-100,4,1,0,95,0,1
105600,-100,4,1,0,95,0,1
105660,-100,4,1,0,95,0,1
105720,-100,4,1,0,95,0,1
105780,-100,4,1,0,95,0,1
105840,-100,4,1,0,95,0,1
105900,-100,4,1,0,95,0,1
105960,-100,4,1,0,95,0,1
106020,-100,4,1,0,95,0,1
106080,-100,4,1,0,95,0,1
106140,-100,4,1,0,95,0,1
106200,-100,4,1,0,95,0,1
106260,-100,4,1,0,95,0,1
106320,-100,4,1,0,95,0,1
106380,-100,4,1,0,95,0,1
106440,-100,4,1,0,95,0,1
106500,-100,4,1,0,95,0,1
106560,-100,4,1,0,90,0,0
106640,-100,4,1,0,90,0,0
106720,-100,4,1,0,90,0,0
106800,-100,4,1,0,90,0,0
106880,-100,4,1,0,90,0,0
106960,-100,4,1,0,90,0,0
107040,-100,4,1,0,90,0,0
107120,-100,4,1,0,90,0,0
107200,-100,4,1,0,90,0,0
107280,-100,4,1,0,90,0,0
107360,-100,4,1,0,90,0,0
107440,-100,4,1,0,90,0,0
107520,-100,4,1,0,90,0,0
107600,-100,4,1,0,90,0,0
107680,-100,4,1,0,90,0,0
107760,-100,4,1,0,90,0,0
107840,-100,4,1,0,90,0,0
107920,-100,4,1,0,90,0,0
108000,-100,4,1,0,90,0,0
109440,-100,4,1,0,95,0,0
109500,-100,4,1,0,95,0,0
109560,-100,4,1,0,95,0,0
109620,-100,4,1,0,95,0,0
109680,-100,4,1,0,95,0,0
109740,-100,4,1,0,95,0,0
109800,-100,4,1,0,95,0,0
109860,-100,4,1,0,95,0,0
109920,-100,4,1,0,95,0,0
109980,-100,4,1,0,95,0,0
110040,-100,4,1,0,95,0,0
110100,-100,4,1,0,95,0,0
110160,-100,4,1,0,95,0,0
110220,-100,4,1,0,95,0,0
110280,-100,4,1,0,95,0,0
110320,-100,4,1,0,95,0,0
110360,-100,4,1,0,95,0,0
110400,-100,4,1,0,95,0,0
110460,-100,4,1,0,95,0,0

[HitObjects]
256,192,840,5,0,0:0:0:0:
256,192,900,1,0,0:0:0:0:
256,192,960,1,12,0:0:0:0:
256,192,1200,1,0,0:0:0:0:
256,192,1320,1,8,0:0:0:0:
256,192,1440,1,0,0:0:0:0:
256,192,1560,1,0,0:0:0:0:
256,192,1680,1,8,0:0:0:0:
256,192,1920,1,8,0:0:0:0:
256,192,2160,1,8,0:0:0:0:
256,192,2280,1,0,0:0:0:0:
256,192,2400,1,0,0:0:0:0:
256,192,2520,1,8,0:0:0:0:
256,192,2640,1,0,0:0:0:0:
256,192,2880,1,4,0:0:0:0:
256,192,3120,1,8,0:0:0:0:
256,192,3240,1,8,0:0:0:0:
256,192,3360,1,0,0:0:0:0:
256,192,3480,1,0,0:0:0:0:
256,192,3600,1,8,0:0:0:0:
256,192,3840,1,0,0:0:0:0:
256,192,3960,1,0,0:0:0:0:
256,192,4080,1,8,0:0:0:0:
256,192,4200,1,8,0:0:0:0:
256,192,4320,1,4,0:0:0:0:
256,192,4500,1,0,0:0:0:0:
256,192,4560,1,8,0:0:0:0:
256,192,4680,1,8,0:0:0:0:
256,192,4800,1,4,0:0:0:0:
256,192,5040,1,8,0:0:0:0:
256,192,5160,1,0,0:0:0:0:
256,192,5280,1,8,0:0:0:0:
256,192,5400,1,0,0:0:0:0:
256,192,5580,1,0,0:0:0:0:
256,192,5700,1,0,0:0:0:0:
256,192,5760,1,8,0:0:0:0:
256,192,5940,1,0,0:0:0:0:
256,192,6120,1,8,0:0:0:0:
256,192,6360,1,8,0:0:0:0:
256,192,6420,1,8,0:0:0:0:
256,192,6480,1,0,0:0:0:0:
256,192,6600,1,0,0:0:0:0:
256,192,6660,1,0,0:0:0:0:
256,192,6720,1,8,0:0:0:0:
256,192,6900,1,0,0:0:0:0:
256,192,7080,1,0,0:0:0:0:
256,192,7200,1,8,0:0:0:0:
256,192,7320,1,0,0:0:0:0:
256,192,7440,1,0,0:0:0:0:
256,192,7500,1,0,0:0:0:0:
256,192,7560,1,0,0:0:0:0:
256,192,7620,1,0,0:0:0:0:
256,192,7680,1,8,0:0:0:0:
256,192,7800,1,8,0:0:0:0:
256,192,7860,1,8,0:0:0:0:
256,192,7920,1,0,0:0:0:0:
256,192,7980,1,8,0:0:0:0:
256,192,8040,1,0,0:0:0:0:
256,192,8100,1,0,0:0:0:0:
256,192,8160,1,8,0:0:0:0:
256,192,8280,1,12,0:0:0:0:
256,192,8400,1,4,0:0:0:0:
256,192,8640,1,0,0:0:0:0:
256,192,8760,1,0,0:0:0:0:
256,192,8880,1,8,0:0:0:0:
256,192,9000,1,8,0:0:0:0:
256,192,9120,1,0,0:0:0:0:
256,192,9240,1,0,0:0:0:0:
256,192,9300,1,0,0:0:0:0:
256,192,9360,1,8,0:0:0:0:
256,192,9480,1,0,0:0:0:0:
256,192,9600,1,8,0:0:0:0:
256,192,9720,1,0,0:0:0:0:
256,192,9780,1,0,0:0:0:0:
256,192,9840,1,8,0:0:0:0:
256,192,9960,1,8,0:0:0:0:
256,192,10020,1,8,0:0:0:0:
256,192,10080,1,0,0:0:0:0:
256,192,10200,1,0,0:0:0:0:
256,192,10320,1,8,0:0:0:0:
256,192,10380,1,8,0:0:0:0:
256,192,10440,1,0,0:0:0:0:
256,192,10560,1,0,0:0:0:0:
256,192,10680,1,0,0:0:0:0:
256,192,10800,1,8,0:0:0:0:
256,192,10920,1,8,0:0:0:0:
256,192,10980,1,0,0:0:0:0:
256,192,11040,1,8,0:0:0:0:
256,192,11160,1,0,0:0:0:0:
256,192,11220,1,0,0:0:0:0:
256,192,11280,1,8,0:0:0:0:
256,192,11400,1,0,0:0:0:0:
256,192,11520,1,8,0:0:0:0:
256,192,11580,1,8,0:0:0:0:
256,192,11640,1,0,0:0:0:0:
256,192,11760,1,8,0:0:0:0:
256,192,11880,1,0,0:0:0:0:
256,192,12000,1,8,0:0:0:0:
256,192,12060,1,8,0:0:0:0:
256,192,12120,1,8,0:0:0:0:
256,192,12240,1,0,0:0:0:0:
256,192,12300,1,0,0:0:0:0:
256,192,12360,1,8,0:0:0:0:
256,192,12420,1,8,0:0:0:0:
256,192,12480,1,0,0:0:0:0:
256,192,12600,1,0,0:0:0:0:
256,192,12720,1,8,0:0:0:0:
256,192,12840,1,8,0:0:0:0:
256,192,12960,1,0,0:0:0:0:
256,192,13080,1,0,0:0:0:0:
256,192,13140,1,0,0:0:0:0:
256,192,13200,1,8,0:0:0:0:
256,192,13320,1,0,0:0:0:0:
256,192,13440,1,8,0:0:0:0:
256,192,13560,1,0,0:0:0:0:
256,192,13620,1,0,0:0:0:0:
256,192,13680,1,8,0:0:0:0:
256,192,13800,1,8,0:0:0:0:
256,192,13860,1,8,0:0:0:0:
256,192,13920,1,0,0:0:0:0:
256,192,14040,1,0,0:0:0:0:
256,192,14160,1,0,0:0:0:0:
256,192,14220,1,0,0:0:0:0:
256,192,14280,1,8,0:0:0:0:
256,192,14400,1,0,0:0:0:0:
256,192,14520,1,0,0:0:0:0:
256,192,14640,1,8,0:0:0:0:
256,192,14760,1,8,0:0:0:0:
256,192,14820,1,8,0:0:0:0:
256,192,14880,1,0,0:0:0:0:
256,192,15000,1,0,0:0:0:0:
256,192,15060,1,0,0:0:0:0:
256,192,15120,1,8,0:0:0:0:
256,192,15180,1,8,0:0:0:0:
256,192,15240,1,0,0:0:0:0:
256,192,15360,1,12,0:0:0:0:
256,192,15540,1,12,0:0:0:0:
256,192,15720,1,12,0:0:0:0:
256,192,15840,1,0,0:0:0:0:
256,192,15900,1,0,0:0:0:0:
256,192,15960,1,8,0:0:0:0:
256,192,16020,1,0,0:0:0:0:
256,192,16080,1,8,0:0:0:0:
256,192,16140,1,8,0:0:0:0:
256,192,16200,1,0,0:0:0:0:
256,192,16320,1,0,0:0:0:0:
256,192,16380,1,0,0:0:0:0:
256,192,16440,1,8,0:0:0:0:
256,192,16560,1,0,0:0:0:0:
256,192,16680,1,8,0:0:0:0:
256,192,16740,1,8,0:0:0:0:
256,192,16800,1,0,0:0:0:0:
256,192,16860,1,0,0:0:0:0:
256,192,16920,1,8,0:0:0:0:
256,192,17040,1,0,0:0:0:0:
256,192,17100,1,0,0:0:0:0:
256,192,17160,1,8,0:0:0:0:
256,192,17280,1,0,0:0:0:0:
256,192,17400,1,8,0:0:0:0:
256,192,17460,1,8,0:0:0:0:
256,192,17520,1,0,0:0:0:0:
256,192,17580,1,0,0:0:0:0:
256,192,17640,1,8,0:0:0:0:
256,192,17760,1,0,0:0:0:0:
256,192,17820,1,0,0:0:0:0:
256,192,17880,1,8,0:0:0:0:
256,192,18000,1,0,0:0:0:0:
256,192,18120,1,8,0:0:0:0:
256,192,18180,1,8,0:0:0:0:
256,192,18240,1,0,0:0:0:0:
256,192,18300,1,0,0:0:0:0:
256,192,18360,1,8,0:0:0:0:
256,192,18420,1,8,0:0:0:0:
256,192,18480,1,0,0:0:0:0:
256,192,18600,1,8,0:0:0:0:
256,192,18660,1,8,0:0:0:0:
256,192,18720,1,0,0:0:0:0:
256,192,18840,1,8,0:0:0:0:
256,192,18960,1,0,0:0:0:0:
256,192,19020,1,0,0:0:0:0:
256,192,19080,1,8,0:0:0:0:
256,192,19140,1,8,0:0:0:0:
256,192,19200,1,0,0:0:0:0:
256,192,19320,1,8,0:0:0:0:
256,192,19380,1,8,0:0:0:0:
256,192,19440,1,0,0:0:0:0:
256,192,19560,1,8,0:0:0:0:
256,192,19680,1,8,0:0:0:0:
256,192,19740,1,0,0:0:0:0:
256,192,19800,1,8,0:0:0:0:
256,192,19860,1,8,0:0:0:0:
256,192,19920,1,0,0:0:0:0:
256,192,19980,1,8,0:0:0:0:
256,192,20040,1,0,0:0:0:0:
256,192,20160,1,0,0:0:0:0:
256,192,20280,1,0,0:0:0:0:
256,192,20400,1,8,0:0:0:0:
256,192,20520,1,8,0:0:0:0:
256,192,20640,1,0,0:0:0:0:
256,192,20760,1,0,0:0:0:0:
256,192,20820,1,0,0:0:0:0:
256,192,20880,1,8,0:0:0:0:
256,192,20940,1,8,0:0:0:0:
256,192,21000,1,0,0:0:0:0:
256,192,21120,1,8,0:0:0:0:
256,192,21200,1,8,0:0:0:0:
256,192,21280,1,8,0:0:0:0:
256,192,21360,1,0,0:0:0:0:
256,192,21440,1,0,0:0:0:0:
256,192,21520,1,0,0:0:0:0:
256,192,21600,1,8,0:0:0:0:
256,192,21720,1,0,0:0:0:0:
256,192,21780,1,0,0:0:0:0:
256,192,21840,1,8,0:0:0:0:
256,192,21900,1,0,0:0:0:0:
256,192,21960,1,8,0:0:0:0:
256,192,22020,1,8,0:0:0:0:
256,192,22080,1,0,0:0:0:0:
256,192,22320,1,8,0:0:0:0:
256,192,22440,1,0,0:0:0:0:
256,192,22500,1,0,0:0:0:0:
256,192,22560,1,8,0:0:0:0:
256,192,22680,1,0,0:0:0:0:
256,192,22740,1,8,0:0:0:0:
256,192,22800,1,0,0:0:0:0:
256,192,22920,1,0,0:0:0:0:
256,192,23040,1,8,0:0:0:0:
256,192,23100,1,8,0:0:0:0:
256,192,23160,1,0,0:0:0:0:
256,192,23280,1,0,0:0:0:0:
256,192,23340,1,0,0:0:0:0:
256,192,23400,1,8,0:0:0:0:
256,192,23460,1,0,0:0:0:0:
256,192,23520,1,8,0:0:0:0:
256,192,23580,1,8,0:0:0:0:
256,192,23640,1,0,0:0:0:0:
256,192,23700,1,0,0:0:0:0:
256,192,23760,1,8,0:0:0:0:
256,192,24000,1,12,0:0:0:0:
256,192,24120,1,0,0:0:0:0:
256,192,24240,1,8,0:0:0:0:
256,192,24360,1,0,0:0:0:0:
256,192,24420,1,0,0:0:0:0:
256,192,24480,1,8,0:0:0:0:
256,192,24600,1,0,0:0:0:0:
256,192,24720,1,8,0:0:0:0:
256,192,24780,1,8,0:0:0:0:
256,192,24840,1,0,0:0:0:0:
256,192,24960,1,8,0:0:0:0:
256,192,25080,1,0,0:0:0:0:
256,192,25200,1,8,0:0:0:0:
256,192,25320,1,0,0:0:0:0:
256,192,25380,1,0,0:0:0:0:
256,192,25440,1,8,0:0:0:0:
256,192,25500,1,8,0:0:0:0:
256,192,25560,1,8,0:0:0:0:
256,192,25680,1,0,0:0:0:0:
256,192,25740,1,0,0:0:0:0:
256,192,25800,1,0,0:0:0:0:
256,192,25920,1,8,0:0:0:0:
256,192,26040,1,0,0:0:0:0:
256,192,26100,1,0,0:0:0:0:
256,192,26160,1,8,0:0:0:0:
256,192,26280,1,0,0:0:0:0:
256,192,26400,1,8,0:0:0:0:
256,192,26460,1,8,0:0:0:0:
256,192,26520,1,0,0:0:0:0:
256,192,26640,1,8,0:0:0:0:
256,192,26700,1,0,0:0:0:0:
256,192,26760,1,0,0:0:0:0:
256,192,26880,1,12,0:0:0:0:
256,192,27120,1,0,0:0:0:0:
256,192,27240,1,12,0:0:0:0:
256,192,27360,1,0,0:0:0:0:
256,192,27600,1,12,0:0:0:0:
256,192,27840,1,4,0:0:0:0:
256,192,27960,1,8,0:0:0:0:
256,192,28080,1,0,0:0:0:0:
256,192,28200,1,8,0:0:0:0:
256,192,28260,1,8,0:0:0:0:
256,192,28320,1,0,0:0:0:0:
256,192,28440,1,8,0:0:0:0:
256,192,28560,1,0,0:0:0:0:
256,192,28620,1,0,0:0:0:0:
256,192,28680,1,8,0:0:0:0:
256,192,28800,1,0,0:0:0:0:
256,192,28920,1,8,0:0:0:0:
256,192,29040,1,0,0:0:0:0:
256,192,29160,1,8,0:0:0:0:
256,192,29220,1,8,0:0:0:0:
256,192,29280,1,0,0:0:0:0:
256,192,29340,1,0,0:0:0:0:
256,192,29400,1,0,0:0:0:0:
256,192,29520,1,8,0:0:0:0:
256,192,29580,1,8,0:0:0:0:
256,192,29640,1,8,0:0:0:0:
256,192,29760,1,0,0:0:0:0:
256,192,29880,1,8,0:0:0:0:
256,192,29940,1,8,0:0:0:0:
256,192,30000,1,0,0:0:0:0:
256,192,30120,1,8,0:0:0:0:
256,192,30240,1,0,0:0:0:0:
256,192,30300,1,0,0:0:0:0:
256,192,30360,1,8,0:0:0:0:
256,192,30480,1,0,0:0:0:0:
256,192,30540,1,8,0:0:0:0:
256,192,30600,1,8,0:0:0:0:
256,192,30720,1,4,0:0:0:0:
256,192,30960,1,8,0:0:0:0:
256,192,31080,1,4,0:0:0:0:
256,192,31320,1,0,0:0:0:0:
256,192,31380,1,0,0:0:0:0:
256,192,31440,1,8,0:0:0:0:
256,192,31500,1,8,0:0:0:0:
256,192,31560,1,8,0:0:0:0:
256,192,31620,1,8,0:0:0:0:
256,192,31680,1,0,0:0:0:0:
256,192,31800,1,0,0:0:0:0:
256,192,31920,1,8,0:0:0:0:
256,192,32040,1,8,0:0:0:0:
256,192,32100,1,8,0:0:0:0:
256,192,32160,1,0,0:0:0:0:
256,192,32280,1,0,0:0:0:0:
256,192,32400,1,8,0:0:0:0:
256,192,32460,1,8,0:0:0:0:
256,192,32520,1,0,0:0:0:0:
256,192,32640,1,8,0:0:0:0:
256,192,32760,1,0,0:0:0:0:
256,192,32880,1,0,0:0:0:0:
256,192,33000,1,8,0:0:0:0:
256,192,33060,1,8,0:0:0:0:
256,192,33120,1,0,0:0:0:0:
256,192,33240,1,0,0:0:0:0:
256,192,33300,1,0,0:0:0:0:
256,192,33360,1,8,0:0:0:0:
256,192,33420,1,8,0:0:0:0:
256,192,33480,1,0,0:0:0:0:
256,192,33600,1,8,0:0:0:0:
256,192,33720,1,0,0:0:0:0:
256,192,33840,1,8,0:0:0:0:
256,192,33960,1,8,0:0:0:0:
256,192,34020,1,8,0:0:0:0:
256,192,34080,1,0,0:0:0:0:
256,192,34200,1,8,0:0:0:0:
256,192,34320,1,8,0:0:0:0:
256,192,34380,1,8,0:0:0:0:
256,192,34440,1,0,0:0:0:0:
256,192,34500,1,0,0:0:0:0:
256,192,34560,1,8,0:0:0:0:
256,192,34680,1,0,0:0:0:0:
256,192,34800,1,0,0:0:0:0:
256,192,34860,1,0,0:0:0:0:
256,192,34920,1,8,0:0:0:0:
256,192,35040,1,8,0:0:0:0:
256,192,35100,1,8,0:0:0:0:
256,192,35160,1,0,0:0:0:0:
256,192,35280,1,8,0:0:0:0:
256,192,35340,1,8,0:0:0:0:
256,192,35400,1,8,0:0:0:0:
256,192,35460,1,8,0:0:0:0:
256,192,35520,1,0,0:0:0:0:
256,192,35640,1,0,0:0:0:0:
256,192,35760,1,8,0:0:0:0:
256,192,35880,1,0,0:0:0:0:
256,192,35940,1,0,0:0:0:0:
256,192,36000,1,8,0:0:0:0:
256,192,36120,1,0,0:0:0:0:
256,192,36240,1,8,0:0:0:0:
256,192,36300,1,8,0:0:0:0:
256,192,36360,1,0,0:0:0:0:
256,192,36480,1,8,0:0:0:0:
256,192,36600,1,0,0:0:0:0:
256,192,36720,1,0,0:0:0:0:
256,192,36840,1,0,0:0:0:0:
256,192,36900,1,0,0:0:0:0:
256,192,36960,1,8,0:0:0:0:
256,192,37080,1,0,0:0:0:0:
256,192,37140,1,0,0:0:0:0:
256,192,37200,1,8,0:0:0:0:
256,192,37260,1,8,0:0:0:0:
256,192,37320,1,0,0:0:0:0:
256,192,37440,1,8,0:0:0:0:
256,192,37560,1,0,0:0:0:0:
256,192,37680,1,8,0:0:0:0:
256,192,37800,1,0,0:0:0:0:
256,192,37860,1,0,0:0:0:0:
256,192,37920,1,8,0:0:0:0:
256,192,38040,1,0,0:0:0:0:
256,192,38160,1,8,0:0:0:0:
256,192,38220,1,8,0:0:0:0:
256,192,38280,1,0,0:0:0:0:
256,192,38400,1,8,0:0:0:0:
256,192,38460,1,8,0:0:0:0:
256,192,38520,1,8,0:0:0:0:
256,192,38580,1,8,0:0:0:0:
256,192,38640,1,0,0:0:0:0:
256,192,38760,1,0,0:0:0:0:
256,192,38880,1,8,0:0:0:0:
256,192,38940,1,8,0:0:0:0:
256,192,39000,1,8,0:0:0:0:
256,192,39060,1,8,0:0:0:0:
256,192,39360,1,12,0:0:0:0:
256,192,39600,1,8,0:0:0:0:
256,192,39720,1,8,0:0:0:0:
256,192,39840,1,8,0:0:0:0:
256,192,39960,1,0,0:0:0:0:
256,192,40020,1,0,0:0:0:0:
256,192,40080,1,8,0:0:0:0:
256,192,40200,1,8,0:0:0:0:
256,192,40320,1,0,0:0:0:0:
256,192,40560,1,8,0:0:0:0:
256,192,40680,1,8,0:0:0:0:
256,192,40800,1,0,0:0:0:0:
256,192,40920,1,0,0:0:0:0:
256,192,40980,1,0,0:0:0:0:
256,192,41040,1,8,0:0:0:0:
256,192,41160,1,0,0:0:0:0:
256,192,41280,1,8,0:0:0:0:
256,192,41520,1,8,0:0:0:0:
256,192,41640,1,0,0:0:0:0:
256,192,41760,1,8,0:0:0:0:
256,192,41880,1,0,0:0:0:0:
256,192,41940,1,0,0:0:0:0:
256,192,42000,1,8,0:0:0:0:
256,192,42120,1,8,0:0:0:0:
256,192,42240,1,0,0:0:0:0:
256,192,42480,1,8,0:0:0:0:
256,192,42600,1,0,0:0:0:0:
256,192,42720,1,8,0:0:0:0:
256,192,42840,1,0,0:0:0:0:
256,192,42900,1,0,0:0:0:0:
256,192,42960,1,8,0:0:0:0:
256,192,43020,1,8,0:0:0:0:
256,192,43080,1,0,0:0:0:0:
256,192,43200,1,8,0:0:0:0:
256,192,43320,1,0,0:0:0:0:
256,192,43380,1,0,0:0:0:0:
256,192,43440,1,0,0:0:0:0:
256,192,43560,1,8,0:0:0:0:
256,192,43680,1,0,0:0:0:0:
256,192,43740,1,0,0:0:0:0:
256,192,43800,1,8,0:0:0:0:
256,192,43920,1,8,0:0:0:0:
256,192,44040,1,0,0:0:0:0:
256,192,44100,1,0,0:0:0:0:
256,192,44160,1,0,0:0:0:0:
256,192,44280,1,8,0:0:0:0:
256,192,44400,1,8,0:0:0:0:
256,192,44460,1,8,0:0:0:0:
256,192,44520,1,0,0:0:0:0:
256,192,44640,1,0,0:0:0:0:
256,192,44720,1,0,0:0:0:0:
256,192,44800,1,0,0:0:0:0:
256,192,44880,1,8,0:0:0:0:
256,192,44960,1,8,0:0:0:0:
256,192,45040,1,8,0:0:0:0:
256,192,45120,1,0,0:0:0:0:
256,192,45240,1,0,0:0:0:0:
256,192,45360,1,8,0:0:0:0:
256,192,45480,1,8,0:0:0:0:
256,192,45540,1,8,0:0:0:0:
256,192,45600,1,0,0:0:0:0:
256,192,45720,1,0,0:0:0:0:
256,192,45840,1,8,0:0:0:0:
256,192,45900,1,0,0:0:0:0:
256,192,45960,1,0,0:0:0:0:
256,192,46080,1,0,0:0:0:0:
256,192,46200,1,8,0:0:0:0:
256,192,46260,1,8,0:0:0:0:
256,192,46320,1,0,0:0:0:0:
256,192,46380,1,0,0:0:0:0:
256,192,46440,1,8,0:0:0:0:
256,192,46560,1,8,0:0:0:0:
256,192,46680,1,0,0:0:0:0:
256,192,46740,1,0,0:0:0:0:
256,192,46800,1,8,0:0:0:0:
256,192,46860,1,8,0:0:0:0:
256,192,46920,1,8,0:0:0:0:
256,192,47040,1,4,0:0:0:0:
256,192,47280,1,0,0:0:0:0:
256,192,47340,1,0,0:0:0:0:
256,192,47400,1,8,0:0:0:0:
256,192,47520,1,8,0:0:0:0:
256,192,47640,1,0,0:0:0:0:
256,192,47760,1,8,0:0:0:0:
256,192,47880,1,0,0:0:0:0:
256,192,48000,1,0,0:0:0:0:
256,192,48240,1,0,0:0:0:0:
256,192,48300,1,0,0:0:0:0:
256,192,48360,1,8,0:0:0:0:
256,192,48480,1,0,0:0:0:0:
256,192,48600,1,0,0:0:0:0:
256,192,48720,1,8,0:0:0:0:
256,192,48840,1,8,0:0:0:0:
256,192,48960,1,0,0:0:0:0:
256,192,49200,1,0,0:0:0:0:
256,192,49260,1,0,0:0:0:0:
256,192,49320,1,8,0:0:0:0:
256,192,49440,1,8,0:0:0:0:
256,192,49560,1,8,0:0:0:0:
256,192,49680,1,0,0:0:0:0:
256,192,49800,1,0,0:0:0:0:
256,192,50160,1,12,0:0:0:0:
256,192,50280,1,0,0:0:0:0:
256,192,50400,1,12,0:0:0:0:
256,192,50640,1,12,0:0:0:0:
256,192,50880,1,0,0:0:0:0:
256,192,51000,1,8,0:0:0:0:
256,192,51060,1,8,0:0:0:0:
256,192,51120,1,8,0:0:0:0:
256,192,51240,1,0,0:0:0:0:
256,192,51360,1,8,0:0:0:0:
256,192,51420,1,8,0:0:0:0:
256,192,51480,1,0,0:0:0:0:
256,192,51600,1,0,0:0:0:0:
256,192,51720,1,8,0:0:0:0:
256,192,51780,1,8,0:0:0:0:
256,192,51840,1,8,0:0:0:0:
256,192,51960,1,0,0:0:0:0:
256,192,52080,1,8,0:0:0:0:
256,192,52140,1,8,0:0:0:0:
256,192,52200,1,0,0:0:0:0:
256,192,52260,1,0,0:0:0:0:
256,192,52320,1,8,0:0:0:0:
256,192,52440,1,8,0:0:0:0:
256,192,52500,1,8,0:0:0:0:
256,192,52560,1,0,0:0:0:0:
256,192,52680,1,8,0:0:0:0:
256,192,52800,1,0,0:0:0:0:
256,192,52860,1,0,0:0:0:0:
256,192,52920,1,0,0:0:0:0:
256,192,52980,1,0,0:0:0:0:
256,192,53040,1,8,0:0:0:0:
256,192,53160,1,8,0:0:0:0:
256,192,53220,1,8,0:0:0:0:
256,192,53280,1,0,0:0:0:0:
256,192,53400,1,0,0:0:0:0:
256,192,53460,1,0,0:0:0:0:
256,192,53520,1,8,0:0:0:0:
256,192,53580,1,8,0:0:0:0:
256,192,53640,1,0,0:0:0:0:
256,192,53760,1,0,0:0:0:0:
256,192,53880,1,8,0:0:0:0:
256,192,53940,1,8,0:0:0:0:
256,192,54000,1,0,0:0:0:0:
256,192,54060,1,0,0:0:0:0:
256,192,54120,1,8,0:0:0:0:
256,192,54240,1,8,0:0:0:0:
256,192,54300,1,8,0:0:0:0:
256,192,54360,1,8,0:0:0:0:
256,192,54420,1,8,0:0:0:0:
256,192,54480,1,8,0:0:0:0:
256,192,54540,1,8,0:0:0:0:
256,192,54600,1,8,0:0:0:0:
256,192,54720,1,4,0:0:0:0:
256,192,54840,1,4,0:0:0:0:
256,192,55080,1,4,0:0:0:0:
256,192,55200,1,4,0:0:0:0:
256,192,55440,1,12,0:0:0:0:
256,192,55560,1,12,0:0:0:0:
256,192,55800,1,12,0:0:0:0:
256,192,55920,1,12,0:0:0:0:
256,192,56160,1,4,0:0:0:0:
256,192,56280,1,12,0:0:0:0:
256,192,56640,1,12,0:0:0:0:
256,192,56760,1,4,0:0:0:0:
256,192,57000,1,12,0:0:0:0:
256,192,57120,1,4,0:0:0:0:
256,192,57360,1,12,0:0:0:0:
256,192,57480,1,12,0:0:0:0:
256,192,57720,1,12,0:0:0:0:
256,192,57840,1,12,0:0:0:0:
256,192,58080,1,4,0:0:0:0:
256,192,58200,1,12,0:0:0:0:
256,192,58320,1,0,0:0:0:0:
256,192,58380,1,0,0:0:0:0:
256,192,58440,1,8,0:0:0:0:
256,192,58560,1,4,0:0:0:0:
256,192,58680,1,4,0:0:0:0:
256,192,58920,1,12,0:0:0:0:
256,192,59040,1,4,0:0:0:0:
256,192,59280,1,12,0:0:0:0:
256,192,59400,1,12,0:0:0:0:
256,192,59640,1,4,0:0:0:0:
256,192,59760,1,12,0:0:0:0:
256,192,60000,1,12,0:0:0:0:
256,192,60120,1,12,0:0:0:0:
256,192,60360,1,0,0:0:0:0:
256,192,60420,1,0,0:0:0:0:
256,192,60480,1,12,0:0:0:0:
256,192,60600,1,4,0:0:0:0:
256,192,60840,1,4,0:0:0:0:
256,192,60960,1,4,0:0:0:0:
256,192,61200,1,12,0:0:0:0:
256,192,61320,1,12,0:0:0:0:
256,192,61560,1,12,0:0:0:0:
256,192,61680,1,4,0:0:0:0:
256,192,61920,1,12,0:0:0:0:
256,192,62040,1,12,0:0:0:0:
256,192,62160,1,4,0:0:0:0:
256,192,62400,5,8,0:0:0:0:
256,192,62460,1,8,0:0:0:0:
256,192,62520,1,0,0:0:0:0:
256,192,62580,1,0,0:0:0:0:
256,192,62640,1,8,0:0:0:0:
256,192,62700,1,8,0:0:0:0:
256,192,62760,1,0,0:0:0:0:
256,192,62880,1,8,0:0:0:0:
256,192,62940,1,8,0:0:0:0:
256,192,63000,1,0,0:0:0:0:
256,192,63120,1,0,0:0:0:0:
256,192,63240,1,8,0:0:0:0:
256,192,63300,1,8,0:0:0:0:
256,192,63360,1,0,0:0:0:0:
256,192,63420,1,0,0:0:0:0:
256,192,63480,1,0,0:0:0:0:
256,192,63540,1,0,0:0:0:0:
256,192,63600,1,8,0:0:0:0:
256,192,63720,1,0,0:0:0:0:
256,192,63840,1,8,0:0:0:0:
256,192,63900,1,8,0:0:0:0:
256,192,63960,1,8,0:0:0:0:
256,192,64020,1,8,0:0:0:0:
256,192,64080,1,0,0:0:0:0:
256,192,64200,1,0,0:0:0:0:
256,192,64320,1,8,0:0:0:0:
256,192,64380,1,8,0:0:0:0:
256,192,64440,1,0,0:0:0:0:
256,192,64500,1,0,0:0:0:0:
256,192,64560,1,8,0:0:0:0:
256,192,64620,1,8,0:0:0:0:
256,192,64680,1,0,0:0:0:0:
256,192,64800,1,8,0:0:0:0:
256,192,64860,1,8,0:0:0:0:
256,192,64920,1,0,0:0:0:0:
256,192,65040,1,0,0:0:0:0:
256,192,65160,1,8,0:0:0:0:
256,192,65220,1,8,0:0:0:0:
256,192,65280,1,0,0:0:0:0:
256,192,65340,1,0,0:0:0:0:
256,192,65400,1,0,0:0:0:0:
256,192,65460,1,0,0:0:0:0:
256,192,65520,1,8,0:0:0:0:
256,192,65640,1,0,0:0:0:0:
256,192,65760,1,8,0:0:0:0:
256,192,65820,1,8,0:0:0:0:
256,192,65880,1,0,0:0:0:0:
256,192,65940,1,0,0:0:0:0:
256,192,66000,1,8,0:0:0:0:
256,192,66060,1,8,0:0:0:0:
256,192,66120,1,8,0:0:0:0:
256,192,66240,1,4,0:0:0:0:
256,192,68160,1,0,0:0:0:0:
256,192,70080,1,0,0:0:0:0:
256,192,72000,1,8,0:0:0:0:
256,192,72960,1,8,0:0:0:0:
256,192,73920,1,0,0:0:0:0:
256,192,74160,1,8,0:0:0:0:
256,192,74400,1,0,0:0:0:0:
256,192,74520,1,0,0:0:0:0:
256,192,74640,1,8,0:0:0:0:
256,192,74880,1,0,0:0:0:0:
256,192,75120,1,8,0:0:0:0:
256,192,75240,1,0,0:0:0:0:
256,192,75480,1,0,0:0:0:0:
256,192,75600,1,8,0:0:0:0:
256,192,75840,1,0,0:0:0:0:
256,192,76080,1,8,0:0:0:0:
256,192,76320,1,0,0:0:0:0:
256,192,76440,1,0,0:0:0:0:
256,192,76560,1,8,0:0:0:0:
256,192,76680,1,0,0:0:0:0:
256,192,76740,1,0,0:0:0:0:
256,192,76800,1,0,0:0:0:0:
256,192,77040,1,8,0:0:0:0:
256,192,77160,1,0,0:0:0:0:
256,192,77400,1,0,0:0:0:0:
256,192,77520,1,8,0:0:0:0:
256,192,77760,1,0,0:0:0:0:
256,192,78000,1,8,0:0:0:0:
256,192,78120,1,0,0:0:0:0:
256,192,78360,1,0,0:0:0:0:
256,192,78420,1,0,0:0:0:0:
256,192,78480,1,8,0:0:0:0:
256,192,78720,1,0,0:0:0:0:
256,192,78960,1,8,0:0:0:0:
256,192,79080,1,0,0:0:0:0:
256,192,79140,1,0,0:0:0:0:
256,192,79200,1,0,0:0:0:0:
256,192,79440,1,8,0:0:0:0:
256,192,79680,1,0,0:0:0:0:
256,192,79800,1,0,0:0:0:0:
256,192,79920,1,8,0:0:0:0:
256,192,80040,1,8,0:0:0:0:
256,192,80160,1,0,0:0:0:0:
256,192,80400,1,8,0:0:0:0:
256,192,80520,1,0,0:0:0:0:
256,192,80580,1,0,0:0:0:0:
256,192,80640,1,0,0:0:0:0:
256,192,80760,1,0,0:0:0:0:
256,192,80880,1,8,0:0:0:0:
256,192,81000,1,0,0:0:0:0:
256,192,81120,1,8,0:0:0:0:
256,192,81180,1,0,0:0:0:0:
256,192,81240,1,0,0:0:0:0:
256,192,81360,1,8,0:0:0:0:
256,192,81480,1,8,0:0:0:0:
256,192,81540,1,8,0:0:0:0:
256,192,81600,1,0,0:0:0:0:
256,192,82560,1,0,0:0:0:0:
256,192,82620,1,0,0:0:0:0:
256,192,82680,1,0,0:0:0:0:
256,192,82740,1,0,0:0:0:0:
256,192,82800,1,0,0:0:0:0:
256,192,82860,1,0,0:0:0:0:
256,192,82920,1,0,0:0:0:0:
256,192,82980,1,0,0:0:0:0:
256,192,83040,1,8,0:0:0:0:
256,192,83160,1,12,0:0:0:0:
256,192,83280,1,4,0:0:0:0:
256,192,83520,1,8,0:0:0:0:
256,192,83640,1,0,0:0:0:0:
256,192,83700,1,0,0:0:0:0:
256,192,83760,1,8,0:0:0:0:
256,192,83880,1,8,0:0:0:0:
256,192,84000,1,0,0:0:0:0:
256,192,84120,1,0,0:0:0:0:
256,192,84180,1,0,0:0:0:0:
256,192,84240,1,8,0:0:0:0:
256,192,84300,1,0,0:0:0:0:
256,192,84360,1,8,0:0:0:0:
256,192,84480,1,0,0:0:0:0:
256,192,84600,1,0,0:0:0:0:
256,192,84660,1,0,0:0:0:0:
256,192,84720,1,8,0:0:0:0:
256,192,84840,1,8,0:0:0:0:
256,192,84900,1,8,0:0:0:0:
256,192,84960,1,0,0:0:0:0:
256,192,85080,1,0,0:0:0:0:
256,192,85200,1,8,0:0:0:0:
256,192,85260,1,8,0:0:0:0:
256,192,85320,1,0,0:0:0:0:
256,192,85380,1,0,0:0:0:0:
256,192,85440,1,8,0:0:0:0:
256,192,85560,1,0,0:0:0:0:
256,192,85680,1,8,0:0:0:0:
256,192,85800,1,0,0:0:0:0:
256,192,85860,1,0,0:0:0:0:
256,192,85920,1,8,0:0:0:0:
256,192,86040,1,0,0:0:0:0:
256,192,86100,1,8,0:0:0:0:
256,192,86160,1,8,0:0:0:0:
256,192,86280,1,8,0:0:0:0:
256,192,86400,1,0,0:0:0:0:
256,192,86520,1,8,0:0:0:0:
256,192,86580,1,0,0:0:0:0:
256,192,86640,1,8,0:0:0:0:
256,192,86760,1,0,0:0:0:0:
256,192,86880,1,8,0:0:0:0:
256,192,87000,1,0,0:0:0:0:
256,192,87060,1,0,0:0:0:0:
256,192,87120,1,8,0:0:0:0:
256,192,87180,1,8,0:0:0:0:
256,192,87240,1,0,0:0:0:0:
256,192,87360,1,8,0:0:0:0:
256,192,87480,1,0,0:0:0:0:
256,192,87540,1,0,0:0:0:0:
256,192,87600,1,8,0:0:0:0:
256,192,87720,1,0,0:0:0:0:
256,192,87840,1,8,0:0:0:0:
256,192,87900,1,8,0:0:0:0:
256,192,87960,1,0,0:0:0:0:
256,192,88020,1,0,0:0:0:0:
256,192,88080,1,8,0:0:0:0:
256,192,88200,1,8,0:0:0:0:
256,192,88320,1,0,0:0:0:0:
256,192,88440,1,0,0:0:0:0:
256,192,88500,1,0,0:0:0:0:
256,192,88560,1,8,0:0:0:0:
256,192,88680,1,0,0:0:0:0:
256,192,88800,1,8,0:0:0:0:
256,192,88920,1,0,0:0:0:0:
256,192,88980,1,0,0:0:0:0:
256,192,89040,1,8,0:0:0:0:
256,192,89100,1,8,0:0:0:0:
256,192,89160,1,0,0:0:0:0:
256,192,89280,1,8,0:0:0:0:
256,192,89400,1,0,0:0:0:0:
256,192,89460,1,0,0:0:0:0:
256,192,89520,1,8,0:0:0:0:
256,192,89640,1,0,0:0:0:0:
256,192,89760,1,8,0:0:0:0:
256,192,89820,1,0,0:0:0:0:
256,192,89880,1,8,0:0:0:0:
256,192,89940,1,8,0:0:0:0:
256,192,90000,1,0,0:0:0:0:
256,192,90120,1,0,0:0:0:0:
256,192,90180,1,0,0:0:0:0:
256,192,90240,1,8,0:0:0:0:
256,192,90360,1,8,0:0:0:0:
256,192,90480,1,0,0:0:0:0:
256,192,90540,1,0,0:0:0:0:
256,192,90600,1,8,0:0:0:0:
256,192,90660,1,0,0:0:0:0:
256,192,90720,1,8,0:0:0:0:
256,192,90840,1,0,0:0:0:0:
256,192,90960,1,8,0:0:0:0:
256,192,91200,1,0,0:0:0:0:
256,192,91260,1,0,0:0:0:0:
256,192,91320,1,8,0:0:0:0:
256,192,91380,1,8,0:0:0:0:
256,192,91440,1,0,0:0:0:0:
256,192,91560,1,0,0:0:0:0:
256,192,91680,1,8,0:0:0:0:
256,192,91740,1,8,0:0:0:0:
256,192,91800,1,0,0:0:0:0:
256,192,91860,1,0,0:0:0:0:
256,192,91920,1,8,0:0:0:0:
256,192,91980,1,0,0:0:0:0:
256,192,92040,1,8,0:0:0:0:
256,192,92160,1,0,0:0:0:0:
256,192,92280,1,8,0:0:0:0:
256,192,92340,1,8,0:0:0:0:
256,192,92400,1,0,0:0:0:0:
256,192,92460,1,0,0:0:0:0:
256,192,92520,1,8,0:0:0:0:
256,192,92640,1,8,0:0:0:0:
256,192,92700,1,8,0:0:0:0:
256,192,92760,1,0,0:0:0:0:
256,192,92820,1,0,0:0:0:0:
256,192,92880,1,8,0:0:0:0:
256,192,92940,1,8,0:0:0:0:
256,192,93000,1,0,0:0:0:0:
256,192,93120,1,8,0:0:0:0:
256,192,93240,1,0,0:0:0:0:
256,192,93300,1,0,0:0:0:0:
256,192,93360,1,8,0:0:0:0:
256,192,93480,1,0,0:0:0:0:
256,192,93540,1,0,0:0:0:0:
256,192,93600,1,8,0:0:0:0:
256,192,93660,1,8,0:0:0:0:
256,192,93720,1,0,0:0:0:0:
256,192,93780,1,0,0:0:0:0:
256,192,93840,1,8,0:0:0:0:
256,192,93960,1,8,0:0:0:0:
256,192,94080,1,0,0:0:0:0:
256,192,94140,1,0,0:0:0:0:
256,192,94200,1,8,0:0:0:0:
256,192,94260,1,0,0:0:0:0:
256,192,94320,1,8,0:0:0:0:
256,192,94440,1,0,0:0:0:0:
256,192,94560,1,8,0:0:0:0:
256,192,94620,1,8,0:0:0:0:
256,192,94680,1,0,0:0:0:0:
256,192,94740,1,0,0:0:0:0:
256,192,94800,1,8,0:0:0:0:
256,192,95040,1,0,0:0:0:0:
256,192,95100,1,0,0:0:0:0:
256,192,95160,1,0,0:0:0:0:
256,192,95220,1,0,0:0:0:0:
256,192,95280,1,8,0:0:0:0:
256,192,95340,1,8,0:0:0:0:
256,192,95400,1,0,0:0:0:0:
256,192,95520,1,8,0:0:0:0:
256,192,95580,1,8,0:0:0:0:
256,192,95640,1,0,0:0:0:0:
256,192,95700,1,0,0:0:0:0:
256,192,95760,1,8,0:0:0:0:
256,192,96000,1,8,0:0:0:0:
256,192,96060,1,8,0:0:0:0:
256,192,96120,1,8,0:0:0:0:
256,192,96180,1,8,0:0:0:0:
256,192,96240,1,0,0:0:0:0:
256,192,96360,1,8,0:0:0:0:
256,192,96420,1,8,0:0:0:0:
256,192,96480,1,0,0:0:0:0:
256,192,96540,1,0,0:0:0:0:
256,192,96600,1,8,0:0:0:0:
256,192,96660,1,0,0:0:0:0:
256,192,96720,1,8,0:0:0:0:
256,192,96960,1,8,0:0:0:0:
256,192,97020,1,8,0:0:0:0:
256,192,97080,1,0,0:0:0:0:
256,192,97140,1,0,0:0:0:0:
256,192,97200,1,8,0:0:0:0:
256,192,97260,1,8,0:0:0:0:
256,192,97320,1,0,0:0:0:0:
256,192,97440,1,0,0:0:0:0:
256,192,97500,1,0,0:0:0:0:
256,192,97560,1,8,0:0:0:0:
256,192,97620,1,0,0:0:0:0:
256,192,97680,1,8,0:0:0:0:
256,192,97740,1,8,0:0:0:0:
256,192,97800,1,8,0:0:0:0:
256,192,97860,1,8,0:0:0:0:
256,192,97920,1,0,0:0:0:0:
256,192,98400,1,0,0:0:0:0:
256,192,98460,1,0,0:0:0:0:
256,192,98520,1,0,0:0:0:0:
256,192,98580,1,0,0:0:0:0:
256,192,98640,1,8,0:0:0:0:
256,192,98880,1,8,0:0:0:0:
256,192,98940,1,8,0:0:0:0:
256,192,99000,1,8,0:0:0:0:
256,192,99060,1,8,0:0:0:0:
256,192,99120,1,0,0:0:0:0:
256,192,99180,1,0,0:0:0:0:
256,192,99240,1,0,0:0:0:0:
256,192,99300,1,0,0:0:0:0:
256,192,99360,1,8,0:0:0:0:
256,192,99480,1,0,0:0:0:0:
256,192,99540,1,0,0:0:0:0:
256,192,99600,1,0,0:0:0:0:
256,192,99720,1,8,0:0:0:0:
256,192,99780,1,8,0:0:0:0:
256,192,99840,1,0,0:0:0:0:
256,192,99900,1,0,0:0:0:0:
256,192,99960,1,8,0:0:0:0:
256,192,100020,1,0,0:0:0:0:
256,192,100080,1,8,0:0:0:0:
256,192,100140,1,8,0:0:0:0:
256,192,100200,1,0,0:0:0:0:
256,192,100320,1,8,0:0:0:0:
256,192,100380,1,8,0:0:0:0:
256,192,100440,1,8,0:0:0:0:
256,192,100500,1,8,0:0:0:0:
256,192,100560,1,0,0:0:0:0:
256,192,100620,1,0,0:0:0:0:
256,192,100680,1,0,0:0:0:0:
256,192,100800,1,8,0:0:0:0:
256,192,100860,1,8,0:0:0:0:
256,192,100920,1,8,0:0:0:0:
256,192,100980,1,8,0:0:0:0:
256,192,101040,1,0,0:0:0:0:
256,192,101100,1,0,0:0:0:0:
256,192,101160,1,0,0:0:0:0:
256,192,101220,1,0,0:0:0:0:
256,192,101280,1,8,0:0:0:0:
256,192,101400,1,0,0:0:0:0:
256,192,101460,1,0,0:0:0:0:
256,192,101520,1,0,0:0:0:0:
256,192,101640,1,8,0:0:0:0:
256,192,101700,1,8,0:0:0:0:
256,192,101760,1,0,0:0:0:0:
256,192,101820,1,0,0:0:0:0:
256,192,101880,1,8,0:0:0:0:
256,192,101940,1,0,0:0:0:0:
256,192,102000,1,8,0:0:0:0:
256,192,102060,1,8,0:0:0:0:
256,192,102120,1,0,0:0:0:0:
256,192,102240,1,8,0:0:0:0:
256,192,102300,1,8,0:0:0:0:
256,192,102360,1,0,0:0:0:0:
256,192,102420,1,0,0:0:0:0:
256,192,102480,1,8,0:0:0:0:
256,192,102600,1,0,0:0:0:0:
256,192,102720,1,8,0:0:0:0:
256,192,102780,1,8,0:0:0:0:
256,192,102840,1,8,0:0:0:0:
256,192,102900,1,8,0:0:0:0:
256,192,102960,1,0,0:0:0:0:
256,192,103020,1,0,0:0:0:0:
256,192,103080,1,0,0:0:0:0:
256,192,103140,1,0,0:0:0:0:
256,192,103200,1,8,0:0:0:0:
256,192,103320,1,8,0:0:0:0:
256,192,103380,1,8,0:0:0:0:
256,192,103440,1,8,0:0:0:0:
256,192,103560,1,8,0:0:0:0:
256,192,103620,1,8,0:0:0:0:
256,192,103680,1,0,0:0:0:0:
256,192,103740,1,0,0:0:0:0:
256,192,103800,1,8,0:0:0:0:
256,192,103860,1,0,0:0:0:0:
256,192,103920,1,8,0:0:0:0:
256,192,103980,1,8,0:0:0:0:
256,192,104040,1,0,0:0:0:0:
256,192,104160,1,8,0:0:0:0:
256,192,104220,1,8,0:0:0:0:
256,192,104280,1,8,0:0:0:0:
256,192,104340,1,8,0:0:0:0:
256,192,104400,1,0,0:0:0:0:
256,192,104460,1,0,0:0:0:0:
256,192,104520,1,0,0:0:0:0:
256,192,104640,1,8,0:0:0:0:
256,192,104700,1,8,0:0:0:0:
256,192,104760,1,8,0:0:0:0:
256,192,104820,1,8,0:0:0:0:
256,192,104880,1,0,0:0:0:0:
256,192,104940,1,0,0:0:0:0:
256,192,105000,1,0,0:0:0:0:
256,192,105060,1,0,0:0:0:0:
256,192,105120,1,8,0:0:0:0:
256,192,105240,1,8,0:0:0:0:
256,192,105300,1,8,0:0:0:0:
256,192,105360,1,0,0:0:0:0:
256,192,105480,1,8,0:0:0:0:
256,192,105540,1,8,0:0:0:0:
256,192,105600,1,0,0:0:0:0:
256,192,105660,1,0,0:0:0:0:
256,192,105720,1,8,0:0:0:0:
256,192,105780,1,0,0:0:0:0:
256,192,105840,1,8,0:0:0:0:
256,192,105900,1,8,0:0:0:0:
256,192,105960,1,0,0:0:0:0:
256,192,106080,1,8,0:0:0:0:
256,192,106140,1,8,0:0:0:0:
256,192,106200,1,0,0:0:0:0:
256,192,106260,1,0,0:0:0:0:
256,192,106320,1,8,0:0:0:0:
256,192,106380,1,8,0:0:0:0:
256,192,106440,1,0,0:0:0:0:
256,192,106500,1,0,0:0:0:0:
256,192,106560,1,8,0:0:0:0:
256,192,108480,1,0,0:0:0:0:
256,192,108560,1,0,0:0:0:0:
256,192,108640,1,0,0:0:0:0:
256,192,108720,1,0,0:0:0:0:
256,192,108800,1,0,0:0:0:0:
256,192,108880,1,0,0:0:0:0:
256,192,108960,1,0,0:0:0:0:
256,192,109040,1,0,0:0:0:0:
256,192,109120,1,0,0:0:0:0:
256,192,109200,1,0,0:0:0:0:
256,192,109280,1,0,0:0:0:0:
256,192,109360,1,0,0:0:0:0:
256,192,109440,1,8,0:0:0:0:
256,192,109500,1,8,0:0:0:0:
256,192,109560,1,8,0:0:0:0:
256,192,109620,1,8,0:0:0:0:
256,192,109680,1,0,0:0:0:0:
256,192,109740,1,0,0:0:0:0:
256,192,109800,1,0,0:0:0:0:
256,192,109860,1,0,0:0:0:0:
256,192,109920,1,8,0:0:0:0:
256,192,109980,1,8,0:0:0:0:
256,192,110040,1,0,0:0:0:0:
256,192,110100,1,0,0:0:0:0:
256,192,110160,1,8,0:0:0:0:
256,192,110220,1,8,0:0:0:0:
256,192,110280,1,8,0:0:0:0:
256,192,110340,1,8,0:0:0:0:
256,192,110400,1,0,0:0:0:0:
256,192,110520,12,0,112320,0:0:0:0:
