osu file format v14

[General]
AudioFilename: audio.mp3
AudioLeadIn: 0
PreviewTime: 113167
Countdown: 0
SampleSet: Normal
StackLeniency: 0.7
Mode: 3
LetterboxInBreaks: 0
SpecialStyle: 0
WidescreenStoryboard: 0

[Editor]
Bookmarks: 46388
DistanceSpacing: 0.5
BeatDivisor: 5
GridSize: 32
TimelineZoom: 1.3

[Metadata]
Title:Munou
TitleUnicode:無能
Artist:oesterreich
ArtistUnicode:österreich
Creator:Monheim
Version:Nomihoshita
Source:東京喰種√A
Tags:munō 鎌野愛 トーキョーグール math rock tech dump stream marvelous japanese art pop j-rock j rock tokyo ghoul square root a Takahashi Kunimitsu Ai Kamano civilization incompetence 高橋國光 MJSS-09143
BeatmapID:3524398
BeatmapSetID:1724495

[Difficulty]
HPDrainRate:8
CircleSize:4
OverallDifficulty:8
ApproachRate:5
SliderMultiplier:1.4
SliderTickRate:1

[Events]
//Background and Video events
0,0,"munou.png",0,0
//Break Periods
//Storyboard Layer 0 (Background)
//Storyboard Layer 1 (Fail)
//Storyboard Layer 2 (Pass)
//Storyboard Layer 3 (Foreground)
//Storyboard Layer 4 (Overlay)
//Storyboard Sound Samples

[TimingPoints]
676,357.142857142857,7,1,1,30,1,0
676,-100,7,1,1,30,0,0
3175,357.142857142857,6,1,1,30,1,0
3175,-100,6,1,1,30,0,0
5317,357.142857142857,7,1,1,40,1,0
5317,-100,7,1,1,40,0,0
7816,357.142857142857,5,1,1,40,1,0
7816,-100,5,1,1,40,0,0
9601,357.142857142857,4,1,1,40,1,0
9601,-100,4,1,1,40,0,0
12458,357.142857142857,5,1,1,40,1,0
12458,-100,5,1,1,40,0,0
14243,357.142857142857,6,1,1,40,1,0
14243,-100,6,1,1,40,0,0
16743,348.837209302326,6,1,1,40,1,0
16743,-102.040816326531,6,1,1,40,0,0
17266,342.857142857143,6,1,1,40,1,0
17266,-104.166666666667,6,1,1,40,0,0
17608,375,6,1,1,40,1,0
17608,-95.2380952380952,6,1,1,40,0,0
18076,342.857142857143,6,1,1,50,1,0
18076,-104.166666666667,6,1,1,50,0,0
18333,357.142857142857,6,1,1,50,1,0
18333,-100,6,1,1,50,0,0
18511,363.636363636364,4,1,1,30,1,0
18511,-98.0392156862745,4,1,1,30,0,0
19601,357.142857142857,4,1,1,30,1,0
19601,-100,4,1,1,30,0,0
21029,357.142857142857,6,1,1,30,1,0
21029,-100,6,1,1,30,0,0
23171,357.142857142857,7,1,1,30,1,0
23171,-100,7,1,1,30,0,0
25675,352.941176470588,4,1,1,30,1,0
25675,-101.010101010101,4,1,1,30,0,0
27086,357.142857142857,4,1,1,30,1,0
27086,-100,4,1,1,30,0,0
27800,-100,4,1,1,30,0,1
28514,-100,4,1,1,30,0,0
42800,357.142857142857,5,1,1,30,1,0
42800,-100,5,1,1,30,0,0
46371,357.142857142857,7,1,1,50,1,0
46371,-100,7,1,1,50,0,0
48871,357.142857142857,6,1,1,50,1,0
48871,-100,6,1,1,50,0,0
51013,357.142857142857,5,1,1,50,1,0
51013,-100,5,1,1,50,0,0
52798,357.142857142857,4,1,1,50,1,0
52798,-100,4,1,1,50,0,0
55655,357.142857142857,6,1,1,50,1,0
55655,-100,6,1,1,50,0,0
59940,357.142857142857,3,1,1,50,1,0
59940,-100,3,1,1,50,0,0
61011,361.44578313253,5,1,1,50,1,0
61011,-99.009900990099,5,1,1,50,0,0
62818,357.142857142857,6,1,1,50,1,0
62818,-100,6,1,1,50,0,0
64960,357.142857142857,4,1,1,30,1,0
64960,-100,4,1,1,30,0,0
70317,357.142857142857,4,1,1,30,1,0
70317,-100,4,1,1,30,0,0
74602,357.142857142857,5,1,1,30,1,0
74602,-100,5,1,1,30,0,0
76388,357.142857142857,4,1,1,20,1,0
76388,-100,4,1,1,20,0,0
84960,357.142857142857,7,1,1,30,1,0
84960,-100,7,1,1,30,0,0
87460,357.142857142857,6,1,1,30,1,0
87460,-100,6,1,1,30,0,0
89602,357.142857142857,7,1,1,30,1,0
89602,-100,7,1,1,30,0,0
92102,352.941176470588,4,1,1,30,1,0
92102,-101.010101010101,4,1,1,30,0,0
93160,344.827586206897,4,1,1,40,1,0
93160,-103.092783505155,4,1,1,40,0,0
93677,428.571428571429,4,1,1,40,1,0
93677,-83.3333333333333,4,1,1,40,0,0
93891,357.142857142857,4,1,1,20,1,0
93891,-100,4,1,1,20,0,0
94248,357.142857142857,6,1,1,20,1,0
94248,-100,6,1,1,20,0,0
96212,413.793103448276,4,1,1,30,1,0
96212,-86.2068965517241,4,1,1,30,0,0
96418,348.837209302326,4,1,1,30,1,0
96418,-102.040816326531,4,1,1,30,0,0
97813,357.142857142857,4,1,1,30,1,0
97813,-100,4,1,1,30,0,0
98884,357.142857142857,7,1,1,30,1,0
98884,-100,7,1,1,30,0,0
101384,357.142857142857,6,1,1,30,1,0
101384,-100,6,1,1,30,0,0
107812,357.142857142857,5,1,1,30,1,0
107812,-100,5,1,1,30,0,0
109597,357.142857142857,6,1,1,50,1,0
109597,-100,6,1,1,50,0,0
111739,357.142857142857,4,1,1,50,1,0
111739,-100,4,1,1,50,0,0
116024,358.208955223881,5,1,1,30,1,0
116024,-100,5,1,1,30,0,0
117815,358.208955223881,6,1,1,30,1,0
117815,-100,6,1,1,30,0,0
119964,357.142857142857,7,1,1,30,1,0
119964,-100,7,1,1,30,0,0
124964,355.029585798817,5,1,1,50,1,0
124964,-101.010101010101,5,1,1,50,0,0
126739,357.142857142857,6,1,1,50,1,0
126739,-100,6,1,1,50,0,0
131024,357.142857142857,7,1,1,55,1,0
131024,-100,7,1,1,55,0,0
133525,357.142857142857,6,1,1,40,1,0
133525,-100,6,1,1,40,0,0
135667,359.281437125748,5,1,1,40,1,0
135667,-99.009900990099,5,1,1,40,0,0
137463,357.142857142857,6,1,1,40,1,0
137463,-100,6,1,1,40,0,0
139605,357.142857142857,7,1,1,40,1,0
139605,-100,7,1,1,40,0,0
142105,357.142857142857,5,1,1,40,1,0
142105,-100,5,1,1,40,0,0
143890,357.142857142857,6,1,1,40,1,0
143890,-100,6,1,1,40,0,0
148175,357.142857142857,4,1,1,40,1,0
148175,-100,4,1,1,40,0,0
151032,357.142857142857,7,1,1,30,1,0
151032,-100,7,1,1,30,0,0
153532,357.142857142857,6,1,1,30,1,0
153532,-100,6,1,1,30,0,0
159246,348.837209302326,6,1,1,30,1,0
159246,-102.040816326531,6,1,1,30,0,0
159943,368.098159509202,4,1,1,30,1,0
159943,-97.0873786407767,4,1,1,30,0,0
160311,357.142857142857,7,1,1,50,1,0
160311,-100,7,1,1,50,0,0
162811,357.142857142857,6,1,1,50,1,0
162811,-100,6,1,1,50,0,0
167096,357.142857142857,7,1,1,50,1,0
167096,-100,7,1,1,50,0,0
172096,357.142857142857,5,1,1,50,1,0
172096,-100,5,1,1,50,0,0
173881,357.142857142857,3,1,1,30,1,0
173881,-100,3,1,1,30,0,0
174952,357.142857142857,4,1,1,40,1,0
174952,-100,4,1,1,40,0,0
176380,357.142857142857,7,1,1,30,1,0
176380,-100,7,1,1,30,0,0
178880,357.142857142857,4,1,1,40,1,0
178880,-100,4,1,1,40,0,0
183165,357.142857142857,3,1,1,40,1,0
183165,-100,3,1,1,40,0,0
184236,357.142857142857,4,1,1,40,1,0
184236,-100,4,1,1,40,0,0
192807,357.142857142857,5,1,1,30,1,0
192807,-100,5,1,1,30,0,0
194592,357.142857142857,4,1,1,30,1,0
194592,-100,4,1,1,30,0,0
196020,357.142857142857,7,1,1,30,1,0
196020,-100,7,1,1,30,0,0
201020,357.142857142857,6,1,1,40,1,0
201020,-100,6,1,1,40,0,0
203162,357.142857142857,7,1,1,40,1,0
203162,-100,7,1,1,40,0,0
205662,357.142857142857,5,1,1,40,1,0
205662,-100,5,1,1,40,0,0
207447,359.281437125748,4,1,1,30,1,0
207447,-99.009900990099,4,1,1,30,0,0
208884,357.142857142857,5,1,1,30,1,0
208884,-100,5,1,1,30,0,0
210669,357.142857142857,4,1,1,30,1,0
210669,-100,4,1,1,30,0,0
212097,357.142857142857,6,1,1,20,1,0
212097,-100,6,1,1,20,0,0
214239,357.142857142857,7,1,1,30,1,0
214239,-100,7,1,1,30,0,0

[HitObjects]
192,192,676,5,0,0:0:0:0:
448,192,676,1,0,0:0:0:0:
64,192,854,1,0,0:0:0:0:
192,192,854,1,0,0:0:0:0:
448,192,1211,1,0,0:0:0:0:
320,192,1211,1,0,0:0:0:0:
64,192,1390,1,0,0:0:0:0:
320,192,1390,1,0,0:0:0:0:
64,192,1747,1,0,0:0:0:0:
448,192,1925,1,0,0:0:0:0:
192,192,1925,1,0,0:0:0:0:
448,192,2104,1,0,0:0:0:0:
320,192,2104,1,0,0:0:0:0:
64,192,2283,1,0,0:0:0:0:
192,192,2283,1,0,0:0:0:0:
320,192,2461,1,0,0:0:0:0:
192,192,2461,1,0,0:0:0:0:
448,192,2640,1,0,0:0:0:0:
320,192,2640,1,0,0:0:0:0:
448,192,2818,1,0,0:0:0:0:
64,192,2818,1,0,0:0:0:0:
320,192,2997,1,0,0:0:0:0:
64,192,2997,1,0,0:0:0:0:
320,192,3175,1,0,0:0:0:0:
448,192,3175,1,0,0:0:0:0:
192,192,3353,1,0,0:0:0:0:
64,192,3353,1,0,0:0:0:0:
448,192,3532,1,0,0:0:0:0:
320,192,3710,1,0,0:0:0:0:
448,192,3889,1,0,0:0:0:0:
192,192,3889,1,0,0:0:0:0:
448,192,4246,1,0,0:0:0:0:
320,192,4246,1,0,0:0:0:0:
64,192,4425,1,0,0:0:0:0:
192,192,4603,1,0,0:0:0:0:
448,192,4603,1,0,0:0:0:0:
320,192,4782,1,0,0:0:0:0:
448,192,4960,1,0,0:0:0:0:
64,192,4960,1,0,0:0:0:0:
448,192,5139,1,0,0:0:0:0:
192,192,5139,1,0,0:0:0:0:
64,192,5317,1,0,0:0:0:0:
320,192,5317,1,0,0:0:0:0:
192,192,5317,1,0,0:0:0:0:
64,192,5495,1,0,0:0:0:0:
192,192,5495,1,0,0:0:0:0:
320,192,5674,1,0,0:0:0:0:
64,192,5852,1,0,0:0:0:0:
320,192,6031,1,0,0:0:0:0:
192,192,6031,1,0,0:0:0:0:
448,192,6209,1,0,0:0:0:0:
320,192,6388,1,0,0:0:0:0:
448,192,6567,1,0,0:0:0:0:
320,192,6567,1,0,0:0:0:0:
192,192,6656,1,0,0:0:0:0:
64,192,6745,1,0,0:0:0:0:
448,192,6924,1,0,0:0:0:0:
320,192,6924,1,0,0:0:0:0:
64,192,7102,1,0,0:0:0:0:
320,192,7102,1,0,0:0:0:0:
448,192,7459,1,0,0:0:0:0:
64,192,7459,1,0,0:0:0:0:
64,192,7816,1,0,0:0:0:0:
320,192,7816,1,0,0:0:0:0:
192,192,7994,1,0,0:0:0:0:
64,192,7994,1,0,0:0:0:0:
448,192,8173,1,0,0:0:0:0:
320,192,8351,1,0,0:0:0:0:
64,192,8530,1,0,0:0:0:0:
448,192,8530,1,0,0:0:0:0:
320,192,8887,1,0,0:0:0:0:
192,192,8887,1,0,0:0:0:0:
448,192,9066,1,0,0:0:0:0:
64,192,9155,1,0,0:0:0:0:
320,192,9155,1,0,0:0:0:0:
192,192,9244,1,0,0:0:0:0:
448,192,9423,1,0,0:0:0:0:
64,192,9423,1,0,0:0:0:0:
320,192,9601,1,0,0:0:0:0:
192,192,9672,1,0,0:0:0:0:
320,192,9743,1,0,0:0:0:0:
448,192,9815,1,0,0:0:0:0:
192,192,9886,1,0,0:0:0:0:
64,192,9958,1,0,0:0:0:0:
320,192,10101,1,0,0:0:0:0:
192,192,10172,1,0,0:0:0:0:
64,192,10243,1,0,0:0:0:0:
320,192,10315,1,0,0:0:0:0:
448,192,10315,1,0,0:0:0:0:
192,192,10386,1,0,0:0:0:0:
64,192,10458,1,0,0:0:0:0:
320,192,10672,1,0,0:0:0:0:
192,192,10743,1,0,0:0:0:0:
64,192,10815,1,0,0:0:0:0:
448,192,10815,1,0,0:0:0:0:
320,192,10886,1,0,0:0:0:0:
448,192,10958,1,0,0:0:0:0:
192,192,11029,1,0,0:0:0:0:
320,192,11101,1,0,0:0:0:0:
448,192,11208,1,0,0:0:0:0:
192,192,11279,1,0,0:0:0:0:
64,192,11351,1,0,0:0:0:0:
320,192,11422,1,0,0:0:0:0:
448,192,11565,1,0,0:0:0:0:
320,192,11743,1,0,0:0:0:0:
64,192,11743,1,0,0:0:0:0:
192,192,11922,1,0,0:0:0:0:
320,192,12011,1,0,0:0:0:0:
448,192,12101,1,0,0:0:0:0:
64,192,12243,1,0,0:0:0:0:
192,192,12243,1,0,0:0:0:0:
448,192,12314,1,0,0:0:0:0:
320,192,12386,1,0,0:0:0:0:
192,192,12458,1,0,0:0:0:0:
320,192,12529,1,0,0:0:0:0:
192,192,12600,1,0,0:0:0:0:
64,192,12671,1,0,0:0:0:0:
320,192,12743,1,0,0:0:0:0:
192,192,12815,1,0,0:0:0:0:
448,192,12815,1,0,0:0:0:0:
64,192,12904,1,0,0:0:0:0:
320,192,12993,1,0,0:0:0:0:
192,192,13083,1,0,0:0:0:0:
448,192,13172,1,0,0:0:0:0:
320,192,13350,1,0,0:0:0:0:
64,192,13529,1,0,0:0:0:0:
192,192,13708,1,0,0:0:0:0:
448,192,13886,1,0,0:0:0:0:
320,192,14065,1,0,0:0:0:0:
192,192,14065,1,0,0:0:0:0:
448,192,14154,1,0,0:0:0:0:
192,192,14243,1,0,0:0:0:0:
64,192,14243,1,0,0:0:0:0:
320,192,14314,1,0,0:0:0:0:
64,192,14385,1,0,0:0:0:0:
192,192,14457,1,0,0:0:0:0:
64,192,14528,1,0,0:0:0:0:
320,192,14600,1,0,0:0:0:0:
192,192,14671,1,0,0:0:0:0:
64,192,14778,1,0,0:0:0:0:
320,192,14849,1,0,0:0:0:0:
448,192,14922,1,0,0:0:0:0:
64,192,14957,1,0,0:0:0:0:
192,192,14957,1,0,0:0:0:0:
192,192,15135,1,0,0:0:0:0:
64,192,15225,1,0,0:0:0:0:
320,192,15314,1,0,0:0:0:0:
448,192,15385,1,0,0:0:0:0:
192,192,15457,1,0,0:0:0:0:
320,192,15528,1,0,0:0:0:0:
448,192,15600,1,0,0:0:0:0:
192,192,15671,1,0,0:0:0:0:
320,192,15743,1,0,0:0:0:0:
448,192,15814,1,0,0:0:0:0:
64,192,15850,1,0,0:0:0:0:
320,192,16028,1,0,0:0:0:0:
192,192,16207,1,0,0:0:0:0:
320,192,16385,1,0,0:0:0:0:
448,192,16385,1,0,0:0:0:0:
64,192,16564,1,0,0:0:0:0:
192,192,16743,1,0,0:0:0:0:
320,192,16743,1,0,0:0:0:0:
448,192,16812,1,0,0:0:0:0:
192,192,16882,1,0,0:0:0:0:
64,192,16917,1,0,0:0:0:0:
320,192,16952,1,0,0:0:0:0:
192,192,17004,1,0,0:0:0:0:
448,192,17004,1,0,0:0:0:0:
320,192,17091,1,0,0:0:0:0:
64,192,17091,1,0,0:0:0:0:
192,192,17266,1,0,0:0:0:0:
448,192,17266,1,0,0:0:0:0:
64,192,17334,1,0,0:0:0:0:
192,192,17403,1,0,0:0:0:0:
320,192,17471,1,0,0:0:0:0:
448,192,17608,1,0,0:0:0:0:
320,192,17795,1,0,0:0:0:0:
192,192,17795,1,0,0:0:0:0:
192,192,18076,1,0,0:0:0:0:
448,192,18076,1,0,0:0:0:0:
192,192,18333,1,0,0:0:0:0:
64,192,18333,1,0,0:0:0:0:
320,192,18511,1,0,0:0:0:0:
448,192,18511,1,0,0:0:0:0:
192,192,18583,1,0,0:0:0:0:
320,192,18656,1,0,0:0:0:0:
448,192,18729,1,0,0:0:0:0:
192,192,18801,1,0,0:0:0:0:
64,192,18874,1,0,0:0:0:0:
320,192,19020,1,0,0:0:0:0:
192,192,19092,1,0,0:0:0:0:
64,192,19165,1,0,0:0:0:0:
320,192,19238,1,0,0:0:0:0:
448,192,19238,1,0,0:0:0:0:
192,192,19311,1,0,0:0:0:0:
64,192,19383,1,0,0:0:0:0:
320,192,19601,1,0,0:0:0:0:
192,192,19672,1,0,0:0:0:0:
64,192,19743,1,0,0:0:0:0:
448,192,19743,1,0,0:0:0:0:
320,192,19815,1,0,0:0:0:0:
448,192,19886,1,0,0:0:0:0:
192,192,19958,1,0,0:0:0:0:
320,192,20136,1,0,0:0:0:0:
448,192,20136,1,0,0:0:0:0:
192,192,20210,1,0,0:0:0:0:
64,192,20282,1,0,0:0:0:0:
320,192,20353,1,0,0:0:0:0:
448,192,20493,1,0,0:0:0:0:
320,192,20672,1,0,0:0:0:0:
64,192,20672,1,0,0:0:0:0:
192,192,20851,1,0,0:0:0:0:
64,192,21029,1,0,0:0:0:0:
448,192,21029,1,0,0:0:0:0:
320,192,21100,1,0,0:0:0:0:
192,192,21171,1,0,0:0:0:0:
448,192,21243,1,0,0:0:0:0:
320,192,21386,1,0,0:0:0:0:
64,192,21457,1,0,0:0:0:0:
192,192,21529,1,0,0:0:0:0:
320,192,21600,1,0,0:0:0:0:
64,192,21671,1,0,0:0:0:0:
192,192,21743,1,0,0:0:0:0:
320,192,21743,1,0,0:0:0:0:
448,192,21814,1,0,0:0:0:0:
192,192,21886,1,0,0:0:0:0:
320,192,21957,1,0,0:0:0:0:
448,192,22029,1,0,0:0:0:0:
64,192,22100,1,0,0:0:0:0:
192,192,22279,1,0,0:0:0:0:
448,192,22457,1,0,0:0:0:0:
192,192,22636,1,0,0:0:0:0:
64,192,22814,1,0,0:0:0:0:
448,192,22814,1,0,0:0:0:0:
320,192,22874,1,0,0:0:0:0:
192,192,22933,1,0,0:0:0:0:
320,192,22993,1,0,0:0:0:0:
192,192,23171,1,0,0:0:0:0:
64,192,23171,1,0,0:0:0:0:
320,192,23242,1,0,0:0:0:0:
64,192,23313,1,0,0:0:0:0:
192,192,23385,1,0,0:0:0:0:
64,192,23456,1,0,0:0:0:0:
320,192,23528,1,0,0:0:0:0:
192,192,23599,1,0,0:0:0:0:
64,192,23706,1,0,0:0:0:0:
320,192,23777,1,0,0:0:0:0:
448,192,23850,1,0,0:0:0:0:
192,192,23885,1,0,0:0:0:0:
192,192,24063,1,0,0:0:0:0:
320,192,24063,1,0,0:0:0:0:
64,192,24153,1,0,0:0:0:0:
320,192,24242,1,0,0:0:0:0:
448,192,24313,1,0,0:0:0:0:
192,192,24385,1,0,0:0:0:0:
320,192,24456,1,0,0:0:0:0:
448,192,24528,1,0,0:0:0:0:
192,192,24599,1,0,0:0:0:0:
320,192,24671,1,0,0:0:0:0:
448,192,24742,1,0,0:0:0:0:
64,192,24778,1,0,0:0:0:0:
448,192,24956,1,0,0:0:0:0:
192,192,24956,1,0,0:0:0:0:
320,192,25135,1,0,0:0:0:0:
64,192,25313,1,0,0:0:0:0:
448,192,25313,1,0,0:0:0:0:
64,192,25492,1,0,0:0:0:0:
64,192,25581,1,0,0:0:0:0:
192,192,25675,1,0,0:0:0:0:
448,192,25675,1,0,0:0:0:0:
320,192,25745,1,0,0:0:0:0:
448,192,25816,1,0,0:0:0:0:
64,192,25851,1,0,0:0:0:0:
192,192,25939,1,0,0:0:0:0:
320,192,25939,1,0,0:0:0:0:
448,192,26027,1,0,0:0:0:0:
192,192,26204,1,0,0:0:0:0:
64,192,26204,1,0,0:0:0:0:
320,192,26263,1,0,0:0:0:0:
448,192,26380,1,0,0:0:0:0:
320,192,26451,1,0,0:0:0:0:
448,192,26522,1,0,0:0:0:0:
192,192,26557,1,0,0:0:0:0:
64,192,26557,1,0,0:0:0:0:
320,192,26645,1,0,0:0:0:0:
448,192,26733,1,0,0:0:0:0:
64,192,26910,1,0,0:0:0:0:
320,192,26945,1,0,0:0:0:0:
192,192,26998,1,0,0:0:0:0:
448,192,27086,1,0,0:0:0:0:
64,192,27086,1,0,0:0:0:0:
320,192,27157,1,0,0:0:0:0:
448,192,27228,1,0,0:0:0:0:
192,192,27264,1,0,0:0:0:0:
320,192,27353,1,0,0:0:0:0:
64,192,27443,1,0,0:0:0:0:
192,192,27621,1,0,0:0:0:0:
320,192,27711,1,0,0:0:0:0:
448,192,27800,1,0,0:0:0:0:
64,192,27800,1,0,0:0:0:0:
192,192,27889,1,0,0:0:0:0:
64,192,27889,1,0,0:0:0:0:
320,192,27978,1,0,0:0:0:0:
448,192,27978,1,0,0:0:0:0:
64,192,27978,1,0,0:0:0:0:
320,192,28068,1,0,0:0:0:0:
192,192,28068,1,0,0:0:0:0:
64,192,28157,1,0,0:0:0:0:
448,192,28157,1,0,0:0:0:0:
320,192,28246,1,0,0:0:0:0:
192,192,28246,1,0,0:0:0:0:
192,192,28336,1,0,0:0:0:0:
64,192,28336,1,0,0:0:0:0:
448,192,28336,1,0,0:0:0:0:
320,192,28425,1,0,0:0:0:0:
448,192,28425,1,0,0:0:0:0:
64,192,28514,1,0,0:0:0:0:
448,192,28514,1,0,0:0:0:0:
320,192,28871,1,0,0:0:0:0:
448,192,29228,1,0,0:0:0:0:
192,192,29228,1,0,0:0:0:0:
64,192,29586,1,0,0:0:0:0:
320,192,29943,1,0,0:0:0:0:
192,192,29943,1,0,0:0:0:0:
448,192,30300,1,0,0:0:0:0:
64,192,30657,1,0,0:0:0:0:
320,192,30657,1,0,0:0:0:0:
192,192,31014,1,0,0:0:0:0:
448,192,31371,1,0,0:0:0:0:
448,192,31728,1,0,0:0:0:0:
320,192,31728,1,0,0:0:0:0:
64,192,32086,1,0,0:0:0:0:
320,192,32086,1,0,0:0:0:0:
192,192,32443,1,0,0:0:0:0:
320,192,32621,1,0,0:0:0:0:
448,192,32800,1,0,0:0:0:0:
64,192,32800,1,0,0:0:0:0:
320,192,33157,1,0,0:0:0:0:
448,192,33514,1,0,0:0:0:0:
192,192,33514,1,0,0:0:0:0:
64,192,33871,5,0,0:0:0:0:
320,192,34228,1,0,0:0:0:0:
192,192,34228,1,0,0:0:0:0:
448,192,34586,1,0,0:0:0:0:
192,192,34764,1,0,0:0:0:0:
320,192,34764,1,0,0:0:0:0:
448,192,34943,5,0,0:0:0:0:
64,192,34943,1,0,0:0:0:0:
448,192,35032,1,0,0:0:0:0:
448,192,35121,1,0,0:0:0:0:
448,192,35211,1,0,0:0:0:0:
192,192,35300,1,0,0:0:0:0:
192,192,35389,1,0,0:0:0:0:
192,192,35478,1,0,0:0:0:0:
192,192,35568,1,0,0:0:0:0:
320,192,35657,1,0,0:0:0:0:
64,192,36014,1,0,0:0:0:0:
448,192,36014,1,0,0:0:0:0:
64,192,36371,1,0,0:0:0:0:
192,192,36371,1,0,0:0:0:0:
448,192,36550,1,0,0:0:0:0:
192,192,36907,1,0,0:0:0:0:
448,192,36907,1,0,0:0:0:0:
320,192,36907,1,0,0:0:0:0:
64,192,36907,1,0,0:0:0:0:
320,192,37086,1,0,0:0:0:0:
64,192,37086,1,0,0:0:0:0:
192,192,37157,1,0,0:0:0:0:
320,192,37228,1,0,0:0:0:0:
64,192,37300,1,0,0:0:0:0:
192,192,37371,1,0,0:0:0:0:
448,192,37443,1,0,0:0:0:0:
320,192,37514,1,0,0:0:0:0:
448,192,37586,1,0,0:0:0:0:
192,192,37621,1,0,0:0:0:0:
64,192,37681,1,0,0:0:0:0:
192,192,37800,1,0,0:0:0:0:
448,192,37800,1,0,0:0:0:0:
320,192,37871,1,0,0:0:0:0:
192,192,37943,1,0,0:0:0:0:
448,192,38014,1,0,0:0:0:0:
320,192,38086,1,0,0:0:0:0:
64,192,38157,1,0,0:0:0:0:
192,192,38228,1,0,0:0:0:0:
64,192,38300,1,0,0:0:0:0:
320,192,38335,1,0,0:0:0:0:
448,192,38395,1,0,0:0:0:0:
320,192,38514,1,0,0:0:0:0:
64,192,38514,1,0,0:0:0:0:
192,192,38586,1,0,0:0:0:0:
448,192,38657,1,0,0:0:0:0:
320,192,38728,1,0,0:0:0:0:
192,192,38800,1,0,0:0:0:0:
448,192,38871,1,0,0:0:0:0:
64,192,38871,1,0,0:0:0:0:
320,192,38943,1,0,0:0:0:0:
448,192,39014,1,0,0:0:0:0:
64,192,39086,1,0,0:0:0:0:
192,192,39157,1,0,0:0:0:0:
448,192,39228,1,0,0:0:0:0:
320,192,39228,1,0,0:0:0:0:
64,192,39300,1,0,0:0:0:0:
448,192,39371,1,0,0:0:0:0:
320,192,39443,1,0,0:0:0:0:
192,192,39514,1,0,0:0:0:0:
448,192,39585,1,0,0:0:0:0:
320,192,39657,1,0,0:0:0:0:
448,192,39728,1,0,0:0:0:0:
64,192,39764,1,0,0:0:0:0:
192,192,39824,1,0,0:0:0:0:
64,192,39943,1,0,0:0:0:0:
320,192,40014,1,0,0:0:0:0:
64,192,40085,1,0,0:0:0:0:
192,192,40157,1,0,0:0:0:0:
320,192,40228,1,0,0:0:0:0:
448,192,40300,1,0,0:0:0:0:
192,192,40478,1,0,0:0:0:0:
320,192,40478,1,0,0:0:0:0:
64,192,40657,1,0,0:0:0:0:
192,192,40728,1,0,0:0:0:0:
64,192,40800,1,0,0:0:0:0:
320,192,40871,1,0,0:0:0:0:
192,192,41014,1,0,0:0:0:0:
448,192,41014,1,0,0:0:0:0:
64,192,41193,1,0,0:0:0:0:
448,192,41371,1,0,0:0:0:0:
320,192,41371,1,0,0:0:0:0:
192,192,41443,1,0,0:0:0:0:
448,192,41514,1,0,0:0:0:0:
320,192,41585,1,0,0:0:0:0:
192,192,41657,1,0,0:0:0:0:
448,192,41728,1,0,0:0:0:0:
320,192,41800,1,0,0:0:0:0:
448,192,41871,1,0,0:0:0:0:
192,192,41907,1,0,0:0:0:0:
64,192,41966,1,0,0:0:0:0:
192,192,42085,1,0,0:0:0:0:
320,192,42157,1,0,0:0:0:0:
64,192,42228,1,0,0:0:0:0:
192,192,42300,1,0,0:0:0:0:
320,192,42371,1,0,0:0:0:0:
64,192,42443,1,0,0:0:0:0:
192,192,42514,1,0,0:0:0:0:
64,192,42585,1,0,0:0:0:0:
448,192,42621,1,0,0:0:0:0:
320,192,42681,1,0,0:0:0:0:
192,192,42800,1,0,0:0:0:0:
448,192,42800,1,0,0:0:0:0:
64,192,42871,1,0,0:0:0:0:
192,192,42942,1,0,0:0:0:0:
448,192,42978,1,0,0:0:0:0:
320,192,43157,1,0,0:0:0:0:
64,192,43335,1,0,0:0:0:0:
448,192,43335,1,0,0:0:0:0:
320,192,43514,1,0,0:0:0:0:
192,192,43514,1,0,0:0:0:0:
448,192,43585,1,0,0:0:0:0:
320,192,43657,1,0,0:0:0:0:
192,192,43728,1,0,0:0:0:0:
448,192,43800,1,0,0:0:0:0:
64,192,43871,1,0,0:0:0:0:
320,192,43871,1,0,0:0:0:0:
448,192,44050,1,0,0:0:0:0:
320,192,44050,1,0,0:0:0:0:
64,192,44121,1,0,0:0:0:0:
192,192,44192,1,0,0:0:0:0:
448,192,44264,1,0,0:0:0:0:
64,192,44335,1,0,0:0:0:0:
320,192,44407,1,0,0:0:0:0:
192,192,44407,1,0,0:0:0:0:
64,192,44585,1,0,0:0:0:0:
448,192,44585,1,0,0:0:0:0:
320,192,44657,1,0,0:0:0:0:
192,192,44728,1,0,0:0:0:0:
448,192,44800,1,0,0:0:0:0:
320,192,44871,1,0,0:0:0:0:
192,192,44942,5,0,0:0:0:0:
64,192,45121,5,0,0:0:0:0:
192,192,45210,1,0,0:0:0:0:
320,192,45300,1,0,0:0:0:0:
448,192,45478,1,0,0:0:0:0:
320,192,45657,1,0,0:0:0:0:
192,192,45835,1,0,0:0:0:0:
320,192,45925,1,0,0:0:0:0:
448,192,46014,1,0,0:0:0:0:
192,192,46192,5,0,0:0:0:0:
320,192,46371,5,0,0:0:0:0:
64,192,46371,1,0,0:0:0:0:
448,192,46430,1,0,0:0:0:0:
320,192,46490,1,0,0:0:0:0:
192,192,46549,1,0,0:0:0:0:
64,192,46609,1,0,0:0:0:0:
320,192,46668,1,0,0:0:0:0:
192,192,46728,1,0,0:0:0:0:
448,192,46787,1,0,0:0:0:0:
192,192,46847,1,0,0:0:0:0:
64,192,46906,1,0,0:0:0:0:
320,192,46966,1,0,0:0:0:0:
448,192,47025,1,0,0:0:0:0:
320,192,47085,1,0,0:0:0:0:
192,192,47085,1,0,0:0:0:0:
64,192,47144,1,0,0:0:0:0:
192,192,47204,1,0,0:0:0:0:
320,192,47263,1,0,0:0:0:0:
448,192,47323,1,0,0:0:0:0:
192,192,47382,1,0,0:0:0:0:
320,192,47442,1,0,0:0:0:0:
64,192,47501,1,0,0:0:0:0:
320,192,47561,1,0,0:0:0:0:
448,192,47621,1,0,0:0:0:0:
192,192,47680,1,0,0:0:0:0:
64,192,47740,1,0,0:0:0:0:
320,192,47799,1,0,0:0:0:0:
448,192,47799,1,0,0:0:0:0:
192,192,47859,1,0,0:0:0:0:
448,192,47918,1,0,0:0:0:0:
320,192,47978,1,0,0:0:0:0:
192,192,48037,1,0,0:0:0:0:
448,192,48097,1,0,0:0:0:0:
64,192,48156,1,0,0:0:0:0:
192,192,48216,1,0,0:0:0:0:
64,192,48335,1,0,0:0:0:0:
448,192,48335,1,0,0:0:0:0:
320,192,48394,1,0,0:0:0:0:
448,192,48454,1,0,0:0:0:0:
192,192,48513,1,0,0:0:0:0:
64,192,48513,1,0,0:0:0:0:
320,192,48573,1,0,0:0:0:0:
448,192,48632,1,0,0:0:0:0:
192,192,48871,1,0,0:0:0:0:
320,192,48871,1,0,0:0:0:0:
448,192,48871,1,0,0:0:0:0:
64,192,48930,1,0,0:0:0:0:
320,192,48990,1,0,0:0:0:0:
192,192,49049,1,0,0:0:0:0:
448,192,49109,1,0,0:0:0:0:
64,192,49109,1,0,0:0:0:0:
320,192,49168,1,0,0:0:0:0:
192,192,49228,1,0,0:0:0:0:
64,192,49287,1,0,0:0:0:0:
192,192,49406,1,0,0:0:0:0:
448,192,49406,1,0,0:0:0:0:
320,192,49466,1,0,0:0:0:0:
448,192,49525,1,0,0:0:0:0:
192,192,49585,1,0,0:0:0:0:
320,192,49644,1,0,0:0:0:0:
448,192,49704,1,0,0:0:0:0:
64,192,49763,1,0,0:0:0:0:
192,192,49763,1,0,0:0:0:0:
320,192,49823,1,0,0:0:0:0:
192,192,49882,1,0,0:0:0:0:
320,192,49942,1,0,0:0:0:0:
448,192,50001,1,0,0:0:0:0:
192,192,50061,1,0,0:0:0:0:
320,192,50121,1,0,0:0:0:0:
448,192,50180,1,0,0:0:0:0:
192,192,50299,1,0,0:0:0:0:
64,192,50478,1,0,0:0:0:0:
448,192,50478,1,0,0:0:0:0:
192,192,50656,1,0,0:0:0:0:
448,192,50656,1,0,0:0:0:0:
320,192,50835,1,0,0:0:0:0:
64,192,51013,1,0,0:0:0:0:
448,192,51013,1,0,0:0:0:0:
320,192,51072,1,0,0:0:0:0:
64,192,51132,1,0,0:0:0:0:
320,192,51191,1,0,0:0:0:0:
192,192,51251,1,0,0:0:0:0:
64,192,51310,1,0,0:0:0:0:
320,192,51370,1,0,0:0:0:0:
448,192,51548,1,0,0:0:0:0:
64,192,51548,1,0,0:0:0:0:
320,192,51608,1,0,0:0:0:0:
448,192,51667,1,0,0:0:0:0:
192,192,51727,1,0,0:0:0:0:
320,192,51786,1,0,0:0:0:0:
448,192,51846,1,0,0:0:0:0:
192,192,51905,1,0,0:0:0:0:
64,192,52084,1,0,0:0:0:0:
448,192,52084,1,0,0:0:0:0:
320,192,52155,1,0,0:0:0:0:
192,192,52173,1,0,0:0:0:0:
448,192,52227,1,0,0:0:0:0:
64,192,52263,1,0,0:0:0:0:
320,192,52298,1,0,0:0:0:0:
192,192,52352,1,0,0:0:0:0:
448,192,52370,1,0,0:0:0:0:
64,192,52441,1,0,0:0:0:0:
320,192,52620,1,0,0:0:0:0:
192,192,52798,1,0,0:0:0:0:
448,192,52798,1,0,0:0:0:0:
64,192,52857,1,0,0:0:0:0:
448,192,52917,1,0,0:0:0:0:
320,192,52976,1,0,0:0:0:0:
192,192,53036,1,0,0:0:0:0:
64,192,53155,1,0,0:0:0:0:
320,192,53155,1,0,0:0:0:0:
448,192,53214,1,0,0:0:0:0:
64,192,53274,1,0,0:0:0:0:
192,192,53333,1,0,0:0:0:0:
320,192,53393,1,0,0:0:0:0:
192,192,53512,1,0,0:0:0:0:
64,192,53512,1,0,0:0:0:0:
448,192,53571,1,0,0:0:0:0:
320,192,53631,1,0,0:0:0:0:
64,192,53690,1,0,0:0:0:0:
320,192,53869,1,0,0:0:0:0:
192,192,53869,1,0,0:0:0:0:
320,192,54048,1,0,0:0:0:0:
448,192,54048,1,0,0:0:0:0:
192,192,54107,1,0,0:0:0:0:
320,192,54167,1,0,0:0:0:0:
448,192,54226,1,0,0:0:0:0:
192,192,54405,1,0,0:0:0:0:
64,192,54583,1,0,0:0:0:0:
448,192,54583,1,0,0:0:0:0:
320,192,54643,1,0,0:0:0:0:
192,192,54702,1,0,0:0:0:0:
320,192,54762,1,0,0:0:0:0:
192,192,54821,1,0,0:0:0:0:
64,192,54881,1,0,0:0:0:0:
448,192,54940,1,0,0:0:0:0:
320,192,55000,1,0,0:0:0:0:
192,192,55059,1,0,0:0:0:0:
64,192,55119,1,0,0:0:0:0:
64,192,55298,1,0,0:0:0:0:
448,192,55298,1,0,0:0:0:0:
192,192,55476,1,0,0:0:0:0:
320,192,55655,5,0,0:0:0:0:
64,192,55655,1,0,0:0:0:0:
448,192,55714,1,0,0:0:0:0:
320,192,55774,1,0,0:0:0:0:
192,192,55833,1,0,0:0:0:0:
64,192,55893,1,0,0:0:0:0:
192,192,56012,1,0,0:0:0:0:
320,192,56012,1,0,0:0:0:0:
448,192,56071,1,0,0:0:0:0:
192,192,56131,1,0,0:0:0:0:
64,192,56190,1,0,0:0:0:0:
320,192,56250,1,0,0:0:0:0:
192,192,56369,1,0,0:0:0:0:
64,192,56428,1,0,0:0:0:0:
192,192,56488,1,0,0:0:0:0:
320,192,56547,1,0,0:0:0:0:
448,192,56607,1,0,0:0:0:0:
192,192,56726,1,0,0:0:0:0:
320,192,56726,1,0,0:0:0:0:
64,192,56785,1,0,0:0:0:0:
320,192,56845,1,0,0:0:0:0:
448,192,56905,1,0,0:0:0:0:
192,192,56964,1,0,0:0:0:0:
320,192,57083,1,0,0:0:0:0:
192,192,57143,1,0,0:0:0:0:
448,192,57202,1,0,0:0:0:0:
320,192,57262,1,0,0:0:0:0:
448,192,57440,1,0,0:0:0:0:
64,192,57440,1,0,0:0:0:0:
192,192,57500,1,0,0:0:0:0:
448,192,57619,1,0,0:0:0:0:
320,192,57678,1,0,0:0:0:0:
448,192,57738,1,0,0:0:0:0:
192,192,57797,1,0,0:0:0:0:
320,192,57857,1,0,0:0:0:0:
448,192,57916,1,0,0:0:0:0:
192,192,57976,1,0,0:0:0:0:
64,192,57976,1,0,0:0:0:0:
320,192,58035,1,0,0:0:0:0:
192,192,58095,1,0,0:0:0:0:
64,192,58333,1,0,0:0:0:0:
320,192,58333,1,0,0:0:0:0:
448,192,58393,1,0,0:0:0:0:
192,192,58452,1,0,0:0:0:0:
320,192,58512,1,0,0:0:0:0:
448,192,58690,1,0,0:0:0:0:
320,192,58750,1,0,0:0:0:0:
192,192,58809,1,0,0:0:0:0:
64,192,58869,1,0,0:0:0:0:
448,192,58869,1,0,0:0:0:0:
320,192,58928,1,0,0:0:0:0:
192,192,58988,1,0,0:0:0:0:
320,192,59047,1,0,0:0:0:0:
192,192,59107,1,0,0:0:0:0:
64,192,59166,1,0,0:0:0:0:
320,192,59226,1,0,0:0:0:0:
448,192,59226,1,0,0:0:0:0:
192,192,59285,1,0,0:0:0:0:
64,192,59345,1,0,0:0:0:0:
320,192,59405,1,0,0:0:0:0:
64,192,59583,1,0,0:0:0:0:
448,192,59583,1,0,0:0:0:0:
64,192,59762,1,0,0:0:0:0:
192,192,59851,1,0,0:0:0:0:
64,192,59940,1,0,0:0:0:0:
448,192,59940,1,0,0:0:0:0:
320,192,59999,1,0,0:0:0:0:
64,192,60059,1,0,0:0:0:0:
320,192,60118,1,0,0:0:0:0:
192,192,60178,1,0,0:0:0:0:
64,192,60237,1,0,0:0:0:0:
320,192,60297,1,0,0:0:0:0:
448,192,60297,1,0,0:0:0:0:
64,192,60475,1,0,0:0:0:0:
448,192,60475,1,0,0:0:0:0:
320,192,60535,1,0,0:0:0:0:
448,192,60594,1,0,0:0:0:0:
192,192,60654,1,0,0:0:0:0:
320,192,60713,1,0,0:0:0:0:
448,192,60773,1,0,0:0:0:0:
192,192,60832,1,0,0:0:0:0:
448,192,61011,1,0,0:0:0:0:
64,192,61011,1,0,0:0:0:0:
320,192,61083,1,0,0:0:0:0:
192,192,61155,1,0,0:0:0:0:
320,192,61227,1,0,0:0:0:0:
192,192,61300,1,0,0:0:0:0:
64,192,61372,1,0,0:0:0:0:
320,192,61553,1,0,0:0:0:0:
64,192,61643,1,0,0:0:0:0:
192,192,61733,1,0,0:0:0:0:
448,192,61733,1,0,0:0:0:0:
320,192,61794,1,0,0:0:0:0:
64,192,61854,1,0,0:0:0:0:
192,192,61914,1,0,0:0:0:0:
64,192,62095,1,0,0:0:0:0:
320,192,62095,1,0,0:0:0:0:
192,192,62155,1,0,0:0:0:0:
448,192,62208,1,0,0:0:0:0:
320,192,62208,1,0,0:0:0:0:
64,192,62276,1,0,0:0:0:0:
448,192,62336,1,0,0:0:0:0:
192,192,62456,1,0,0:0:0:0:
320,192,62456,1,0,0:0:0:0:
448,192,62501,1,0,0:0:0:0:
64,192,62569,1,0,0:0:0:0:
192,192,62569,1,0,0:0:0:0:
320,192,62637,1,0,0:0:0:0:
64,192,62682,1,0,0:0:0:0:
448,192,62818,1,0,0:0:0:0:
192,192,62818,1,0,0:0:0:0:
64,192,62877,1,0,0:0:0:0:
320,192,62937,1,0,0:0:0:0:
192,192,62996,1,0,0:0:0:0:
320,192,63056,1,0,0:0:0:0:
64,192,63175,1,0,0:0:0:0:
448,192,63175,1,0,0:0:0:0:
64,192,63353,1,0,0:0:0:0:
192,192,63353,1,0,0:0:0:0:
320,192,63413,1,0,0:0:0:0:
448,192,63472,1,0,0:0:0:0:
192,192,63532,1,0,0:0:0:0:
320,192,63591,1,0,0:0:0:0:
448,192,63651,1,0,0:0:0:0:
192,192,63710,1,0,0:0:0:0:
448,192,63889,1,0,0:0:0:0:
64,192,63889,1,0,0:0:0:0:
320,192,63948,1,0,0:0:0:0:
192,192,64008,1,0,0:0:0:0:
320,192,64068,1,0,0:0:0:0:
192,192,64127,1,0,0:0:0:0:
64,192,64187,1,0,0:0:0:0:
448,192,64246,1,0,0:0:0:0:
320,192,64306,1,0,0:0:0:0:
192,192,64365,1,0,0:0:0:0:
320,192,64425,1,0,0:0:0:0:
64,192,64484,1,0,0:0:0:0:
448,192,64544,1,0,0:0:0:0:
192,192,64603,1,0,0:0:0:0:
320,192,64603,1,0,0:0:0:0:
64,192,64663,1,0,0:0:0:0:
448,192,64782,1,0,0:0:0:0:
64,192,64960,1,0,0:0:0:0:
320,192,64960,1,0,0:0:0:0:
448,192,65138,1,0,0:0:0:0:
320,192,65227,1,0,0:0:0:0:
192,192,65317,1,0,0:0:0:0:
320,192,65495,1,0,0:0:0:0:
320,192,65674,1,0,0:0:0:0:
64,192,65674,1,0,0:0:0:0:
192,192,65745,1,0,0:0:0:0:
320,192,65817,1,0,0:0:0:0:
448,192,65888,1,0,0:0:0:0:
192,192,65960,1,0,0:0:0:0:
320,192,66031,1,0,0:0:0:0:
448,192,66102,1,0,0:0:0:0:
192,192,66210,1,0,0:0:0:0:
64,192,66388,1,0,0:0:0:0:
320,192,66460,1,0,0:0:0:0:
192,192,66531,1,0,0:0:0:0:
448,192,66602,1,0,0:0:0:0:
320,192,66745,1,0,0:0:0:0:
64,192,66747,1,0,0:0:0:0:
448,192,66805,1,0,0:0:0:0:
192,192,66864,1,0,0:0:0:0:
320,192,66924,1,0,0:0:0:0:
448,192,67102,1,0,0:0:0:0:
64,192,67102,1,0,0:0:0:0:
320,192,67162,1,0,0:0:0:0:
448,192,67221,1,0,0:0:0:0:
192,192,67245,1,0,0:0:0:0:
64,192,67317,1,0,0:0:0:0:
320,192,67460,1,0,0:0:0:0:
192,192,67549,1,0,0:0:0:0:
320,192,67638,1,0,0:0:0:0:
64,192,67817,1,0,0:0:0:0:
192,192,67817,1,0,0:0:0:0:
320,192,68031,1,0,0:0:0:0:
192,192,68102,1,0,0:0:0:0:
448,192,68174,1,0,0:0:0:0:
320,192,68245,1,0,0:0:0:0:
192,192,68317,1,0,0:0:0:0:
320,192,68388,1,0,0:0:0:0:
192,192,68460,1,0,0:0:0:0:
64,192,68531,1,0,0:0:0:0:
448,192,68531,1,0,0:0:0:0:
320,192,68602,1,0,0:0:0:0:
192,192,68674,1,0,0:0:0:0:
64,192,68745,1,0,0:0:0:0:
320,192,68817,1,0,0:0:0:0:
448,192,68888,1,0,0:0:0:0:
320,192,68960,1,0,0:0:0:0:
192,192,69031,1,0,0:0:0:0:
448,192,69102,1,0,0:0:0:0:
320,192,69174,1,0,0:0:0:0:
64,192,69245,1,0,0:0:0:0:
192,192,69424,1,0,0:0:0:0:
448,192,69602,1,0,0:0:0:0:
320,192,69781,1,0,0:0:0:0:
64,192,69960,1,0,0:0:0:0:
448,192,69960,1,0,0:0:0:0:
192,192,70138,1,0,0:0:0:0:
64,192,70317,1,0,0:0:0:0:
192,192,70388,1,0,0:0:0:0:
320,192,70459,1,0,0:0:0:0:
192,192,70531,1,0,0:0:0:0:
448,192,70602,1,0,0:0:0:0:
320,192,70674,1,0,0:0:0:0:
64,192,70852,1,0,0:0:0:0:
192,192,71031,1,0,0:0:0:0:
320,192,71031,1,0,0:0:0:0:
448,192,71102,1,0,0:0:0:0:
320,192,71174,1,0,0:0:0:0:
192,192,71245,1,0,0:0:0:0:
64,192,71317,1,0,0:0:0:0:
320,192,71388,1,0,0:0:0:0:
448,192,71567,1,0,0:0:0:0:
192,192,71745,1,0,0:0:0:0:
320,192,71745,1,0,0:0:0:0:
64,192,71805,1,0,0:0:0:0:
320,192,71864,1,0,0:0:0:0:
192,192,71924,1,0,0:0:0:0:
64,192,71983,1,0,0:0:0:0:
320,192,72102,1,0,0:0:0:0:
448,192,72102,1,0,0:0:0:0:
64,192,72174,1,0,0:0:0:0:
192,192,72245,1,0,0:0:0:0:
320,192,72317,1,0,0:0:0:0:
192,192,72459,1,0,0:0:0:0:
448,192,72459,1,0,0:0:0:0:
64,192,72638,1,0,0:0:0:0:
320,192,72727,1,0,0:0:0:0:
192,192,72817,1,0,0:0:0:0:
320,192,72995,1,0,0:0:0:0:
448,192,73084,1,0,0:0:0:0:
64,192,73174,1,0,0:0:0:0:
192,192,73174,1,0,0:0:0:0:
320,192,73245,1,0,0:0:0:0:
448,192,73388,1,0,0:0:0:0:
192,192,73459,1,0,0:0:0:0:
64,192,73531,1,0,0:0:0:0:
320,192,73602,1,0,0:0:0:0:
448,192,73674,1,0,0:0:0:0:
320,192,73745,1,0,0:0:0:0:
192,192,73817,1,0,0:0:0:0:
64,192,73888,1,0,0:0:0:0:
448,192,73888,1,0,0:0:0:0:
448,192,74126,1,0,0:0:0:0:
64,192,74126,1,0,0:0:0:0:
192,192,74364,1,0,0:0:0:0:
320,192,74602,1,0,0:0:0:0:
448,192,74602,1,0,0:0:0:0:
192,192,74673,1,0,0:0:0:0:
64,192,74744,1,0,0:0:0:0:
192,192,74816,1,0,0:0:0:0:
320,192,74887,1,0,0:0:0:0:
448,192,74959,1,0,0:0:0:0:
320,192,75137,5,0,0:0:0:0:
64,192,75137,1,0,0:0:0:0:
192,192,75212,1,0,0:0:0:0:
448,192,75283,1,0,0:0:0:0:
320,192,75355,1,0,0:0:0:0:
192,192,75427,1,0,0:0:0:0:
320,192,75497,1,0,0:0:0:0:
64,192,75673,1,0,0:0:0:0:
192,192,75744,1,0,0:0:0:0:
320,192,75816,1,0,0:0:0:0:
448,192,75887,1,0,0:0:0:0:
192,192,75959,1,0,0:0:0:0:
320,192,76209,5,0,0:0:0:0:
64,192,76298,1,0,0:0:0:0:
192,192,76388,1,0,0:0:0:0:
320,192,76566,1,0,0:0:0:0:
64,192,76745,1,0,0:0:0:0:
448,192,76923,1,0,0:0:0:0:
192,192,77280,1,0,0:0:0:0:
64,192,77459,1,0,0:0:0:0:
320,192,77816,1,0,0:0:0:0:
448,192,77995,1,0,0:0:0:0:
192,192,78352,1,0,0:0:0:0:
64,192,78709,1,0,0:0:0:0:
192,192,78888,1,0,0:0:0:0:
320,192,79066,1,0,0:0:0:0:
192,192,79245,1,0,0:0:0:0:
448,192,79423,1,0,0:0:0:0:
320,192,79780,1,0,0:0:0:0:
64,192,79959,1,0,0:0:0:0:
192,192,80138,1,0,0:0:0:0:
448,192,80316,1,0,0:0:0:0:
320,192,80495,1,0,0:0:0:0:
64,192,80673,1,0,0:0:0:0:
192,192,80673,1,0,0:0:0:0:
448,192,80852,1,0,0:0:0:0:
64,192,80852,1,0,0:0:0:0:
320,192,80941,1,0,0:0:0:0:
192,192,80941,1,0,0:0:0:0:
64,192,81030,1,0,0:0:0:0:
448,192,81030,1,0,0:0:0:0:
64,192,81209,1,0,0:0:0:0:
448,192,81209,1,0,0:0:0:0:
448,192,81388,1,0,0:0:0:0:
64,192,81388,1,0,0:0:0:0:
448,192,81566,1,0,0:0:0:0:
320,192,81566,1,0,0:0:0:0:
64,192,81923,1,0,0:0:0:0:
320,192,81923,1,0,0:0:0:0:
64,192,82102,1,0,0:0:0:0:
192,192,82102,1,0,0:0:0:0:
448,192,82280,1,0,0:0:0:0:
192,192,82280,1,0,0:0:0:0:
320,192,82459,1,0,0:0:0:0:
192,192,82638,1,0,0:0:0:0:
64,192,82638,1,0,0:0:0:0:
448,192,82816,1,0,0:0:0:0:
64,192,82816,1,0,0:0:0:0:
192,192,82995,1,0,0:0:0:0:
448,192,83173,1,0,0:0:0:0:
320,192,83173,1,0,0:0:0:0:
448,192,83352,1,0,0:0:0:0:
64,192,83352,1,0,0:0:0:0:
320,192,83441,1,0,0:0:0:0:
192,192,83441,1,0,0:0:0:0:
448,192,83530,1,0,0:0:0:0:
64,192,83530,1,0,0:0:0:0:
64,192,83709,1,0,0:0:0:0:
192,192,83709,1,0,0:0:0:0:
320,192,83888,1,0,0:0:0:0:
192,192,83977,1,0,0:0:0:0:
448,192,84066,1,0,0:0:0:0:
448,192,84245,1,0,0:0:0:0:
320,192,84245,1,0,0:0:0:0:
192,192,84423,1,0,0:0:0:0:
320,192,84513,1,0,0:0:0:0:
448,192,84602,1,0,0:0:0:0:
64,192,84602,1,0,0:0:0:0:
192,192,84691,1,0,0:0:0:0:
192,192,84959,1,0,0:0:0:0:
448,192,84959,1,0,0:0:0:0:
192,192,85138,1,0,0:0:0:0:
64,192,85138,1,0,0:0:0:0:
448,192,85495,1,0,0:0:0:0:
320,192,85674,1,0,0:0:0:0:
64,192,85674,1,0,0:0:0:0:
320,192,85852,1,0,0:0:0:0:
192,192,85852,1,0,0:0:0:0:
64,192,86031,1,0,0:0:0:0:
192,192,86210,1,0,0:0:0:0:
320,192,86388,1,0,0:0:0:0:
64,192,86567,1,0,0:0:0:0:
192,192,86567,1,0,0:0:0:0:
192,192,86745,1,0,0:0:0:0:
320,192,86924,1,0,0:0:0:0:
448,192,87102,1,0,0:0:0:0:
320,192,87281,1,0,0:0:0:0:
64,192,87281,1,0,0:0:0:0:
320,192,87460,1,0,0:0:0:0:
448,192,87460,1,0,0:0:0:0:
192,192,87638,1,0,0:0:0:0:
64,192,87638,1,0,0:0:0:0:
448,192,87817,1,0,0:0:0:0:
320,192,87995,1,0,0:0:0:0:
448,192,88174,1,0,0:0:0:0:
192,192,88174,1,0,0:0:0:0:
448,192,88531,1,0,0:0:0:0:
192,192,88710,1,0,0:0:0:0:
64,192,88710,1,0,0:0:0:0:
320,192,88888,1,0,0:0:0:0:
64,192,89067,1,0,0:0:0:0:
320,192,89245,1,0,0:0:0:0:
448,192,89245,1,0,0:0:0:0:
64,192,89424,1,0,0:0:0:0:
320,192,89424,1,0,0:0:0:0:
64,192,89602,1,0,0:0:0:0:
192,192,89602,1,0,0:0:0:0:
448,192,89780,1,0,0:0:0:0:
320,192,89780,1,0,0:0:0:0:
64,192,89959,1,0,0:0:0:0:
448,192,90137,1,0,0:0:0:0:
64,192,90316,1,0,0:0:0:0:
320,192,90316,1,0,0:0:0:0:
192,192,90494,1,0,0:0:0:0:
64,192,90673,1,0,0:0:0:0:
448,192,90852,1,0,0:0:0:0:
320,192,90852,1,0,0:0:0:0:
192,192,91030,1,0,0:0:0:0:
320,192,91209,1,0,0:0:0:0:
64,192,91387,1,0,0:0:0:0:
192,192,91387,1,0,0:0:0:0:
448,192,91566,1,0,0:0:0:0:
192,192,91744,1,0,0:0:0:0:
320,192,91744,1,0,0:0:0:0:
320,192,92102,1,0,0:0:0:0:
448,192,92102,1,0,0:0:0:0:
192,192,92278,1,0,0:0:0:0:
64,192,92278,1,0,0:0:0:0:
448,192,92454,1,0,0:0:0:0:
320,192,92631,1,0,0:0:0:0:
192,192,92631,1,0,0:0:0:0:
320,192,92807,1,0,0:0:0:0:
64,192,92807,1,0,0:0:0:0:
448,192,92984,1,0,0:0:0:0:
192,192,93160,1,0,0:0:0:0:
64,192,93160,1,0,0:0:0:0:
320,192,93332,1,0,0:0:0:0:
192,192,93418,1,0,0:0:0:0:
64,192,93418,1,0,0:0:0:0:
448,192,93504,1,0,0:0:0:0:
320,192,93677,1,0,0:0:0:0:
192,192,93677,1,0,0:0:0:0:
64,192,93891,1,0,0:0:0:0:
192,192,93980,1,0,0:0:0:0:
448,192,94069,1,0,0:0:0:0:
320,192,94248,5,0,0:0:0:0:
192,192,94319,1,0,0:0:0:0:
320,192,94390,1,0,0:0:0:0:
448,192,94462,1,0,0:0:0:0:
192,192,94533,1,0,0:0:0:0:
64,192,94605,1,0,0:0:0:0:
320,192,94748,1,0,0:0:0:0:
192,192,94819,1,0,0:0:0:0:
64,192,94890,1,0,0:0:0:0:
320,192,94962,1,0,0:0:0:0:
192,192,95033,1,0,0:0:0:0:
64,192,95105,1,0,0:0:0:0:
320,192,95319,1,0,0:0:0:0:
192,192,95390,1,0,0:0:0:0:
448,192,95462,1,0,0:0:0:0:
320,192,95533,1,0,0:0:0:0:
448,192,95605,1,0,0:0:0:0:
192,192,95676,1,0,0:0:0:0:
320,192,95748,1,0,0:0:0:0:
448,192,95855,1,0,0:0:0:0:
192,192,95925,1,0,0:0:0:0:
64,192,95997,1,0,0:0:0:0:
320,192,96068,1,0,0:0:0:0:
448,192,96212,1,0,0:0:0:0:
64,192,96418,1,0,0:0:0:0:
192,192,96418,1,0,0:0:0:0:
320,192,96418,1,0,0:0:0:0:
192,192,96592,1,0,0:0:0:0:
320,192,96679,1,0,0:0:0:0:
448,192,96766,1,0,0:0:0:0:
448,192,96976,1,0,0:0:0:0:
320,192,97045,1,0,0:0:0:0:
192,192,97115,1,0,0:0:0:0:
320,192,97185,1,0,0:0:0:0:
192,192,97255,1,0,0:0:0:0:
64,192,97324,1,0,0:0:0:0:
320,192,97394,1,0,0:0:0:0:
448,192,97464,1,0,0:0:0:0:
192,192,97464,1,0,0:0:0:0:
64,192,97551,1,0,0:0:0:0:
320,192,97638,1,0,0:0:0:0:
192,192,97991,1,0,0:0:0:0:
64,192,98170,1,0,0:0:0:0:
448,192,98348,1,0,0:0:0:0:
320,192,98527,1,0,0:0:0:0:
64,192,98527,1,0,0:0:0:0:
192,192,98616,1,0,0:0:0:0:
448,192,98705,1,0,0:0:0:0:
64,192,98884,1,0,0:0:0:0:
192,192,98884,1,0,0:0:0:0:
320,192,98955,1,0,0:0:0:0:
64,192,99026,1,0,0:0:0:0:
192,192,99098,1,0,0:0:0:0:
64,192,99169,1,0,0:0:0:0:
320,192,99241,1,0,0:0:0:0:
192,192,99312,1,0,0:0:0:0:
64,192,99419,1,0,0:0:0:0:
320,192,99491,1,0,0:0:0:0:
448,192,99562,1,0,0:0:0:0:
64,192,99598,1,0,0:0:0:0:
192,192,99598,1,0,0:0:0:0:
192,192,99776,1,0,0:0:0:0:
64,192,99866,1,0,0:0:0:0:
320,192,99955,1,0,0:0:0:0:
448,192,100026,1,0,0:0:0:0:
192,192,100098,1,0,0:0:0:0:
320,192,100169,1,0,0:0:0:0:
64,192,100312,1,0,0:0:0:0:
448,192,100491,1,0,0:0:0:0:
192,192,100580,1,0,0:0:0:0:
448,192,100669,1,0,0:0:0:0:
320,192,100669,1,0,0:0:0:0:
64,192,100759,1,0,0:0:0:0:
320,192,100848,1,0,0:0:0:0:
192,192,100937,1,0,0:0:0:0:
320,192,101026,1,0,0:0:0:0:
448,192,101116,1,0,0:0:0:0:
64,192,101205,1,0,0:0:0:0:
192,192,101294,1,0,0:0:0:0:
448,192,101384,5,0,0:0:0:0:
64,192,101384,1,0,0:0:0:0:
320,192,101455,1,0,0:0:0:0:
192,192,101526,1,0,0:0:0:0:
64,192,101598,1,0,0:0:0:0:
448,192,101669,1,0,0:0:0:0:
320,192,101741,1,0,0:0:0:0:
192,192,101812,1,0,0:0:0:0:
64,192,101919,1,0,0:0:0:0:
448,192,101979,1,0,0:0:0:0:
320,192,102038,1,0,0:0:0:0:
64,192,102098,1,0,0:0:0:0:
192,192,102098,1,0,0:0:0:0:
448,192,102157,1,0,0:0:0:0:
320,192,102217,1,0,0:0:0:0:
64,192,102276,1,0,0:0:0:0:
448,192,102302,1,0,0:0:0:0:
192,192,102353,1,0,0:0:0:0:
320,192,102404,1,0,0:0:0:0:
64,192,102455,1,0,0:0:0:0:
192,192,102485,1,0,0:0:0:0:
448,192,102514,1,0,0:0:0:0:
192,192,102723,1,0,0:0:0:0:
448,192,102991,1,0,0:0:0:0:
320,192,103169,5,0,0:0:0:0:
192,192,103241,1,0,0:0:0:0:
320,192,103312,1,0,0:0:0:0:
64,192,103348,1,0,0:0:0:0:
448,192,103378,1,0,0:0:0:0:
192,192,103415,1,0,0:0:0:0:
64,192,103488,1,0,0:0:0:0:
320,192,103526,1,0,0:0:0:0:
320,192,103669,1,0,0:0:0:0:
192,192,103741,1,0,0:0:0:0:
64,192,103812,1,0,0:0:0:0:
320,192,103884,1,0,0:0:0:0:
448,192,103884,1,0,0:0:0:0:
192,192,103955,1,0,0:0:0:0:
64,192,104026,1,0,0:0:0:0:
320,192,104241,1,0,0:0:0:0:
192,192,104312,1,0,0:0:0:0:
448,192,104384,1,0,0:0:0:0:
320,192,104455,1,0,0:0:0:0:
448,192,104526,1,0,0:0:0:0:
192,192,104598,1,0,0:0:0:0:
320,192,104669,1,0,0:0:0:0:
448,192,104776,1,0,0:0:0:0:
192,192,104847,1,0,0:0:0:0:
64,192,104919,1,0,0:0:0:0:
320,192,104990,1,0,0:0:0:0:
448,192,105134,1,0,0:0:0:0:
320,192,105223,1,0,0:0:0:0:
448,192,105312,1,0,0:0:0:0:
192,192,105312,1,0,0:0:0:0:
64,192,105401,1,0,0:0:0:0:
448,192,105669,1,0,0:0:0:0:
320,192,105669,1,0,0:0:0:0:
64,192,105669,1,0,0:0:0:0:
192,192,105729,1,0,0:0:0:0:
320,192,105788,1,0,0:0:0:0:
448,192,105848,1,0,0:0:0:0:
448,192,106098,1,0,0:0:0:0:
320,192,106169,1,0,0:0:0:0:
192,192,106241,1,0,0:0:0:0:
320,192,106312,1,0,0:0:0:0:
448,192,106384,1,0,0:0:0:0:
192,192,106384,1,0,0:0:0:0:
64,192,106455,1,0,0:0:0:0:
320,192,106526,1,0,0:0:0:0:
192,192,106598,1,0,0:0:0:0:
64,192,106669,1,0,0:0:0:0:
320,192,106741,1,0,0:0:0:0:
192,192,106919,1,0,0:0:0:0:
448,192,107276,1,0,0:0:0:0:
64,192,107455,1,0,0:0:0:0:
192,192,107455,1,0,0:0:0:0:
320,192,107455,1,0,0:0:0:0:
448,192,107812,1,0,0:0:0:0:
320,192,107812,1,0,0:0:0:0:
192,192,107883,1,0,0:0:0:0:
448,192,107954,1,0,0:0:0:0:
320,192,108026,1,0,0:0:0:0:
192,192,108169,1,0,0:0:0:0:
320,192,108240,1,0,0:0:0:0:
448,192,108347,1,0,0:0:0:0:
192,192,108419,1,0,0:0:0:0:
64,192,108490,1,0,0:0:0:0:
448,192,108526,1,0,0:0:0:0:
320,192,108526,1,0,0:0:0:0:
64,192,108704,1,0,0:0:0:0:
192,192,108794,1,0,0:0:0:0:
64,192,108883,1,0,0:0:0:0:
192,192,108954,1,0,0:0:0:0:
320,192,109026,1,0,0:0:0:0:
64,192,109097,1,0,0:0:0:0:
192,192,109169,1,0,0:0:0:0:
320,192,109240,1,0,0:0:0:0:
64,192,109312,1,0,0:0:0:0:
448,192,109419,1,0,0:0:0:0:
320,192,109480,1,0,0:0:0:0:
192,192,109538,1,0,0:0:0:0:
448,192,109597,1,0,0:0:0:0:
192,192,109775,1,0,0:0:0:0:
64,192,109775,1,0,0:0:0:0:
448,192,109954,1,0,0:0:0:0:
192,192,109954,1,0,0:0:0:0:
320,192,110132,1,0,0:0:0:0:
320,192,110489,1,0,0:0:0:0:
448,192,110489,1,0,0:0:0:0:
64,192,110668,1,0,0:0:0:0:
320,192,110668,1,0,0:0:0:0:
320,192,110847,1,0,0:0:0:0:
64,192,111025,1,0,0:0:0:0:
320,192,111025,1,0,0:0:0:0:
320,192,111204,1,0,0:0:0:0:
320,192,111382,1,0,0:0:0:0:
64,192,111561,1,0,0:0:0:0:
320,192,111561,1,0,0:0:0:0:
192,192,111739,1,0,0:0:0:0:
64,192,111739,1,0,0:0:0:0:
64,192,111917,1,0,0:0:0:0:
192,192,111917,1,0,0:0:0:0:
448,192,112096,5,0,0:0:0:0:
64,192,112274,1,0,0:0:0:0:
320,192,112274,1,0,0:0:0:0:
64,192,112453,1,0,0:0:0:0:
192,192,112453,1,0,0:0:0:0:
192,192,112631,1,0,0:0:0:0:
64,192,112631,1,0,0:0:0:0:
448,192,112810,1,0,0:0:0:0:
320,192,112989,1,0,0:0:0:0:
64,192,112989,1,0,0:0:0:0:
448,192,113167,5,0,0:0:0:0:
64,192,113167,1,0,0:0:0:0:
192,192,113227,1,0,0:0:0:0:
320,192,113286,1,0,0:0:0:0:
192,192,113346,1,0,0:0:0:0:
320,192,113435,1,0,0:0:0:0:
64,192,113435,1,0,0:0:0:0:
448,192,113524,1,0,0:0:0:0:
192,192,113703,1,0,0:0:0:0:
320,192,113703,1,0,0:0:0:0:
448,192,113881,1,0,0:0:0:0:
64,192,113881,1,0,0:0:0:0:
320,192,113941,1,0,0:0:0:0:
192,192,114000,1,0,0:0:0:0:
320,192,114060,1,0,0:0:0:0:
64,192,114239,1,0,0:0:0:0:
192,192,114417,1,0,0:0:0:0:
448,192,114417,1,0,0:0:0:0:
320,192,114477,1,0,0:0:0:0:
64,192,114536,1,0,0:0:0:0:
320,192,114596,1,0,0:0:0:0:
448,192,114774,1,0,0:0:0:0:
192,192,114864,1,0,0:0:0:0:
320,192,114864,1,0,0:0:0:0:
64,192,114953,1,0,0:0:0:0:
320,192,115131,1,0,0:0:0:0:
64,192,115310,1,0,0:0:0:0:
448,192,115310,1,0,0:0:0:0:
192,192,115369,1,0,0:0:0:0:
448,192,115429,1,0,0:0:0:0:
320,192,115667,1,0,0:0:0:0:
192,192,115727,1,0,0:0:0:0:
320,192,115786,1,0,0:0:0:0:
64,192,115846,1,0,0:0:0:0:
448,192,115846,1,0,0:0:0:0:
192,192,115935,1,0,0:0:0:0:
320,192,116024,1,0,0:0:0:0:
64,192,116024,1,0,0:0:0:0:
448,192,116113,1,0,0:0:0:0:
192,192,116203,1,0,0:0:0:0:
320,192,116203,1,0,0:0:0:0:
64,192,116262,1,0,0:0:0:0:
320,192,116322,1,0,0:0:0:0:
192,192,116382,1,0,0:0:0:0:
448,192,116441,1,0,0:0:0:0:
320,192,116501,1,0,0:0:0:0:
64,192,116561,1,0,0:0:0:0:
192,192,116740,1,0,0:0:0:0:
448,192,116919,1,0,0:0:0:0:
320,192,116919,1,0,0:0:0:0:
64,192,117098,1,0,0:0:0:0:
320,192,117277,1,0,0:0:0:0:
192,192,117277,1,0,0:0:0:0:
448,192,117456,1,0,0:0:0:0:
64,192,117635,1,0,0:0:0:0:
192,192,117635,1,0,0:0:0:0:
64,192,117815,1,0,0:0:0:0:
448,192,117815,1,0,0:0:0:0:
320,192,117886,1,0,0:0:0:0:
192,192,117958,1,0,0:0:0:0:
448,192,117994,1,0,0:0:0:0:
64,192,118083,1,0,0:0:0:0:
320,192,118083,1,0,0:0:0:0:
192,192,118173,1,0,0:0:0:0:
64,192,118352,1,0,0:0:0:0:
320,192,118352,1,0,0:0:0:0:
448,192,118423,1,0,0:0:0:0:
192,192,118494,1,0,0:0:0:0:
320,192,118566,1,0,0:0:0:0:
64,192,118637,1,0,0:0:0:0:
448,192,118710,1,0,0:0:0:0:
192,192,118710,1,0,0:0:0:0:
320,192,118800,1,0,0:0:0:0:
64,192,118889,1,0,0:0:0:0:
192,192,118979,1,0,0:0:0:0:
320,192,119068,1,0,0:0:0:0:
448,192,119068,1,0,0:0:0:0:
64,192,119247,1,0,0:0:0:0:
192,192,119247,1,0,0:0:0:0:
448,192,119426,1,0,0:0:0:0:
320,192,119606,1,0,0:0:0:0:
64,192,119606,1,0,0:0:0:0:
192,192,119964,1,0,0:0:0:0:
64,192,119964,1,0,0:0:0:0:
320,192,120035,1,0,0:0:0:0:
448,192,120106,1,0,0:0:0:0:
64,192,120321,1,0,0:0:0:0:
192,192,120321,1,0,0:0:0:0:
320,192,120499,1,0,0:0:0:0:
64,192,120589,1,0,0:0:0:0:
448,192,120678,1,0,0:0:0:0:
192,192,120678,1,0,0:0:0:0:
320,192,120749,1,0,0:0:0:0:
448,192,120821,1,0,0:0:0:0:
64,192,120856,1,0,0:0:0:0:
192,192,120946,1,0,0:0:0:0:
64,192,121035,1,0,0:0:0:0:
448,192,121035,1,0,0:0:0:0:
320,192,121106,1,0,0:0:0:0:
192,192,121178,1,0,0:0:0:0:
448,192,121249,1,0,0:0:0:0:
64,192,121321,1,0,0:0:0:0:
320,192,121392,1,0,0:0:0:0:
192,192,121392,1,0,0:0:0:0:
448,192,121464,1,0,0:0:0:0:
192,192,121535,1,0,0:0:0:0:
64,192,121606,1,0,0:0:0:0:
320,192,121678,1,0,0:0:0:0:
192,192,121749,1,0,0:0:0:0:
448,192,121749,1,0,0:0:0:0:
64,192,121809,1,0,0:0:0:0:
320,192,121868,1,0,0:0:0:0:
192,192,121928,1,0,0:0:0:0:
448,192,121987,1,0,0:0:0:0:
320,192,122047,1,0,0:0:0:0:
64,192,122106,1,0,0:0:0:0:
192,192,122106,1,0,0:0:0:0:
448,192,122285,1,0,0:0:0:0:
448,192,122464,5,0,0:0:0:0:
320,192,122464,1,0,0:0:0:0:
64,192,122464,1,0,0:0:0:0:
192,192,122523,1,0,0:0:0:0:
320,192,122583,1,0,0:0:0:0:
64,192,122642,1,0,0:0:0:0:
192,192,122642,1,0,0:0:0:0:
320,192,122731,1,0,0:0:0:0:
64,192,122821,1,0,0:0:0:0:
192,192,122821,1,0,0:0:0:0:
448,192,122821,1,0,0:0:0:0:
192,192,122999,1,0,0:0:0:0:
320,192,122999,1,0,0:0:0:0:
192,192,123178,1,0,0:0:0:0:
448,192,123178,1,0,0:0:0:0:
64,192,123178,1,0,0:0:0:0:
320,192,123237,1,0,0:0:0:0:
192,192,123297,1,0,0:0:0:0:
64,192,123356,1,0,0:0:0:0:
320,192,123356,1,0,0:0:0:0:
192,192,123535,1,0,0:0:0:0:
448,192,123535,1,0,0:0:0:0:
64,192,123714,1,0,0:0:0:0:
192,192,123714,1,0,0:0:0:0:
448,192,123714,1,0,0:0:0:0:
320,192,123773,1,0,0:0:0:0:
64,192,123833,1,0,0:0:0:0:
320,192,123892,1,0,0:0:0:0:
64,192,124071,1,0,0:0:0:0:
192,192,124071,1,0,0:0:0:0:
448,192,124071,1,0,0:0:0:0:
320,192,124249,1,0,0:0:0:0:
64,192,124249,1,0,0:0:0:0:
448,192,124249,1,0,0:0:0:0:
192,192,124309,1,0,0:0:0:0:
448,192,124368,1,0,0:0:0:0:
320,192,124428,1,0,0:0:0:0:
64,192,124606,1,0,0:0:0:0:
320,192,124606,1,0,0:0:0:0:
192,192,124666,1,0,0:0:0:0:
320,192,124725,1,0,0:0:0:0:
64,192,124785,1,0,0:0:0:0:
448,192,124785,1,0,0:0:0:0:
192,192,124874,1,0,0:0:0:0:
64,192,124964,1,0,0:0:0:0:
448,192,124964,1,0,0:0:0:0:
320,192,124964,1,0,0:0:0:0:
320,192,125141,1,0,0:0:0:0:
64,192,125200,1,0,0:0:0:0:
320,192,125259,1,0,0:0:0:0:
64,192,125319,1,0,0:0:0:0:
448,192,125319,1,0,0:0:0:0:
192,192,125319,1,0,0:0:0:0:
448,192,125407,1,0,0:0:0:0:
320,192,125496,1,0,0:0:0:0:
192,192,125496,1,0,0:0:0:0:
64,192,125496,1,0,0:0:0:0:
64,192,125674,1,0,0:0:0:0:
320,192,125674,1,0,0:0:0:0:
192,192,125851,1,0,0:0:0:0:
448,192,125851,1,0,0:0:0:0:
320,192,125851,1,0,0:0:0:0:
64,192,126029,1,0,0:0:0:0:
448,192,126206,1,0,0:0:0:0:
320,192,126206,1,0,0:0:0:0:
192,192,126206,1,0,0:0:0:0:
64,192,126384,1,0,0:0:0:0:
320,192,126384,1,0,0:0:0:0:
448,192,126384,1,0,0:0:0:0:
64,192,126561,1,0,0:0:0:0:
192,192,126561,1,0,0:0:0:0:
64,192,126739,1,0,0:0:0:0:
448,192,126739,1,0,0:0:0:0:
320,192,126798,1,0,0:0:0:0:
192,192,126858,1,0,0:0:0:0:
64,192,126917,1,0,0:0:0:0:
320,192,126917,1,0,0:0:0:0:
448,192,126917,1,0,0:0:0:0:
320,192,127096,1,0,0:0:0:0:
64,192,127096,1,0,0:0:0:0:
192,192,127096,1,0,0:0:0:0:
64,192,127274,1,0,0:0:0:0:
320,192,127274,1,0,0:0:0:0:
448,192,127334,1,0,0:0:0:0:
192,192,127393,1,0,0:0:0:0:
64,192,127453,1,0,0:0:0:0:
448,192,127453,1,0,0:0:0:0:
320,192,127453,1,0,0:0:0:0:
320,192,127631,1,0,0:0:0:0:
448,192,127631,1,0,0:0:0:0:
192,192,127631,1,0,0:0:0:0:
64,192,127810,1,0,0:0:0:0:
64,192,127989,1,0,0:0:0:0:
448,192,127989,1,0,0:0:0:0:
320,192,127989,1,0,0:0:0:0:
64,192,128167,1,0,0:0:0:0:
192,192,128167,1,0,0:0:0:0:
64,192,128256,1,0,0:0:0:0:
192,192,128346,1,0,0:0:0:0:
320,192,128346,1,0,0:0:0:0:
448,192,128346,1,0,0:0:0:0:
448,192,128524,1,0,0:0:0:0:
64,192,128524,1,0,0:0:0:0:
320,192,128524,1,0,0:0:0:0:
320,192,128703,1,0,0:0:0:0:
192,192,128703,1,0,0:0:0:0:
448,192,128881,1,0,0:0:0:0:
192,192,128881,1,0,0:0:0:0:
64,192,128881,1,0,0:0:0:0:
320,192,128941,1,0,0:0:0:0:
64,192,129000,1,0,0:0:0:0:
448,192,129060,1,0,0:0:0:0:
192,192,129060,1,0,0:0:0:0:
320,192,129149,1,0,0:0:0:0:
448,192,129239,1,0,0:0:0:0:
64,192,129239,1,0,0:0:0:0:
192,192,129239,1,0,0:0:0:0:
320,192,129417,1,0,0:0:0:0:
64,192,129506,1,0,0:0:0:0:
448,192,129596,1,0,0:0:0:0:
192,192,129596,1,0,0:0:0:0:
320,192,129655,1,0,0:0:0:0:
64,192,129715,1,0,0:0:0:0:
320,192,129774,1,0,0:0:0:0:
448,192,129774,1,0,0:0:0:0:
192,192,129774,1,0,0:0:0:0:
192,192,129953,1,0,0:0:0:0:
64,192,129953,1,0,0:0:0:0:
192,192,130042,1,0,0:0:0:0:
448,192,130131,1,0,0:0:0:0:
320,192,130131,1,0,0:0:0:0:
64,192,130131,1,0,0:0:0:0:
192,192,130191,1,0,0:0:0:0:
320,192,130250,1,0,0:0:0:0:
64,192,130310,1,0,0:0:0:0:
448,192,130310,1,0,0:0:0:0:
64,192,130489,1,0,0:0:0:0:
192,192,130489,1,0,0:0:0:0:
320,192,130489,1,0,0:0:0:0:
448,192,130667,1,0,0:0:0:0:
320,192,130667,1,0,0:0:0:0:
448,192,130756,1,0,0:0:0:0:
64,192,130846,1,0,0:0:0:0:
192,192,130846,1,0,0:0:0:0:
320,192,130846,1,0,0:0:0:0:
448,192,130935,1,0,0:0:0:0:
64,192,131024,1,0,0:0:0:0:
320,192,131024,1,0,0:0:0:0:
192,192,131113,1,0,0:0:0:0:
448,192,131202,1,0,0:0:0:0:
64,192,131202,1,0,0:0:0:0:
320,192,131291,1,0,0:0:0:0:
192,192,131381,1,0,0:0:0:0:
64,192,131470,1,0,0:0:0:0:
192,192,131559,1,0,0:0:0:0:
320,192,131649,1,0,0:0:0:0:
64,192,131738,5,0,0:0:0:0:
448,192,131738,1,0,0:0:0:0:
192,192,131738,1,0,0:0:0:0:
192,192,131872,1,0,0:0:0:0:
320,192,131872,1,0,0:0:0:0:
320,192,132006,1,0,0:0:0:0:
64,192,132006,1,0,0:0:0:0:
448,192,132006,1,0,0:0:0:0:
64,192,132140,1,0,0:0:0:0:
192,192,132140,1,0,0:0:0:0:
448,192,132296,1,0,0:0:0:0:
320,192,132296,1,0,0:0:0:0:
192,192,132296,1,0,0:0:0:0:
192,192,132452,1,0,0:0:0:0:
64,192,132452,1,0,0:0:0:0:
448,192,132452,1,0,0:0:0:0:
320,192,132452,1,0,0:0:0:0:
64,192,132586,1,0,0:0:0:0:
192,192,132720,1,0,0:0:0:0:
64,192,132720,1,0,0:0:0:0:
448,192,132720,1,0,0:0:0:0:
320,192,132720,1,0,0:0:0:0:
448,192,132854,1,0,0:0:0:0:
448,192,132988,1,0,0:0:0:0:
192,192,132988,1,0,0:0:0:0:
64,192,132988,1,0,0:0:0:0:
320,192,132988,1,0,0:0:0:0:
320,192,133256,1,0,0:0:0:0:
448,192,133256,1,0,0:0:0:0:
64,192,133256,1,0,0:0:0:0:
192,192,133256,1,0,0:0:0:0:
320,192,133525,1,0,0:0:0:0:
448,192,133525,1,0,0:0:0:0:
64,192,133525,1,0,0:0:0:0:
192,192,133614,1,0,0:0:0:0:
64,192,133703,1,0,0:0:0:0:
448,192,133792,1,0,0:0:0:0:
192,192,133792,1,0,0:0:0:0:
320,192,133882,1,0,0:0:0:0:
448,192,133971,1,0,0:0:0:0:
64,192,134060,1,0,0:0:0:0:
192,192,134060,1,0,0:0:0:0:
320,192,134150,1,0,0:0:0:0:
448,192,134239,1,0,0:0:0:0:
192,192,134239,1,0,0:0:0:0:
320,192,134328,1,0,0:0:0:0:
448,192,134417,1,0,0:0:0:0:
64,192,134507,1,0,0:0:0:0:
192,192,134596,1,0,0:0:0:0:
320,192,134596,1,0,0:0:0:0:
448,192,134685,1,0,0:0:0:0:
64,192,134775,1,0,0:0:0:0:
448,192,134864,1,0,0:0:0:0:
192,192,134864,1,0,0:0:0:0:
320,192,134953,1,0,0:0:0:0:
64,192,135042,1,0,0:0:0:0:
448,192,135132,1,0,0:0:0:0:
320,192,135132,1,0,0:0:0:0:
192,192,135221,1,0,0:0:0:0:
64,192,135310,1,0,0:0:0:0:
448,192,135310,1,0,0:0:0:0:
192,192,135400,1,0,0:0:0:0:
64,192,135489,1,0,0:0:0:0:
320,192,135578,1,0,0:0:0:0:
192,192,135667,1,0,0:0:0:0:
448,192,135667,1,0,0:0:0:0:
64,192,135756,1,0,0:0:0:0:
320,192,135846,1,0,0:0:0:0:
64,192,135936,1,0,0:0:0:0:
448,192,135936,1,0,0:0:0:0:
192,192,136026,1,0,0:0:0:0:
320,192,136116,1,0,0:0:0:0:
64,192,136205,1,0,0:0:0:0:
192,192,136205,1,0,0:0:0:0:
448,192,136295,1,0,0:0:0:0:
64,192,136385,1,0,0:0:0:0:
320,192,136385,1,0,0:0:0:0:
448,192,136475,1,0,0:0:0:0:
320,192,136565,1,0,0:0:0:0:
64,192,136655,1,0,0:0:0:0:
320,192,136744,1,0,0:0:0:0:
448,192,136744,1,0,0:0:0:0:
192,192,136834,1,0,0:0:0:0:
64,192,136924,1,0,0:0:0:0:
320,192,136924,1,0,0:0:0:0:
448,192,137014,1,0,0:0:0:0:
64,192,137104,1,0,0:0:0:0:
320,192,137193,1,0,0:0:0:0:
192,192,137193,1,0,0:0:0:0:
448,192,137283,1,0,0:0:0:0:
320,192,137463,1,0,0:0:0:0:
64,192,137463,1,0,0:0:0:0:
448,192,137463,1,0,0:0:0:0:
192,192,137552,1,0,0:0:0:0:
448,192,137641,1,0,0:0:0:0:
64,192,137730,1,0,0:0:0:0:
320,192,137730,1,0,0:0:0:0:
192,192,137820,1,0,0:0:0:0:
64,192,137909,1,0,0:0:0:0:
448,192,137998,1,0,0:0:0:0:
320,192,137998,1,0,0:0:0:0:
192,192,138088,1,0,0:0:0:0:
64,192,138177,1,0,0:0:0:0:
320,192,138177,1,0,0:0:0:0:
192,192,138266,1,0,0:0:0:0:
64,192,138355,1,0,0:0:0:0:
448,192,138445,1,0,0:0:0:0:
320,192,138534,1,0,0:0:0:0:
192,192,138534,1,0,0:0:0:0:
64,192,138623,1,0,0:0:0:0:
448,192,138713,1,0,0:0:0:0:
64,192,138802,1,0,0:0:0:0:
320,192,138802,1,0,0:0:0:0:
192,192,138891,1,0,0:0:0:0:
448,192,138980,1,0,0:0:0:0:
64,192,139070,1,0,0:0:0:0:
192,192,139070,1,0,0:0:0:0:
320,192,139159,1,0,0:0:0:0:
448,192,139248,1,0,0:0:0:0:
64,192,139248,1,0,0:0:0:0:
192,192,139338,1,0,0:0:0:0:
320,192,139427,1,0,0:0:0:0:
64,192,139516,1,0,0:0:0:0:
320,192,139605,1,0,0:0:0:0:
192,192,139605,1,0,0:0:0:0:
448,192,139694,1,0,0:0:0:0:
192,192,139783,1,0,0:0:0:0:
448,192,139872,1,0,0:0:0:0:
64,192,139872,1,0,0:0:0:0:
320,192,139962,1,0,0:0:0:0:
192,192,140051,1,0,0:0:0:0:
448,192,140140,1,0,0:0:0:0:
320,192,140140,1,0,0:0:0:0:
64,192,140230,1,0,0:0:0:0:
448,192,140319,1,0,0:0:0:0:
192,192,140319,1,0,0:0:0:0:
64,192,140408,1,0,0:0:0:0:
192,192,140497,1,0,0:0:0:0:
448,192,140587,1,0,0:0:0:0:
64,192,140676,1,0,0:0:0:0:
320,192,140676,1,0,0:0:0:0:
64,192,140855,1,0,0:0:0:0:
448,192,140855,1,0,0:0:0:0:
192,192,140944,1,0,0:0:0:0:
448,192,141033,1,0,0:0:0:0:
64,192,141033,1,0,0:0:0:0:
320,192,141122,1,0,0:0:0:0:
448,192,141212,1,0,0:0:0:0:
320,192,141301,1,0,0:0:0:0:
192,192,141390,1,0,0:0:0:0:
64,192,141390,1,0,0:0:0:0:
320,192,141747,1,0,0:0:0:0:
448,192,141837,1,0,0:0:0:0:
320,192,141926,1,0,0:0:0:0:
192,192,142015,1,0,0:0:0:0:
64,192,142105,1,0,0:0:0:0:
320,192,142283,1,0,0:0:0:0:
448,192,142283,1,0,0:0:0:0:
64,192,142462,1,0,0:0:0:0:
320,192,142462,1,0,0:0:0:0:
448,192,142533,1,0,0:0:0:0:
192,192,142605,1,0,0:0:0:0:
320,192,142676,1,0,0:0:0:0:
64,192,142747,1,0,0:0:0:0:
448,192,142819,1,0,0:0:0:0:
320,192,142890,1,0,0:0:0:0:
448,192,142962,1,0,0:0:0:0:
64,192,142997,1,0,0:0:0:0:
192,192,142997,1,0,0:0:0:0:
320,192,143176,1,0,0:0:0:0:
64,192,143176,1,0,0:0:0:0:
192,192,143247,1,0,0:0:0:0:
448,192,143319,1,0,0:0:0:0:
320,192,143390,1,0,0:0:0:0:
64,192,143462,1,0,0:0:0:0:
448,192,143533,1,0,0:0:0:0:
320,192,143605,1,0,0:0:0:0:
448,192,143676,1,0,0:0:0:0:
64,192,143712,1,0,0:0:0:0:
192,192,143712,1,0,0:0:0:0:
320,192,143890,1,0,0:0:0:0:
448,192,143890,1,0,0:0:0:0:
64,192,144068,1,0,0:0:0:0:
448,192,144247,1,0,0:0:0:0:
320,192,144247,1,0,0:0:0:0:
192,192,144425,1,0,0:0:0:0:
64,192,144604,1,0,0:0:0:0:
320,192,144604,1,0,0:0:0:0:
448,192,144675,1,0,0:0:0:0:
320,192,144747,1,0,0:0:0:0:
192,192,144818,1,0,0:0:0:0:
448,192,144890,1,0,0:0:0:0:
320,192,144961,1,0,0:0:0:0:
64,192,145140,1,0,0:0:0:0:
192,192,145140,1,0,0:0:0:0:
320,192,145318,1,0,0:0:0:0:
64,192,145318,1,0,0:0:0:0:
192,192,145390,1,0,0:0:0:0:
448,192,145461,1,0,0:0:0:0:
192,192,145675,1,0,0:0:0:0:
320,192,145675,1,0,0:0:0:0:
64,192,145854,1,0,0:0:0:0:
448,192,146032,1,0,0:0:0:0:
320,192,146032,1,0,0:0:0:0:
192,192,146104,1,0,0:0:0:0:
448,192,146175,1,0,0:0:0:0:
320,192,146247,1,0,0:0:0:0:
192,192,146318,1,0,0:0:0:0:
448,192,146390,1,0,0:0:0:0:
320,192,146461,1,0,0:0:0:0:
448,192,146532,1,0,0:0:0:0:
64,192,146568,1,0,0:0:0:0:
192,192,146568,1,0,0:0:0:0:
192,192,146747,1,0,0:0:0:0:
320,192,146818,1,0,0:0:0:0:
64,192,146890,1,0,0:0:0:0:
192,192,146961,1,0,0:0:0:0:
320,192,147032,1,0,0:0:0:0:
64,192,147104,1,0,0:0:0:0:
192,192,147175,1,0,0:0:0:0:
64,192,147247,1,0,0:0:0:0:
320,192,147282,1,0,0:0:0:0:
448,192,147282,1,0,0:0:0:0:
192,192,147461,1,0,0:0:0:0:
64,192,147532,1,0,0:0:0:0:
192,192,147604,1,0,0:0:0:0:
448,192,147640,1,0,0:0:0:0:
320,192,147818,1,0,0:0:0:0:
320,192,147997,1,0,0:0:0:0:
64,192,148175,1,0,0:0:0:0:
192,192,148175,1,0,0:0:0:0:
320,192,148246,1,0,0:0:0:0:
448,192,148317,1,0,0:0:0:0:
192,192,148389,1,0,0:0:0:0:
448,192,148532,1,0,0:0:0:0:
320,192,148621,1,0,0:0:0:0:
64,192,148710,1,0,0:0:0:0:
448,192,148710,1,0,0:0:0:0:
192,192,148783,1,0,0:0:0:0:
320,192,148854,1,0,0:0:0:0:
64,192,148926,1,0,0:0:0:0:
448,192,149067,1,0,0:0:0:0:
192,192,149067,1,0,0:0:0:0:
320,192,149157,1,0,0:0:0:0:
64,192,149246,1,0,0:0:0:0:
192,192,149246,1,0,0:0:0:0:
320,192,149317,1,0,0:0:0:0:
64,192,149389,1,0,0:0:0:0:
192,192,149460,1,0,0:0:0:0:
448,192,149460,1,0,0:0:0:0:
320,192,149532,1,0,0:0:0:0:
192,192,149603,1,0,0:0:0:0:
64,192,149782,5,0,0:0:0:0:
192,192,149871,1,0,0:0:0:0:
320,192,149960,1,0,0:0:0:0:
448,192,150139,1,0,0:0:0:0:
64,192,150317,1,0,0:0:0:0:
320,192,150317,1,0,0:0:0:0:
192,192,150496,1,0,0:0:0:0:
320,192,150585,1,0,0:0:0:0:
448,192,150675,1,0,0:0:0:0:
448,192,150853,1,0,0:0:0:0:
192,192,150853,1,0,0:0:0:0:
320,192,151032,1,0,0:0:0:0:
64,192,151121,1,0,0:0:0:0:
192,192,151210,1,0,0:0:0:0:
320,192,151299,1,0,0:0:0:0:
192,192,151389,1,0,0:0:0:0:
320,192,151478,1,0,0:0:0:0:
448,192,151567,1,0,0:0:0:0:
64,192,151746,1,0,0:0:0:0:
192,192,151924,1,0,0:0:0:0:
320,192,152103,1,0,0:0:0:0:
192,192,152282,1,0,0:0:0:0:
320,192,152460,1,0,0:0:0:0:
448,192,152639,1,0,0:0:0:0:
64,192,152817,1,0,0:0:0:0:
320,192,152996,1,0,0:0:0:0:
64,192,153174,1,0,0:0:0:0:
192,192,153353,1,0,0:0:0:0:
448,192,153532,1,0,0:0:0:0:
192,192,153710,1,0,0:0:0:0:
320,192,153889,1,0,0:0:0:0:
448,192,154067,1,0,0:0:0:0:
192,192,154246,1,0,0:0:0:0:
64,192,154424,1,0,0:0:0:0:
320,192,154603,1,0,0:0:0:0:
64,192,154782,1,0,0:0:0:0:
192,192,154960,1,0,0:0:0:0:
320,192,155139,1,0,0:0:0:0:
64,192,155317,1,0,0:0:0:0:
64,192,155674,1,0,0:0:0:0:
192,192,155674,1,0,0:0:0:0:
320,192,155853,1,0,0:0:0:0:
448,192,155853,1,0,0:0:0:0:
64,192,156032,1,0,0:0:0:0:
448,192,156210,1,0,0:0:0:0:
320,192,156389,1,0,0:0:0:0:
192,192,156389,1,0,0:0:0:0:
64,192,156567,1,0,0:0:0:0:
448,192,156746,1,0,0:0:0:0:
320,192,156746,1,0,0:0:0:0:
64,192,156924,1,0,0:0:0:0:
192,192,156924,1,0,0:0:0:0:
320,192,157103,1,0,0:0:0:0:
64,192,157282,1,0,0:0:0:0:
320,192,157460,1,0,0:0:0:0:
448,192,157460,1,0,0:0:0:0:
64,192,157639,1,0,0:0:0:0:
448,192,157817,1,0,0:0:0:0:
64,192,157817,1,0,0:0:0:0:
192,192,157817,1,0,0:0:0:0:
320,192,157817,1,0,0:0:0:0:
448,192,158174,1,0,0:0:0:0:
320,192,158174,1,0,0:0:0:0:
64,192,158353,1,0,0:0:0:0:
192,192,158353,1,0,0:0:0:0:
448,192,158532,1,0,0:0:0:0:
64,192,158710,1,0,0:0:0:0:
320,192,158710,1,0,0:0:0:0:
192,192,158889,1,0,0:0:0:0:
448,192,159067,1,0,0:0:0:0:
320,192,159067,1,0,0:0:0:0:
64,192,159246,1,0,0:0:0:0:
320,192,159333,1,0,0:0:0:0:
192,192,159420,1,0,0:0:0:0:
448,192,159507,1,0,0:0:0:0:
320,192,159594,1,0,0:0:0:0:
64,192,159594,1,0,0:0:0:0:
64,192,159769,1,0,0:0:0:0:
192,192,159856,1,0,0:0:0:0:
320,192,159943,1,0,0:0:0:0:
192,192,160127,1,0,0:0:0:0:
320,192,160311,5,0,0:0:0:0:
64,192,160311,1,0,0:0:0:0:
448,192,160370,1,0,0:0:0:0:
320,192,160430,1,0,0:0:0:0:
192,192,160489,1,0,0:0:0:0:
64,192,160549,1,0,0:0:0:0:
320,192,160608,1,0,0:0:0:0:
192,192,160668,1,0,0:0:0:0:
448,192,160727,1,0,0:0:0:0:
192,192,160787,1,0,0:0:0:0:
64,192,160846,1,0,0:0:0:0:
320,192,160906,1,0,0:0:0:0:
448,192,160965,1,0,0:0:0:0:
320,192,161025,1,0,0:0:0:0:
192,192,161025,1,0,0:0:0:0:
64,192,161084,1,0,0:0:0:0:
192,192,161144,1,0,0:0:0:0:
320,192,161203,1,0,0:0:0:0:
448,192,161263,1,0,0:0:0:0:
192,192,161322,1,0,0:0:0:0:
448,192,161382,1,0,0:0:0:0:
320,192,161382,1,0,0:0:0:0:
64,192,161382,1,0,0:0:0:0:
64,192,161453,1,0,0:0:0:0:
320,192,161525,1,0,0:0:0:0:
448,192,161596,1,0,0:0:0:0:
192,192,161620,1,0,0:0:0:0:
64,192,161680,1,0,0:0:0:0:
320,192,161739,1,0,0:0:0:0:
448,192,161739,1,0,0:0:0:0:
192,192,161799,1,0,0:0:0:0:
448,192,161858,1,0,0:0:0:0:
320,192,161918,1,0,0:0:0:0:
192,192,161977,1,0,0:0:0:0:
448,192,162037,1,0,0:0:0:0:
64,192,162096,1,0,0:0:0:0:
192,192,162156,1,0,0:0:0:0:
64,192,162275,1,0,0:0:0:0:
448,192,162275,1,0,0:0:0:0:
320,192,162334,1,0,0:0:0:0:
448,192,162394,1,0,0:0:0:0:
192,192,162453,1,0,0:0:0:0:
64,192,162453,1,0,0:0:0:0:
320,192,162513,1,0,0:0:0:0:
448,192,162572,1,0,0:0:0:0:
448,192,162811,1,0,0:0:0:0:
320,192,162811,1,0,0:0:0:0:
192,192,162870,1,0,0:0:0:0:
448,192,162930,1,0,0:0:0:0:
64,192,162989,1,0,0:0:0:0:
320,192,162989,1,0,0:0:0:0:
192,192,163049,1,0,0:0:0:0:
448,192,163108,1,0,0:0:0:0:
320,192,163168,1,0,0:0:0:0:
192,192,163168,1,0,0:0:0:0:
64,192,163227,1,0,0:0:0:0:
192,192,163346,1,0,0:0:0:0:
320,192,163406,1,0,0:0:0:0:
448,192,163465,1,0,0:0:0:0:
64,192,163525,1,0,0:0:0:0:
192,192,163525,1,0,0:0:0:0:
320,192,163584,1,0,0:0:0:0:
448,192,163644,1,0,0:0:0:0:
64,192,163703,1,0,0:0:0:0:
320,192,163763,1,0,0:0:0:0:
192,192,163822,1,0,0:0:0:0:
320,192,163882,1,0,0:0:0:0:
448,192,163941,1,0,0:0:0:0:
192,192,164001,1,0,0:0:0:0:
64,192,164061,1,0,0:0:0:0:
320,192,164061,1,0,0:0:0:0:
448,192,164120,1,0,0:0:0:0:
192,192,164239,1,0,0:0:0:0:
320,192,164418,1,0,0:0:0:0:
448,192,164418,1,0,0:0:0:0:
64,192,164596,1,0,0:0:0:0:
448,192,164596,1,0,0:0:0:0:
192,192,164775,1,0,0:0:0:0:
64,192,164953,1,0,0:0:0:0:
448,192,164953,1,0,0:0:0:0:
320,192,165013,1,0,0:0:0:0:
64,192,165072,1,0,0:0:0:0:
448,192,165132,1,0,0:0:0:0:
320,192,165132,1,0,0:0:0:0:
192,192,165191,1,0,0:0:0:0:
448,192,165251,1,0,0:0:0:0:
64,192,165311,1,0,0:0:0:0:
320,192,165311,1,0,0:0:0:0:
448,192,165489,1,0,0:0:0:0:
320,192,165549,1,0,0:0:0:0:
448,192,165608,1,0,0:0:0:0:
64,192,165668,1,0,0:0:0:0:
192,192,165668,1,0,0:0:0:0:
320,192,165727,1,0,0:0:0:0:
448,192,165787,1,0,0:0:0:0:
192,192,165846,1,0,0:0:0:0:
64,192,166025,1,0,0:0:0:0:
448,192,166025,1,0,0:0:0:0:
320,192,166096,1,0,0:0:0:0:
192,192,166114,1,0,0:0:0:0:
448,192,166168,1,0,0:0:0:0:
64,192,166203,1,0,0:0:0:0:
320,192,166239,1,0,0:0:0:0:
192,192,166293,1,0,0:0:0:0:
448,192,166311,1,0,0:0:0:0:
64,192,166382,1,0,0:0:0:0:
320,192,166561,1,0,0:0:0:0:
192,192,166739,1,0,0:0:0:0:
448,192,166739,1,0,0:0:0:0:
64,192,166799,1,0,0:0:0:0:
448,192,166858,1,0,0:0:0:0:
320,192,166918,1,0,0:0:0:0:
192,192,166977,1,0,0:0:0:0:
64,192,167096,1,0,0:0:0:0:
320,192,167096,1,0,0:0:0:0:
448,192,167155,1,0,0:0:0:0:
64,192,167215,1,0,0:0:0:0:
192,192,167274,1,0,0:0:0:0:
320,192,167334,1,0,0:0:0:0:
64,192,167453,1,0,0:0:0:0:
192,192,167453,1,0,0:0:0:0:
448,192,167512,1,0,0:0:0:0:
320,192,167572,1,0,0:0:0:0:
64,192,167631,1,0,0:0:0:0:
192,192,167810,1,0,0:0:0:0:
320,192,167988,1,0,0:0:0:0:
192,192,168048,1,0,0:0:0:0:
320,192,168107,1,0,0:0:0:0:
448,192,168167,1,0,0:0:0:0:
192,192,168346,1,0,0:0:0:0:
64,192,168524,1,0,0:0:0:0:
448,192,168524,1,0,0:0:0:0:
320,192,168584,1,0,0:0:0:0:
192,192,168643,1,0,0:0:0:0:
320,192,168703,1,0,0:0:0:0:
192,192,168762,1,0,0:0:0:0:
64,192,168822,1,0,0:0:0:0:
448,192,168881,1,0,0:0:0:0:
320,192,168941,1,0,0:0:0:0:
192,192,169000,1,0,0:0:0:0:
64,192,169060,1,0,0:0:0:0:
64,192,169238,1,0,0:0:0:0:
448,192,169238,1,0,0:0:0:0:
192,192,169417,1,0,0:0:0:0:
320,192,169596,5,0,0:0:0:0:
64,192,169596,1,0,0:0:0:0:
448,192,169655,1,0,0:0:0:0:
320,192,169715,1,0,0:0:0:0:
192,192,169774,1,0,0:0:0:0:
64,192,169834,1,0,0:0:0:0:
320,192,169893,1,0,0:0:0:0:
64,192,169953,1,0,0:0:0:0:
192,192,169953,1,0,0:0:0:0:
448,192,170012,1,0,0:0:0:0:
192,192,170072,1,0,0:0:0:0:
64,192,170131,1,0,0:0:0:0:
320,192,170191,1,0,0:0:0:0:
448,192,170250,1,0,0:0:0:0:
320,192,170310,1,0,0:0:0:0:
192,192,170310,1,0,0:0:0:0:
64,192,170369,1,0,0:0:0:0:
192,192,170429,1,0,0:0:0:0:
320,192,170488,1,0,0:0:0:0:
448,192,170548,1,0,0:0:0:0:
192,192,170607,1,0,0:0:0:0:
448,192,170667,1,0,0:0:0:0:
320,192,170667,1,0,0:0:0:0:
64,192,170726,1,0,0:0:0:0:
320,192,170786,1,0,0:0:0:0:
448,192,170846,1,0,0:0:0:0:
192,192,170905,1,0,0:0:0:0:
64,192,170965,1,0,0:0:0:0:
320,192,171024,1,0,0:0:0:0:
448,192,171024,1,0,0:0:0:0:
192,192,171084,1,0,0:0:0:0:
448,192,171143,1,0,0:0:0:0:
320,192,171203,1,0,0:0:0:0:
192,192,171262,1,0,0:0:0:0:
448,192,171322,1,0,0:0:0:0:
320,192,171381,1,0,0:0:0:0:
64,192,171381,1,0,0:0:0:0:
64,192,171560,1,0,0:0:0:0:
448,192,171560,1,0,0:0:0:0:
192,192,171738,1,0,0:0:0:0:
64,192,171738,1,0,0:0:0:0:
320,192,171798,1,0,0:0:0:0:
448,192,171857,1,0,0:0:0:0:
64,192,172096,1,0,0:0:0:0:
448,192,172096,1,0,0:0:0:0:
320,192,172096,1,0,0:0:0:0:
192,192,172155,1,0,0:0:0:0:
448,192,172215,1,0,0:0:0:0:
320,192,172274,1,0,0:0:0:0:
192,192,172334,1,0,0:0:0:0:
448,192,172393,1,0,0:0:0:0:
64,192,172453,1,0,0:0:0:0:
320,192,172453,1,0,0:0:0:0:
192,192,172512,1,0,0:0:0:0:
64,192,172631,1,0,0:0:0:0:
320,192,172691,1,0,0:0:0:0:
448,192,172750,1,0,0:0:0:0:
64,192,172810,1,0,0:0:0:0:
192,192,172810,1,0,0:0:0:0:
320,192,172869,1,0,0:0:0:0:
448,192,172929,1,0,0:0:0:0:
64,192,172988,1,0,0:0:0:0:
192,192,173048,1,0,0:0:0:0:
320,192,173107,1,0,0:0:0:0:
64,192,173167,1,0,0:0:0:0:
448,192,173167,1,0,0:0:0:0:
192,192,173346,1,0,0:0:0:0:
320,192,173435,1,0,0:0:0:0:
64,192,173435,1,0,0:0:0:0:
448,192,173524,1,0,0:0:0:0:
192,192,173703,1,0,0:0:0:0:
320,192,173703,1,0,0:0:0:0:
448,192,173703,1,0,0:0:0:0:
64,192,173881,1,0,0:0:0:0:
448,192,173881,1,0,0:0:0:0:
192,192,173970,1,0,0:0:0:0:
320,192,174059,1,0,0:0:0:0:
192,192,174148,1,0,0:0:0:0:
320,192,174238,1,0,0:0:0:0:
448,192,174416,1,0,0:0:0:0:
320,192,174506,1,0,0:0:0:0:
448,192,174595,1,0,0:0:0:0:
320,192,174684,1,0,0:0:0:0:
192,192,174773,1,0,0:0:0:0:
320,192,174952,1,0,0:0:0:0:
64,192,175041,1,0,0:0:0:0:
320,192,175130,1,0,0:0:0:0:
64,192,175219,1,0,0:0:0:0:
448,192,175666,1,0,0:0:0:0:
320,192,176023,1,0,0:0:0:0:
192,192,176380,1,0,0:0:0:0:
64,192,176737,1,0,0:0:0:0:
192,192,176826,1,0,0:0:0:0:
64,192,176915,1,0,0:0:0:0:
320,192,176915,1,0,0:0:0:0:
448,192,177005,1,0,0:0:0:0:
64,192,177094,1,0,0:0:0:0:
192,192,177094,1,0,0:0:0:0:
448,192,177272,1,0,0:0:0:0:
320,192,177332,1,0,0:0:0:0:
192,192,177391,1,0,0:0:0:0:
320,192,177451,1,0,0:0:0:0:
192,192,177630,1,0,0:0:0:0:
64,192,177630,1,0,0:0:0:0:
448,192,177808,1,0,0:0:0:0:
192,192,177808,1,0,0:0:0:0:
64,192,177868,1,0,0:0:0:0:
320,192,177927,1,0,0:0:0:0:
192,192,177987,1,0,0:0:0:0:
448,192,178046,1,0,0:0:0:0:
320,192,178106,1,0,0:0:0:0:
64,192,178165,1,0,0:0:0:0:
192,192,178225,1,0,0:0:0:0:
320,192,178284,1,0,0:0:0:0:
192,192,178344,1,0,0:0:0:0:
448,192,178403,1,0,0:0:0:0:
64,192,178463,1,0,0:0:0:0:
320,192,178522,1,0,0:0:0:0:
192,192,178522,1,0,0:0:0:0:
448,192,178582,1,0,0:0:0:0:
64,192,178641,1,0,0:0:0:0:
192,192,178701,1,0,0:0:0:0:
448,192,178760,1,0,0:0:0:0:
320,192,178880,5,0,0:0:0:0:
64,192,178880,1,0,0:0:0:0:
448,192,179058,1,0,0:0:0:0:
320,192,179147,1,0,0:0:0:0:
192,192,179237,1,0,0:0:0:0:
64,192,179415,1,0,0:0:0:0:
320,192,179415,1,0,0:0:0:0:
320,192,179594,1,0,0:0:0:0:
192,192,179665,1,0,0:0:0:0:
320,192,179737,1,0,0:0:0:0:
448,192,179808,1,0,0:0:0:0:
192,192,179880,1,0,0:0:0:0:
320,192,179951,1,0,0:0:0:0:
448,192,180022,1,0,0:0:0:0:
192,192,180130,1,0,0:0:0:0:
448,192,180308,1,0,0:0:0:0:
64,192,180308,1,0,0:0:0:0:
320,192,180380,1,0,0:0:0:0:
192,192,180451,1,0,0:0:0:0:
448,192,180522,1,0,0:0:0:0:
320,192,180665,1,0,0:0:0:0:
64,192,180665,1,0,0:0:0:0:
448,192,180725,1,0,0:0:0:0:
192,192,180784,1,0,0:0:0:0:
320,192,180844,1,0,0:0:0:0:
64,192,181022,1,0,0:0:0:0:
448,192,181022,1,0,0:0:0:0:
320,192,181082,1,0,0:0:0:0:
448,192,181141,1,0,0:0:0:0:
192,192,181165,1,0,0:0:0:0:
64,192,181237,1,0,0:0:0:0:
320,192,181380,1,0,0:0:0:0:
64,192,181558,1,0,0:0:0:0:
320,192,181558,1,0,0:0:0:0:
64,192,181737,1,0,0:0:0:0:
192,192,181737,1,0,0:0:0:0:
320,192,181951,1,0,0:0:0:0:
192,192,182022,1,0,0:0:0:0:
448,192,182094,1,0,0:0:0:0:
320,192,182165,1,0,0:0:0:0:
192,192,182237,1,0,0:0:0:0:
320,192,182307,1,0,0:0:0:0:
192,192,182380,1,0,0:0:0:0:
448,192,182451,1,0,0:0:0:0:
64,192,182451,1,0,0:0:0:0:
320,192,182522,1,0,0:0:0:0:
192,192,182594,1,0,0:0:0:0:
64,192,182665,1,0,0:0:0:0:
320,192,182737,1,0,0:0:0:0:
448,192,182808,1,0,0:0:0:0:
320,192,182880,1,0,0:0:0:0:
192,192,182951,1,0,0:0:0:0:
448,192,183022,1,0,0:0:0:0:
320,192,183094,1,0,0:0:0:0:
64,192,183165,1,0,0:0:0:0:
192,192,183343,1,0,0:0:0:0:
448,192,183522,1,0,0:0:0:0:
320,192,183700,1,0,0:0:0:0:
448,192,183879,1,0,0:0:0:0:
64,192,183879,1,0,0:0:0:0:
192,192,184057,1,0,0:0:0:0:
320,192,184147,1,0,0:0:0:0:
448,192,184236,1,0,0:0:0:0:
64,192,184236,1,0,0:0:0:0:
192,192,184307,1,0,0:0:0:0:
320,192,184378,1,0,0:0:0:0:
192,192,184450,1,0,0:0:0:0:
448,192,184521,1,0,0:0:0:0:
320,192,184593,1,0,0:0:0:0:
448,192,184771,1,0,0:0:0:0:
64,192,184771,1,0,0:0:0:0:
320,192,184950,1,0,0:0:0:0:
448,192,185021,1,0,0:0:0:0:
320,192,185093,1,0,0:0:0:0:
192,192,185164,1,0,0:0:0:0:
64,192,185236,1,0,0:0:0:0:
320,192,185307,1,0,0:0:0:0:
192,192,185486,1,0,0:0:0:0:
448,192,185486,1,0,0:0:0:0:
192,192,185664,1,0,0:0:0:0:
64,192,185724,1,0,0:0:0:0:
320,192,185783,1,0,0:0:0:0:
192,192,185843,1,0,0:0:0:0:
64,192,185902,1,0,0:0:0:0:
320,192,186021,1,0,0:0:0:0:
448,192,186021,1,0,0:0:0:0:
64,192,186093,1,0,0:0:0:0:
192,192,186164,1,0,0:0:0:0:
320,192,186236,1,0,0:0:0:0:
192,192,186378,1,0,0:0:0:0:
448,192,186378,1,0,0:0:0:0:
64,192,186557,1,0,0:0:0:0:
320,192,186646,1,0,0:0:0:0:
192,192,186736,1,0,0:0:0:0:
320,192,186914,1,0,0:0:0:0:
448,192,187003,1,0,0:0:0:0:
64,192,187093,1,0,0:0:0:0:
192,192,187093,1,0,0:0:0:0:
320,192,187164,1,0,0:0:0:0:
448,192,187307,1,0,0:0:0:0:
192,192,187378,1,0,0:0:0:0:
64,192,187450,1,0,0:0:0:0:
320,192,187521,1,0,0:0:0:0:
448,192,187593,1,0,0:0:0:0:
320,192,187664,1,0,0:0:0:0:
192,192,187736,1,0,0:0:0:0:
448,192,187807,1,0,0:0:0:0:
64,192,187807,1,0,0:0:0:0:
192,192,188283,1,0,0:0:0:0:
64,192,188521,1,0,0:0:0:0:
320,192,188521,1,0,0:0:0:0:
192,192,188593,1,0,0:0:0:0:
64,192,188664,1,0,0:0:0:0:
192,192,188736,1,0,0:0:0:0:
320,192,188807,1,0,0:0:0:0:
448,192,188878,1,0,0:0:0:0:
64,192,189057,1,0,0:0:0:0:
320,192,189093,5,0,0:0:0:0:
192,192,189164,1,0,0:0:0:0:
64,192,189236,1,0,0:0:0:0:
448,192,189236,1,0,0:0:0:0:
320,192,189307,1,0,0:0:0:0:
192,192,189378,1,0,0:0:0:0:
320,192,189450,1,0,0:0:0:0:
64,192,189593,1,0,0:0:0:0:
192,192,189664,1,0,0:0:0:0:
320,192,189736,1,0,0:0:0:0:
448,192,189807,1,0,0:0:0:0:
192,192,189878,1,0,0:0:0:0:
64,192,189950,1,0,0:0:0:0:
320,192,190128,5,0,0:0:0:0:
448,192,190128,1,0,0:0:0:0:
64,192,190218,1,0,0:0:0:0:
192,192,190307,1,0,0:0:0:0:
448,192,190486,1,0,0:0:0:0:
320,192,190664,1,0,0:0:0:0:
64,192,190664,1,0,0:0:0:0:
448,192,190843,1,0,0:0:0:0:
320,192,191200,1,0,0:0:0:0:
192,192,191200,1,0,0:0:0:0:
64,192,191378,1,0,0:0:0:0:
192,192,191557,1,0,0:0:0:0:
64,192,191557,1,0,0:0:0:0:
320,192,191736,1,0,0:0:0:0:
448,192,191914,1,0,0:0:0:0:
64,192,192093,1,0,0:0:0:0:
320,192,192093,1,0,0:0:0:0:
192,192,192271,1,0,0:0:0:0:
448,192,192450,1,0,0:0:0:0:
320,192,192450,1,0,0:0:0:0:
192,192,192628,1,0,0:0:0:0:
64,192,192628,1,0,0:0:0:0:
192,192,192807,1,0,0:0:0:0:
448,192,192985,1,0,0:0:0:0:
64,192,193164,1,0,0:0:0:0:
320,192,193164,1,0,0:0:0:0:
448,192,193342,1,0,0:0:0:0:
448,192,193699,1,0,0:0:0:0:
320,192,193699,1,0,0:0:0:0:
64,192,193878,1,0,0:0:0:0:
192,192,194057,1,0,0:0:0:0:
320,192,194235,1,0,0:0:0:0:
448,192,194235,1,0,0:0:0:0:
64,192,194414,1,0,0:0:0:0:
320,192,194414,1,0,0:0:0:0:
320,192,194592,1,0,0:0:0:0:
448,192,194592,1,0,0:0:0:0:
64,192,194770,1,0,0:0:0:0:
192,192,194770,1,0,0:0:0:0:
320,192,194949,1,0,0:0:0:0:
192,192,195127,1,0,0:0:0:0:
320,192,195306,1,0,0:0:0:0:
64,192,195306,1,0,0:0:0:0:
448,192,195484,1,0,0:0:0:0:
448,192,195842,1,0,0:0:0:0:
320,192,195842,1,0,0:0:0:0:
64,192,196020,1,0,0:0:0:0:
64,192,196198,1,0,0:0:0:0:
192,192,196198,1,0,0:0:0:0:
448,192,196377,1,0,0:0:0:0:
320,192,196377,1,0,0:0:0:0:
192,192,196555,1,0,0:0:0:0:
320,192,196734,1,0,0:0:0:0:
64,192,196734,1,0,0:0:0:0:
448,192,196912,1,0,0:0:0:0:
64,192,197091,1,0,0:0:0:0:
192,192,197091,1,0,0:0:0:0:
320,192,197180,1,0,0:0:0:0:
448,192,197270,1,0,0:0:0:0:
64,192,197448,1,0,0:0:0:0:
320,192,197448,1,0,0:0:0:0:
448,192,197627,1,0,0:0:0:0:
192,192,197627,1,0,0:0:0:0:
448,192,197805,1,0,0:0:0:0:
320,192,197805,1,0,0:0:0:0:
192,192,197984,1,0,0:0:0:0:
448,192,198073,1,0,0:0:0:0:
320,192,198073,1,0,0:0:0:0:
64,192,198162,1,0,0:0:0:0:
192,192,198252,1,0,0:0:0:0:
448,192,198341,1,0,0:0:0:0:
320,192,198341,1,0,0:0:0:0:
448,192,198520,1,0,0:0:0:0:
192,192,198520,1,0,0:0:0:0:
64,192,198698,1,0,0:0:0:0:
192,192,198698,1,0,0:0:0:0:
64,192,198877,1,0,0:0:0:0:
448,192,198877,1,0,0:0:0:0:
448,192,199055,1,0,0:0:0:0:
64,192,199055,1,0,0:0:0:0:
192,192,199234,1,0,0:0:0:0:
320,192,199234,1,0,0:0:0:0:
192,192,199591,1,0,0:0:0:0:
64,192,199591,1,0,0:0:0:0:
448,192,199770,1,0,0:0:0:0:
320,192,199770,1,0,0:0:0:0:
64,192,199948,1,0,0:0:0:0:
320,192,199948,1,0,0:0:0:0:
192,192,200127,1,0,0:0:0:0:
448,192,200305,1,0,0:0:0:0:
64,192,200305,1,0,0:0:0:0:
64,192,200484,1,0,0:0:0:0:
192,192,200484,1,0,0:0:0:0:
448,192,200662,1,0,0:0:0:0:
192,192,200841,1,0,0:0:0:0:
320,192,200841,1,0,0:0:0:0:
320,192,201020,1,0,0:0:0:0:
448,192,201020,1,0,0:0:0:0:
192,192,201198,1,0,0:0:0:0:
64,192,201198,1,0,0:0:0:0:
64,192,201377,1,0,0:0:0:0:
448,192,201377,1,0,0:0:0:0:
320,192,201555,1,0,0:0:0:0:
448,192,201734,1,0,0:0:0:0:
192,192,201734,1,0,0:0:0:0:
64,192,201912,1,0,0:0:0:0:
192,192,201912,1,0,0:0:0:0:
64,192,202091,1,0,0:0:0:0:
448,192,202270,1,0,0:0:0:0:
320,192,202270,1,0,0:0:0:0:
192,192,202448,1,0,0:0:0:0:
448,192,202627,1,0,0:0:0:0:
320,192,202627,1,0,0:0:0:0:
64,192,202805,1,0,0:0:0:0:
320,192,202805,1,0,0:0:0:0:
192,192,202984,1,0,0:0:0:0:
448,192,203162,1,0,0:0:0:0:
320,192,203162,1,0,0:0:0:0:
64,192,203162,1,0,0:0:0:0:
64,192,203340,1,0,0:0:0:0:
192,192,203340,1,0,0:0:0:0:
448,192,203519,1,0,0:0:0:0:
192,192,203519,1,0,0:0:0:0:
64,192,203697,1,0,0:0:0:0:
448,192,203876,1,0,0:0:0:0:
64,192,204054,1,0,0:0:0:0:
320,192,204054,1,0,0:0:0:0:
64,192,204233,1,0,0:0:0:0:
192,192,204233,1,0,0:0:0:0:
448,192,204412,1,0,0:0:0:0:
320,192,204412,1,0,0:0:0:0:
64,192,204590,1,0,0:0:0:0:
448,192,204769,1,0,0:0:0:0:
320,192,204769,1,0,0:0:0:0:
64,192,204947,1,0,0:0:0:0:
320,192,204947,1,0,0:0:0:0:
448,192,205304,1,0,0:0:0:0:
192,192,205304,1,0,0:0:0:0:
448,192,205662,1,0,0:0:0:0:
320,192,205662,1,0,0:0:0:0:
64,192,205840,1,0,0:0:0:0:
192,192,205840,1,0,0:0:0:0:
448,192,206019,1,0,0:0:0:0:
320,192,206197,1,0,0:0:0:0:
448,192,206376,1,0,0:0:0:0:
192,192,206376,1,0,0:0:0:0:
64,192,206733,1,0,0:0:0:0:
192,192,206733,1,0,0:0:0:0:
320,192,206912,1,0,0:0:0:0:
64,192,207001,1,0,0:0:0:0:
192,192,207001,1,0,0:0:0:0:
448,192,207090,1,0,0:0:0:0:
192,192,207269,1,0,0:0:0:0:
320,192,207269,1,0,0:0:0:0:
64,192,207447,1,0,0:0:0:0:
448,192,207626,1,0,0:0:0:0:
448,192,207806,1,0,0:0:0:0:
448,192,207985,1,0,0:0:0:0:
448,192,208524,1,0,0:0:0:0:
448,192,208884,1,0,0:0:0:0:
448,192,209062,1,0,0:0:0:0:
448,192,209776,1,0,0:0:0:0:
448,192,209955,1,0,0:0:0:0:
448,192,210134,1,0,0:0:0:0:
448,192,210669,1,0,0:0:0:0:
448,192,211026,1,0,0:0:0:0:
448,192,211204,1,0,0:0:0:0:
448,192,211919,1,0,0:0:0:0:
448,192,212097,1,0,0:0:0:0:
448,192,212275,1,0,0:0:0:0:
448,192,212811,1,0,0:0:0:0:
448,192,213168,1,0,0:0:0:0:
448,192,213347,1,0,0:0:0:0:
448,192,214061,1,0,0:0:0:0:
448,192,214239,1,0,0:0:0:0:
448,192,214417,1,0,0:0:0:0:
448,192,214953,1,0,0:0:0:0:
448,192,215310,1,0,0:0:0:0:
448,192,215489,1,0,0:0:0:0:
448,192,216203,1,0,0:0:0:0:
448,192,216381,1,0,0:0:0:0:
448,192,216560,1,0,0:0:0:0:
