osu file format v14

[General]
AudioFilename: audio.mp3
AudioLeadIn: 0
PreviewTime: 688
Countdown: 0
SampleSet: Soft
StackLeniency: 0.7
Mode: 0
LetterboxInBreaks: 0
WidescreenStoryboard: 1

[Editor]
Bookmarks: 110859,184248
DistanceSpacing: 0.9
BeatDivisor: 4
GridSize: 16
TimelineZoom: 3.199999

[Metadata]
Title:Munou
TitleUnicode:無能
Artist:oesterreich
ArtistUnicode:österreich
Creator:aishiteiru-
Version:posydomojka's another
Source:東京喰種√A
Tags:tokyo ghoul トーキョーグール root a season 2 math rock osterreich rock opening op anime japanese mirash posydomojka fllecc xytoper
BeatmapID:4036099
BeatmapSetID:1949537

[Difficulty]
HPDrainRate:6
CircleSize:3.9
OverallDifficulty:8
ApproachRate:8.2
SliderMultiplier:1.3
SliderTickRate:1

[Events]
//Background and Video events
0,0,"d.jpg",0,0
//Break Periods
2,75885,79965
2,94260,95710
2,113379,119256
//Storyboard Layer 0 (Background)
//Storyboard Layer 1 (Fail)
//Storyboard Layer 2 (Pass)
//Storyboard Layer 3 (Foreground)
//Storyboard Layer 4 (Overlay)
//Storyboard Sound Samples

[TimingPoints]
688,357.142857142857,7,2,1,40,1,0
688,-100,7,2,1,40,0,0
3187,357.142857142857,6,2,1,40,1,0
5329,357.142857142857,7,2,1,50,1,0
7828,357.142857142857,5,2,1,50,1,0
8899,-71.4285714285714,5,2,69,60,0,0
9613,357.142857142857,4,2,1,50,1,0
12291,-111.111111111111,4,2,1,50,0,0
12470,357.142857142857,5,2,1,50,1,0
13005,-125,5,2,1,50,0,0
13541,-100,5,2,1,50,0,0
14255,357.142857142857,6,2,1,50,1,0
16755,348.837209302326,6,2,1,50,1,0
16755,-66.6666666666667,6,2,1,50,0,0
17278,342.857142857143,6,2,1,50,1,0
17278,-90.9090909090909,6,2,1,50,0,0
17620,375,6,2,1,50,1,0
17807,-100,6,2,1,60,0,0
18088,342.857142857143,6,2,1,60,1,0
18345,357.142857142857,6,2,1,60,1,0
18523,363.636363636364,4,2,1,40,1,0
19613,357.142857142857,4,2,1,40,1,0
21041,357.142857142857,6,2,1,40,1,0
23183,357.142857142857,7,2,1,40,1,0
25505,-100,7,2,69,40,0,0
25687,352.941176470588,4,2,1,40,1,0
27098,357.142857142857,4,2,1,40,1,0
27812,-25,4,2,70,55,0,0
28526,-25,4,2,1,40,0,0
31026,-133.333333333333,4,2,1,40,0,0
31205,-133.333333333333,4,2,1,5,0,0
31383,-133.333333333333,4,2,1,40,0,0
33883,-100,4,2,1,40,0,0
34955,-125,4,2,1,40,0,0
35669,-133.333333333333,4,2,1,40,0,0
37098,-100,4,2,1,50,0,0
42812,357.142857142857,5,2,1,40,1,0
43526,-80,5,2,1,50,0,0
44954,-133.333333333333,5,2,1,30,0,0
46383,357.142857142857,7,2,1,60,1,0
46383,-76.9230769230769,7,2,1,60,0,0
48883,357.142857142857,6,2,1,60,1,0
49061,-76.9230769230769,6,2,1,60,0,0
51025,357.142857142857,5,2,1,60,1,0
52810,357.142857142857,4,2,1,60,1,0
53167,-83.3333333333333,4,2,1,60,0,0
53524,-71.4285714285714,4,2,1,60,0,0
55667,357.142857142857,6,2,1,60,1,0
55667,-90.9090909090909,6,2,1,60,0,0
57095,-83.3333333333333,6,2,1,60,0,0
59952,357.142857142857,3,2,1,60,1,0
59952,-71.4285714285714,3,2,1,60,0,0
61023,361.44578313253,5,2,1,60,1,0
62830,357.142857142857,6,2,1,60,1,0
62830,-83.3333333333333,6,2,1,60,0,0
63365,-133.333333333333,6,2,1,60,0,0
63901,-83.3333333333333,6,2,1,60,0,0
63990,-83.3333333333333,6,2,1,40,0,0
64972,357.142857142857,4,2,1,40,1,0
65686,-133.333333333333,4,2,1,40,0,0
68543,-90.9090909090909,4,2,1,40,0,0
70329,357.142857142857,4,2,1,40,1,0
74614,357.142857142857,5,2,1,40,1,0
75685,-100,5,2,1,20,0,0
76043,-100,5,2,1,5,0,0
76222,-100,5,2,1,30,0,0
76400,357.142857142857,4,2,1,30,1,0
76400,-111.111111111111,4,2,1,30,0,0
80685,-100,4,2,1,50,0,1
82114,-83.3333333333333,4,2,1,50,0,1
82828,-66.6666666666667,4,2,1,50,0,1
84972,357.142857142857,7,2,1,40,1,1
84972,-222.222222222221,7,2,1,40,0,0
85686,-133.333333333333,7,2,1,40,0,0
86400,-100,7,2,1,40,0,0
87472,357.142857142857,6,2,1,40,1,0
89614,357.142857142857,7,2,1,40,1,0
89614,-133.333333333333,7,2,1,40,0,0
92114,352.941176470588,4,2,1,40,1,0
92114,-83.3333333333333,4,2,1,40,0,0
93172,344.827586206897,4,2,69,50,1,0
93689,428.571428571429,4,2,1,50,1,0
93903,357.142857142857,4,2,1,30,1,0
94260,357.142857142857,6,2,1,30,1,0
96224,413.793103448276,4,2,1,40,1,0
96430,348.837209302326,4,2,1,40,1,0
97825,357.142857142857,4,2,1,40,1,0
98896,357.142857142857,7,2,1,40,1,0
101396,357.142857142857,6,2,1,40,1,0
102110,-66.6666666666667,6,2,1,40,0,0
102467,-100,6,2,1,40,0,0
103360,-71.4285714285714,6,2,1,40,0,0
103896,-83.3333333333333,6,2,1,40,0,0
104967,-100,6,2,1,40,0,0
105324,-66.6666666666667,6,2,1,40,0,0
105681,-100,6,2,1,40,0,0
107824,357.142857142857,5,2,1,40,1,0
109609,357.142857142857,6,2,1,60,1,0
111751,357.142857142857,4,2,1,60,1,0
113173,-100,4,2,1,40,0,0
116036,358.208955223881,5,2,1,40,1,0
117827,358.208955223881,6,2,1,40,1,0
119976,357.142857142857,7,2,1,40,1,0
121742,-100,7,2,1,30,0,0
122457,-100,7,2,69,60,0,0
122476,-71.4285714285714,7,2,69,60,0,0
123726,-62.5,7,2,69,60,0,0
124976,355.029585798817,5,2,69,60,1,0
124976,-58.8235294117647,5,2,69,60,0,0
126751,357.142857142857,6,2,69,60,1,0
126751,-66.6666666666667,6,2,69,60,0,0
131036,357.142857142857,7,2,1,65,1,0
131385,-100,7,2,69,70,0,0
131742,-100,7,2,69,75,0,0
131750,-47.6190476190476,7,2,69,75,0,0
132457,-50,7,2,69,60,0,0
133537,357.142857142857,6,2,1,50,1,1
135679,359.281437125748,5,2,1,50,1,1
137116,-100,5,2,1,50,0,0
137475,357.142857142857,6,2,1,50,1,1
139617,357.142857142857,7,2,1,50,1,1
141045,-100,7,2,1,50,0,0
141759,-100,7,2,1,50,0,0
142117,352.941176470588,5,2,1,50,1,0
142117,-66.6666666666667,5,2,1,50,0,0
143175,-100,5,2,1,50,0,0
143884,357.142857142857,6,2,1,50,1,0
146384,-83.3333333333333,6,2,1,50,0,0
147812,-83.3333333333333,6,2,69,50,0,0
148187,357.142857142857,4,2,1,50,1,0
149972,-100,4,3,69,50,0,0
150329,-100,4,3,1,50,0,0
151044,357.142857142857,7,2,1,40,1,0
153544,357.142857142857,6,2,1,40,1,0
155865,-90.9090909090909,6,2,1,40,0,0
156401,-76.9230769230769,6,2,1,40,0,0
157472,-133.333333333333,6,2,1,40,0,0
157829,-62.5,6,2,1,40,0,0
159258,348.837209302326,6,2,1,40,1,0
159606,-76.9230769230769,6,2,1,40,0,0
159955,368.098159509202,4,2,1,40,1,0
160323,357.142857142857,7,2,1,60,1,0
160323,-66.6666666666667,7,2,1,60,0,0
162823,357.142857142857,6,2,1,60,1,0
162823,-66.6666666666667,6,2,1,60,0,0
167108,357.142857142857,7,2,1,60,1,0
169608,-66.6666666666667,7,2,1,60,0,0
172108,357.142857142857,5,2,1,60,1,0
173715,-76.9230769230769,5,2,1,60,0,0
173893,357.142857142857,3,2,1,40,1,0
174964,357.142857142857,5,2,1,50,1,0
175678,-100,4,2,1,40,0,0
176749,357.142857142857,3,2,1,40,1,0
176927,-100,7,2,1,60,0,0
177820,-66.6666666666667,7,2,1,60,0,0
178892,357.142857142857,4,2,1,50,1,0
183177,357.142857142857,3,2,1,50,1,0
183891,-76.9230769230769,3,2,1,50,0,0
184248,357.142857142857,4,2,1,50,1,0
187105,-76.9230769230769,4,2,1,50,0,0
189248,-133.333333333333,4,2,1,50,0,0
189962,-100,4,2,1,50,0,0
190131,-100,4,2,1,40,0,0
192819,357.142857142857,5,2,1,40,1,0
194604,357.142857142857,4,2,1,40,1,0
196032,357.142857142857,7,2,1,40,1,0
197817,-66.6666666666667,7,2,69,40,0,0
198532,-90.9090909090909,7,2,1,50,0,0
201032,357.142857142857,6,2,1,50,1,0
203174,357.142857142857,7,2,1,50,1,0
205674,357.142857142857,5,2,1,50,1,0
207459,359.281437125748,4,2,1,40,1,0
208896,357.142857142857,5,2,1,40,1,0
209967,-100,5,2,1,30,0,0
210146,-100,5,2,1,30,0,0
210681,357.142857142857,4,2,1,30,1,0
212109,357.142857142857,6,2,1,30,1,0
212287,-100,6,2,1,30,0,0
214251,357.142857142857,7,2,1,30,1,0
216572,-100,7,2,1,20,0,0

[Colours]
Combo1 : 222,165,231
Combo2 : 199,192,169
Combo3 : 126,90,116
Combo4 : 218,86,170

[HitObjects]
83,46,688,5,2,0:0:0:0:
62,51,866,1,0,0:0:0:0:
57,108,1223,1,2,0:0:0:0:
47,90,1401,1,0,0:0:0:0:
151,42,1759,5,0,0:0:0:0:
208,12,1937,1,2,0:0:0:0:
175,0,2116,1,0,0:0:0:0:
236,45,2295,1,2,0:0:0:0:
225,112,2473,1,2,0:0:0:0:
158,131,2652,1,0,0:0:0:0:
230,239,2830,1,2,0:0:0:0:
292,255,3009,1,0,0:0:0:0:
235,360,3187,5,2,0:0:0:0:
223,332,3365,1,0,0:0:0:0:
271,294,3544,5,2,0:0:0:0:
279,257,3722,1,2,0:0:0:0:
235,219,3901,5,2,0:0:0:0:
487,356,4258,5,2,0:0:0:0:
479,324,4437,1,2,0:0:0:0:
392,373,4615,5,2,0:0:0:0:
404,311,4794,1,0,0:0:0:0:
486,370,4972,5,2,0:0:0:0:
490,351,5151,1,2,0:0:0:0:
295,215,5329,5,4,1:0:0:0:
364,192,5507,2,0,P|371:139|387:34,1,130,0|0,1:0|0:0,0:0:0:0:
443,17,6043,6,0,P|472:41|457:63,1,65,8|0,1:0|0:0,0:0:0:0:
298,105,6400,2,0,P|224:123|182:135,1,97.5
178,165,6757,1,2,0:0:0:0:
178,165,6846,1,0,0:0:0:0:
178,165,6936,1,0,1:0:0:0:
26,36,7114,2,0,P|71:18|109:3,1,65,0|0,1:0|0:0,0:0:0:0:
107,23,7471,2,0,P|107:47|110:93,1,65,8|0,1:0|0:0,0:0:0:0:
10,196,7828,5,0,1:0:0:0:
62,169,8006,1,0,1:0:0:0:
114,232,8185,1,2,0:0:0:0:
166,207,8363,1,0,0:0:0:0:
250,252,8542,6,0,P|253:289|259:371,1,97.5,8|0,1:0|0:0,0:0:0:0:
257,349,8899,2,0,B|206:363|206:363|200:347|200:347|274:313,2,136.499995834351,2|2|10,1:0|1:0|1:0,0:0:0:0:
345,272,9613,5,0,1:0:0:0:
345,272,9702,1,0,0:0:0:0:
345,272,9791,1,0,1:0:0:0:
420,294,9970,1,0,0:0:0:0:
501,322,10148,1,2,0:0:0:0:
493,337,10238,1,2,0:0:0:0:
506,340,10327,1,8,1:0:0:0:
418,360,10505,1,0,0:0:0:0:
338,382,10684,6,0,L|311:245,1,130
312,254,11220,2,0,L|294:318,1,65,0|0,1:0|0:0,0:0:0:0:
258,188,11577,1,0,0:0:0:0:
402,140,11755,6,0,P|430:151|444:147,4,32.5,8|0|0|2|0,1:0|0:0|0:0|0:0|1:0,0:0:0:0:
365,114,12291,6,0,L|242:145,1,116.999996429443,0|2,1:0|0:0,0:0:0:0:
170,96,12827,1,8,1:0:0:0:
86,198,13005,6,0,P|42:220|14:181,1,104,2|0,0:0|1:0,0:0:0:0:
206,160,13541,6,0,P|242:173|276:182,1,65,2|2,0:0|0:0,0:0:0:0:
117,35,13898,2,0,P|109:38|123:51,1,32.5,0|0,1:0|0:0,0:0:0:0:
87,75,14077,2,0,P|51:88|46:91,1,32.5,8|0,1:0|0:0,0:0:0:0:
150,94,14255,2,0,P|134:177|122:238,1,130,2|0,1:2|0:0,0:0:0:0:
98,372,14790,5,2,0:0:0:0:
52,360,14969,1,8,1:0:0:0:
133,332,15147,1,0,0:0:0:0:
52,306,15326,1,0,0:0:0:0:
189,231,15505,6,0,B|238:218|256:295|316:267,1,130,0|0,1:0|1:0,0:0:0:0:
384,180,16040,1,0,1:0:0:0:
353,208,16219,1,0,0:0:0:0:
429,253,16397,2,0,L|467:263,1,32.5,8|0,1:0|0:0,0:0:0:0:
474,300,16576,1,0,0:0:0:0:
363,384,16755,5,2,1:3:0:0:
232,225,16929,2,0,L|225:166,2,48.750001859665,0|2|0,1:0|1:3|1:0,0:0:0:0:
246,384,17278,6,0,L|271:239,1,143.000004364014,2|0,1:3|1:0,0:0:0:0:
143,240,17807,2,0,P|124:260|87:246,1,65,8|0,1:0|0:0,0:0:0:0:
61,287,18088,2,0,L|22:301,1,32.5,8|0,1:0|0:0,0:0:0:0:
163,338,18345,1,8,1:0:0:0:
314,189,18523,6,0,P|345:194|370:214,1,65,0|0,1:0|1:0,0:0:0:0:
314,189,18886,1,2,1:3:0:0:
211,133,19068,2,0,P|195:108|193:68,1,65,0|8,0:0|1:0,0:0:0:0:
211,133,19432,1,0,1:0:0:0:
240,216,19613,5,0,1:0:0:0:
240,216,19791,1,0,1:0:0:0:
226,273,19970,1,2,0:0:0:0:
212,337,20148,1,8,1:1:0:0:
244,383,20327,5,2,0:0:0:0:
235,345,20505,1,2,0:0:0:0:
143,249,20684,1,0,1:0:0:0:
133,205,20863,1,4,0:0:0:0:
200,161,21041,2,0,L|267:181,1,65,4|0,1:0|0:0,0:0:0:0:
401,230,21398,1,2,3:3:0:0:
431,219,21576,1,0,1:0:0:0:
396,211,21755,2,0,L|325:224,1,65,8|0,1:0|0:0,0:0:0:0:
255,148,22112,1,2,0:0:0:0:
339,96,22291,1,4,0:0:0:0:
339,96,22469,5,0,0:0:0:0:
293,4,22648,1,0,1:0:0:0:
272,42,22826,1,8,1:0:0:0:
347,18,23005,1,2,0:0:0:0:
430,40,23183,6,0,L|412:112,2,65,4|2|8,1:0|0:0|1:0,0:0:0:0:
501,83,23718,1,2,0:0:0:0:
501,83,23808,1,2,0:0:0:0:
501,83,23897,6,0,L|486:155,1,65,2|8,1:3|1:0,0:0:0:0:
242,100,24433,5,0,1:0:0:0:
228,136,24611,1,2,0:0:0:0:
268,152,24790,1,2,0:0:0:0:
281,114,24968,5,8,1:0:0:0:
156,164,25147,1,2,0:0:0:0:
105,37,25325,1,8,1:0:0:0:
238,0,25504,1,2,1:0:0:0:
238,0,25593,1,2,1:0:0:0:
238,0,25683,1,4,1:2:0:0:
238,0,25951,6,0,L|228:57,1,32.5,8|8,1:0|1:0,0:0:0:0:
2,197,26216,1,4,1:3:0:0:
59,150,26392,1,0,0:0:0:0:
134,173,26568,1,8,1:0:0:0:
148,250,26745,1,0,1:0:0:0:
80,366,26922,5,0,0:0:0:0:
80,366,27010,1,0,1:0:0:0:
80,366,27098,2,0,P|64:343|89:343,1,65,8|4,1:0|1:3,0:0:0:0:
176,357,27455,2,0,L|278:332,1,97.5,4|0,1:3|0:0,0:0:0:0:
270,333,27812,6,0,B|317:345|317:345|278:356|278:356|330:368,8,130,2|2|2|2|2|2|2|0|0,1:0|1:0|1:0|1:0|1:0|1:0|1:0|1:0|1:0,0:0:0:0:
11,200,29240,5,8,1:0:0:0:
85,192,29955,1,0,1:0:0:0:
12,170,30312,1,0,0:0:0:0:
145,103,30669,1,8,1:0:0:0:
211,152,31026,2,0,P|197:211|193:235,1,48.750001859665,2|0,0:3|0:0,0:0:0:0:
199,199,31740,2,0,L|216:305,2,97.50000371933,0|8|2,1:0|1:0|0:0,0:0:0:0:
447,209,32812,5,0,1:0:0:0:
447,209,32990,1,0,0:0:0:0:
497,195,33169,1,0,0:0:0:0:
497,195,33348,1,0,0:0:0:0:
456,157,33526,2,0,P|415:173|392:181,1,48.750001859665,8|0,1:0|0:0,0:0:0:0:
368,235,33883,2,0,P|327:251|297:262,1,65,4|0,0:0|0:0,0:0:0:0:
205,199,34240,1,0,1:0:0:0:
205,199,34598,5,2,0:0:0:0:
143,151,34776,1,8,1:0:0:0:
0,261,34955,2,0,B|1:246|1:246|19:254|19:254|23:233|23:233|46:253|46:253|55:232|55:232|92:296|145:274,1,208,0|4,0:0|0:0,0:0:0:0:
481,336,36026,6,0,P|503:373|501:389,1,48.750001859665,8|0,1:0|0:0,0:0:0:0:
481,336,36383,1,4,1:3:0:0:
382,365,36562,2,0,P|392:308|402:255,1,97.50000371933,2|8,0:0|1:0,0:0:0:0:
493,179,37098,5,0,1:0:0:0:
477,182,37187,1,2,0:0:0:0:
461,186,37276,1,0,1:0:0:0:
445,190,37365,1,2,0:0:0:0:
414,166,37455,1,6,0:0:0:0:
322,230,37633,2,0,B|240:197|240:197|262:219|272:242,1,130,8|0,1:0|1:0,0:0:0:0:
282,251,38169,1,0,0:0:0:0:
262,195,38347,1,8,1:0:0:0:
293,146,38526,1,0,1:0:0:0:
347,96,38705,1,0,1:0:0:0:
303,26,38883,1,8,1:0:0:0:
303,26,39240,6,0,P|242:40|224:44,1,65,0|0,1:0|1:0,0:0:0:0:
178,90,39597,2,0,P|117:104|99:108,1,65,2|8,0:0|1:0,0:0:0:0:
239,109,39955,6,0,B|273:142|273:142|285:99|285:99|185:64,1,195,2|8,0:0|1:0,0:0:0:0:
18,30,40669,1,0,1:0:0:0:
18,30,40847,1,0,1:0:0:0:
61,13,41026,2,0,P|31:40|40:68,1,65,8|0,1:0|0:0,0:0:0:0:
130,203,41383,5,0,1:0:0:0:
130,203,41472,1,2,0:0:0:0:
130,203,41562,1,0,1:0:0:0:
130,203,41651,1,2,0:0:0:0:
130,203,41740,2,0,P|103:158|119:114,1,97.5,2|0,1:3|0:0,0:0:0:0:
205,89,42097,2,0,P|262:113|289:118,1,65,2|0,1:3|1:0,0:0:0:0:
311,68,42455,5,0,1:0:0:0:
268,144,42633,1,8,1:0:0:0:
296,14,42812,1,8,1:0:0:0:
186,22,42990,1,4,1:3:0:0:
132,115,43169,1,2,1:2:0:0:
185,205,43347,1,8,1:0:0:0:
80,341,43526,6,0,B|155:300|183:407|263:346,1,162.5,4|8,1:0|1:0,0:0:0:0:
445,301,44062,2,0,B|515:308|486:255|414:262|357:278,1,162.5,4|0,1:0|1:0,0:0:0:0:
343,352,44597,1,4,1:0:0:0:
260,209,44954,6,0,L|255:177,4,24.3750009298325,2|0|0|2|2,0:0|0:0|0:0|0:0|0:0,0:0:0:0:
274,144,45490,1,2,0:0:0:0:
257,240,45669,2,0,L|245:289,1,48.750001859665,6|2,0:0|0:0,0:0:0:0:
257,240,45937,1,0,0:0:0:0:
257,240,46026,1,2,0:0:0:0:
353,256,46204,1,2,0:0:0:0:
170,192,46383,6,0,B|102:207|102:207|76:235|76:235|0:256,1,168.999992263794,4|0,1:0|1:0,0:0:0:0:
112,384,46918,1,0,0:0:0:0:
44,362,47097,1,8,1:0:0:0:
137,289,47275,1,0,0:0:0:0:
69,248,47454,6,0,P|82:184|93:136,1,84.4999961318971,0|0,1:0|1:0,0:0:0:0:
156,81,47811,1,2,0:3:0:0:
140,75,47900,1,0,0:0:0:0:
126,71,47990,1,0,1:0:0:0:
48,88,48168,1,0,0:0:0:0:
15,161,48347,1,0,1:0:0:0:
65,217,48525,1,8,1:0:0:0:
306,193,48883,6,0,L|288:272,1,65,4|0,1:0|0:0,0:0:0:0:
353,312,49150,2,0,P|432:317|485:273,1,126.749994197846,0|0,1:0|1:0,0:0:0:0:
469,292,49597,1,2,0:3:0:0:
469,292,49775,1,8,1:0:0:0:
362,375,49954,5,0,1:0:0:0:
326,341,50043,1,0,0:0:0:0:
232,327,50222,5,2,1:3:0:0:
180,355,50311,1,0,1:0:0:0:
252,376,50490,1,2,1:3:0:0:
195,128,50668,1,8,1:0:0:0:
195,128,51025,5,0,1:0:0:0:
171,197,51203,1,0,1:0:0:0:
101,175,51382,1,2,1:3:0:0:
17,59,51560,5,8,1:0:0:0:
68,39,51739,1,2,0:3:0:0:
88,91,51917,1,0,1:0:0:0:
5,215,52096,5,0,1:0:0:0:
59,196,52275,1,8,1:0:0:0:
138,230,52453,5,2,1:3:0:0:
200,250,52632,1,0,1:0:0:0:
268,205,52810,6,0,L|277:161,3,32.5,8|0|0|0,1:0|0:0|0:0|0:0,0:0:0:0:
302,162,53167,2,0,L|283:255,1,77.999997619629,0|0,1:0|0:0,0:0:0:0:
385,372,53524,6,0,B|511:407|526:285|455:327,1,181.999994445801,4|8,1:0|1:0,0:0:0:0:
277,278,54060,2,0,B|249:306|249:306|295:335|295:335|255:370,1,136.499995834351,4|0,1:0|0:0,0:0:0:0:
263,364,54417,1,0,1:0:0:0:
193,229,54595,5,8,1:0:0:0:
193,229,54685,1,0,0:0:0:0:
98,232,54863,1,0,1:0:0:0:
98,232,54952,1,4,1:3:0:0:
30,294,55131,2,0,L|44:355,1,45.4999986114502,4|0,1:3|0:0,0:0:0:0:
14,375,55310,1,8,1:0:0:0:
353,301,55667,6,0,L|373:188,1,107.25000327301,4|0,1:0|0:0,0:0:0:0:
408,165,56024,1,0,1:0:0:0:
480,183,56202,1,0,1:0:0:0:
423,234,56381,1,8,1:0:0:0:
322,203,56559,5,0,0:0:0:0:
245,185,56738,1,0,1:0:0:0:
173,170,56917,1,0,1:0:0:0:
73,206,57095,1,2,0:3:0:0:
0,105,57274,5,0,1:0:0:0:
188,30,57542,5,0,0:0:0:0:
297,205,57809,5,0,1:0:0:0:
214,333,57988,1,0,1:0:0:0:
80,283,58167,1,0,0:0:0:0:
113,334,58345,1,4,1:0:0:0:
9,365,58524,6,0,L|39:274,1,77.999997619629,2|2,1:3|1:3,0:0:0:0:
152,209,58881,2,0,P|206:209|242:274,1,116.999996429443,8|0,1:0|0:0,0:0:0:0:
241,256,59238,6,0,P|223:210|211:180,1,77.999997619629,0|2,1:0|1:3,0:0:0:0:
5,123,59595,2,0,P|57:110|95:92,1,77.999997619629,8|0,1:0|1:0,0:0:0:0:
94,59,59863,1,0,1:0:0:0:
94,59,59952,2,0,P|187:62|277:95,1,181.999994445801,4|8,1:0|1:0,0:0:0:0:
370,157,60487,5,4,1:0:0:0:
291,173,60666,1,0,0:0:0:0:
242,103,60844,1,0,1:0:0:0:
327,80,61023,1,8,1:0:0:0:
512,198,61565,5,0,1:0:0:0:
502,219,61655,1,0,1:0:0:0:
494,247,61745,1,8,1:0:0:0:
477,164,61926,1,4,1:3:0:0:
414,282,62107,5,8,1:0:0:0:
349,259,62227,5,4,1:3:0:0:
290,288,62348,5,8,1:0:0:0:
250,345,62468,5,4,1:3:0:0:
196,365,62589,5,4,1:3:0:0:
143,332,62709,5,8,1:0:0:0:
143,332,62830,6,0,L|177:158,1,155.999995239258,4|8,1:0|1:0,0:0:0:0:
86,287,63365,2,0,L|95:405,1,97.50000371933,4|0,1:0|0:0,0:0:0:0:
8,184,63901,5,4,1:2:0:0:
83,160,64080,1,2,0:0:0:0:
101,180,64169,1,0,0:0:0:0:
124,184,64258,1,2,0:0:0:0:
194,142,64437,1,0,1:0:0:0:
278,167,64615,1,8,1:0:0:0:
247,320,64972,6,0,L|237:390,1,65,4|0,1:0|0:0,0:0:0:0:
247,320,65239,1,2,0:0:0:0:
247,320,65329,1,2,0:0:0:0:
326,344,65507,1,0,0:0:0:0:
442,369,65686,6,0,L|421:223,1,146.250005578995,0|2,1:0|0:0,0:0:0:0:
493,181,66400,1,2,0:0:0:0:
423,148,66579,1,0,1:0:0:0:
443,28,66757,1,0,1:0:0:0:
376,50,66936,1,2,0:0:0:0:
237,89,67114,5,8,1:0:0:0:
246,164,67293,1,0,0:0:0:0:
246,164,67382,1,2,0:0:0:0:
246,164,67472,1,2,0:0:0:0:
321,186,67650,1,2,0:0:0:0:
366,130,67829,5,0,1:0:0:0:
208,3,68097,5,0,1:0:0:0:
55,102,68364,5,2,0:0:0:0:
55,102,68543,2,0,L|77:190,1,71.5000021820069,8|0,1:0|0:0,0:0:0:0:
157,171,68900,1,2,0:0:0:0:
87,207,69079,1,0,1:0:0:0:
165,277,69257,5,2,0:0:0:0:
247,307,69436,1,0,1:0:0:0:
330,341,69614,1,0,1:0:0:0:
330,341,69793,1,2,0:0:0:0:
330,256,69972,6,0,P|283:283|258:278,1,71.5000021820069,8|2,1:0|0:0,0:0:0:0:
345,181,70329,1,0,1:0:0:0:
180,231,70507,6,0,P|218:210|245:216,1,65,0|2,0:0|0:0,0:0:0:0:
94,296,70864,1,0,1:0:0:0:
94,296,70954,1,0,0:0:0:0:
94,296,71043,2,0,L|106:156,1,130,8|2,1:0|0:0,0:0:0:0:
14,46,71757,5,0,1:0:0:0:
66,29,71936,1,0,0:0:0:0:
36,69,72114,1,0,1:0:0:0:
83,54,72293,1,2,0:0:0:0:
187,15,72471,6,0,L|158:135,2,97.5,8|2|0,1:0|0:0|1:0,0:0:0:0:
294,148,73186,5,0,1:0:0:0:
214,176,73454,1,0,1:0:0:0:
299,164,73721,1,0,1:0:0:0:
213,141,73900,1,8,1:0:0:0:
481,235,74079,1,0,0:0:0:0:
488,210,74168,1,4,1:3:0:0:
8,221,74614,6,0,L|15:291,2,65,0|0|0,1:0|1:0|0:0,0:0:0:0:
73,170,75149,1,8,1:0:0:0:
168,195,75328,1,0,0:0:0:0:
168,195,75417,1,2,0:0:0:0:
168,195,75506,1,2,0:0:0:0:
196,279,75685,1,2,0:0:0:0:
235,378,80685,5,4,1:0:0:0:
279,369,80775,1,0,0:0:0:0:
241,345,80864,5,0,1:0:0:0:
271,351,80954,1,0,1:0:0:0:
235,307,81042,5,8,1:0:0:0:
280,321,81132,1,0,0:0:0:0:
255,288,81221,6,0,L|250:233,1,32.5,8|0,1:0|0:0,0:0:0:0:
237,213,81400,2,0,L|233:172,1,32.5,8|0,1:0|0:0,0:0:0:0:
253,4,81578,6,0,B|257:33|257:33|265:36|265:36|225:45,2,65,2|0|8,1:3|0:0|1:0,0:0:0:0:
341,19,82114,6,0,L|435:50,1,77.999997619629,2|8,1:3|1:0,0:0:0:0:
304,96,82471,1,0,1:0:0:0:
304,96,82650,1,0,1:0:0:0:
169,36,82828,6,0,L|20:82,1,146.250005578995,2|0,1:3|0:0,0:0:0:0:
29,79,83185,2,0,L|179:32,1,146.250005578995,4|0,1:2|1:0,0:0:0:0:
241,13,83542,1,8,1:0:0:0:
241,13,83632,1,0,0:0:0:0:
241,13,83721,1,0,1:0:0:0:
384,195,83900,6,0,P|404:202|424:177,1,48.750001859665,4|0,1:3|1:0,0:0:0:0:
442,220,84078,2,0,P|462:227|482:202,1,48.750001859665,0|0,1:0|0:0,0:0:0:0:
355,255,84257,1,4,1:3:0:0:
512,209,84435,5,4,1:3:0:0:
446,187,84525,5,0,1:0:0:0:
379,165,84614,5,2,1:3:0:0:
83,186,84972,6,0,L|24:202,1,58.4999982147217,0|0,1:0|0:0,0:0:0:0:
33,211,85686,2,0,L|89:225,1,48.750001859665,8|8,1:0|1:0,0:0:0:0:
194,205,86043,1,0,0:0:0:0:
240,206,86222,1,2,0:0:0:0:
200,234,86400,2,0,L|120:252,1,65,2|0,0:0|1:0,0:0:0:0:
25,369,86757,2,0,P|70:376|120:324,1,97.5,0|0,1:0|0:0,0:0:0:0:
186,310,87114,2,0,P|248:349|253:347,1,65,2|8,0:3|1:0,0:0:0:0:
159,208,87472,5,0,1:0:0:0:
159,208,87650,1,2,0:0:0:0:
159,208,87829,2,0,P|104:216|99:234,1,65,0|2,0:0|0:0,0:0:0:0:
300,265,88186,1,8,1:0:0:0:
227,237,88543,5,2,0:0:0:0:
276,204,88722,1,0,1:0:0:0:
335,230,88900,1,2,0:0:0:0:
341,292,89079,1,2,0:2:0:0:
271,342,89257,1,2,1:3:0:0:
387,319,89436,1,8,1:0:0:0:
498,296,89614,6,0,L|486:352,3,48.750001859665,0|0|2|2,1:0|1:0|0:0|0:0,0:0:0:0:
432,240,90328,2,0,L|440:310,1,48.750001859665,8|2,1:0|0:0,0:0:0:0:
328,164,90685,6,0,L|317:232,1,48.750001859665,2|0,0:0|1:0,0:0:0:0:
228,226,91042,2,0,L|240:291,1,48.750001859665,0|2,0:0|0:0,0:0:0:0:
18,206,91399,5,2,1:3:0:0:
97,191,91578,1,2,0:0:0:0:
21,217,91756,1,8,1:0:0:0:
248,183,92114,5,0,1:0:0:0:
176,164,92290,1,2,0:0:0:0:
164,201,92466,1,2,0:0:0:0:
272,190,92643,1,8,1:0:0:0:
377,234,92819,6,0,L|465:255,1,77.999997619629,8|0,1:0|0:0,0:0:0:0:
512,169,93172,5,2,1:0:0:0:
314,282,93430,5,2,1:0:0:0:
511,384,93689,6,0,L|504:344,1,32.5,8|0,1:0|0:0,0:0:0:0:
244,209,96430,6,0,P|168:197|96:182,1,130,2|0,1:3|0:0,0:0:0:0:
9,163,96953,1,0,1:0:0:0:
9,163,97127,1,2,0:0:0:0:
130,208,97302,6,0,P|97:217|61:225,1,65,0|8,1:0|1:0,0:0:0:0:
157,372,97650,2,0,P|160:337|169:287,1,65,2|0,0:0|0:0,0:0:0:0:
291,278,98003,1,0,1:0:0:0:
237,336,98182,1,2,0:0:0:0:
164,297,98360,1,2,0:0:0:0:
102,356,98539,1,8,1:0:0:0:
102,356,98628,1,2,0:0:0:0:
102,356,98717,1,2,0:0:0:0:
233,174,98896,6,0,P|330:189|357:237,1,130,0|0,1:0|1:0,0:0:0:0:
490,276,99431,1,0,1:0:0:0:
481,294,99610,1,8,1:0:0:0:
371,227,99788,1,0,0:0:0:0:
501,166,99967,1,0,0:0:0:0:
451,233,100146,1,0,1:0:0:0:
321,104,100324,6,0,B|310:55|310:55|342:117,1,97.5,2|0,1:3|0:0,0:0:0:0:
406,17,100681,2,0,L|401:58,1,32.5
262,112,101038,6,0,B|260:135|260:135|315:152|315:152|325:119,1,97.5,2|0,1:3|0:0,0:0:0:0:
406,17,101396,6,0,L|436:209,1,195,0|0,1:0|0:0,0:0:0:0:
390,357,102110,5,8,1:0:0:0:
343,330,102199,1,2,0:0:0:0:
379,285,102288,1,2,0:0:0:0:
512,130,102467,5,2,0:0:0:0:
512,130,102735,1,2,0:0:0:0:
511,136,103003,2,0,P|484:132|469:129,1,32.5,2|0,0:0|0:0,0:0:0:0:
406,169,103181,1,2,0:0:0:0:
280,34,103360,6,0,P|349:48|370:88,1,90.9999972229005,4|0,1:0|1:0,0:0:0:0:
280,34,103717,1,0,1:0:0:0:
293,166,103896,2,0,P|243:225|164:177,1,155.999995239258,8|2,1:0|0:0,0:0:0:0:
199,136,104431,1,0,1:0:0:0:
199,136,104521,1,0,0:0:0:0:
199,136,104610,1,0,0:0:0:0:
33,223,104788,1,2,0:0:0:0:
33,223,104878,1,2,0:0:0:0:
33,223,104967,2,0,L|14:114,1,97.5,2|0,1:3|0:0,0:0:0:0:
53,137,105324,2,0,L|43:83,1,48.750001859665,8|0,1:0|0:0,0:0:0:0:
55,45,105681,5,4,1:0:0:0:
158,233,105860,2,0,L|125:363,1,130,0|2,1:0|0:0,0:0:0:0:
227,273,106396,6,0,L|233:358,1,65,8|2,1:0|0:0,0:0:0:0:
282,214,106753,1,0,0:0:0:0:
282,214,106931,1,2,1:2:0:0:
282,214,107110,2,0,P|277:163|288:139,1,65,0|2,0:0|0:0,0:0:0:0:
493,195,107467,1,4,1:3:0:0:
493,195,107824,6,0,P|446:232|373:212,1,130,0|2,1:0|0:0,0:0:0:0:
294,118,108359,1,0,1:0:0:0:
325,65,108538,1,8,1:0:0:0:
391,80,108716,1,2,0:0:0:0:
391,80,108895,1,2,0:0:0:0:
255,35,109074,2,0,L|106:-3,2,130,0|2|0,1:0|0:0|0:0,0:0:0:0:
512,38,109966,5,8,1:0:0:0:
331,108,110144,2,0,P|303:94|327:57,1,65,0|0,1:0|0:0,0:0:0:0:
438,122,110501,2,0,L|424:73,1,32.5,0|0,1:0|0:0,0:0:0:0:
433,84,110680,2,0,L|447:33,1,32.5,8|0,1:0|0:0,0:0:0:0:
383,0,110859,2,0,P|411:14|387:51,1,65,2|8,3:2|1:0,0:0:0:0:
289,198,111216,5,2,3:2:0:0:
355,186,111394,1,2,3:2:0:0:
435,246,111573,5,8,1:0:0:0:
500,262,111751,1,4,1:3:0:0:
361,259,111930,1,2,1:3:0:0:
341,153,112108,2,0,P|324:207|317:233,1,65,2|8,1:0|1:0,0:0:0:0:
264,228,112465,1,4,1:3:0:0:
21,284,112643,5,2,1:3:0:0:
127,247,112822,1,2,1:0:0:0:
37,235,113001,2,0,L|27:164,1,65,8|4,1:0|1:0,0:0:0:0:
498,216,119976,6,0,P|475:208|470:267,1,97.5,4|0,1:3|0:0,0:0:0:0:
446,253,120333,2,0,P|378:270|331:282,1,97.5,0|2,1:0|0:0,0:0:0:0:
383,290,120690,6,0,P|483:314|497:318,1,97.5,0|0,1:0|0:0,0:0:0:0:
493,356,121047,1,0,1:0:0:0:
395,380,121226,1,0,0:0:0:0:
292,241,121404,6,0,P|277:309|275:319,1,65,0|2,1:0|0:0,0:0:0:0:
41,368,121761,1,2,1:0:0:0:
41,368,121851,1,0,1:0:0:0:
41,368,121940,1,2,1:0:0:0:
41,368,122029,1,0,1:0:0:0:
41,368,122118,2,0,B|40:308|105:325|93:229,1,130,2|4,1:0|1:0,0:0:0:0:
179,179,122654,5,0,1:0:0:0:
247,205,122743,1,0,1:0:0:0:
309,220,122833,1,0,1:0:0:0:
247,205,123011,5,0,1:0:0:0:
212,108,123190,2,0,P|169:87|157:31,1,90.9999972229005,8|0,1:0|0:0,0:0:0:0:
247,205,123547,2,0,L|235:266,1,45.4999986114502,0|0,1:0|1:0,0:0:0:0:
295,85,123726,2,0,P|340:10|413:17,1,156,8|0,1:0|1:0,0:0:0:0:
499,13,124083,2,0,P|491:54|486:95,1,52,8|0,1:0|1:0,0:0:0:0:
482,182,124261,2,0,B|465:118|457:58|457:58|458:108|444:143,1,208,8|4,1:0|1:3,0:0:0:0:
377,176,124797,1,4,1:3:0:0:
377,176,124886,1,0,0:0:0:0:
377,176,124976,1,4,1:0:0:0:
446,280,125153,1,0,1:0:0:0:
300,384,125331,5,8,1:0:0:0:
247,371,125419,1,2,1:0:0:0:
218,325,125508,1,2,1:0:0:0:
227,272,125597,1,0,1:0:0:0:
271,240,125686,1,10,1:0:0:0:
488,198,125863,6,0,B|389:241|389:241|407:241|407:241|439:199,1,165.75000316143,10|2,1:0|0:1,0:0:0:0:
351,159,126218,2,0,P|367:184|357:217,1,55.2500010538101,8|0,1:0|0:0,0:0:0:0:
485,303,126396,2,0,P|510:319|494:296,1,55.2500010538101,8|0,1:0|0:0,0:0:0:0:
456,293,126573,2,0,P|426:298|454:304,1,55.2500010538101,0|0,0:0|1:0,0:0:0:0:
316,357,126751,6,0,L|336:287,1,48.750001859665,0|0,1:0|0:0,0:0:0:0:
220,280,126929,2,0,L|229:353,1,48.750001859665,8|0,1:0|0:0,0:0:0:0:
255,384,127108,6,0,P|222:194|217:166,1,195.00000743866,8|2,1:0|1:0,0:0:0:0:
123,15,127643,1,8,1:0:0:0:
193,76,127822,1,0,0:0:0:0:
131,185,128001,1,2,1:0:0:0:
52,170,128179,1,8,1:0:0:0:
19,59,128358,5,2,1:0:0:0:
30,63,128447,1,2,1:0:0:0:
41,67,128536,1,10,1:0:0:0:
53,71,128625,1,0,0:0:0:0:
64,76,128715,1,0,0:0:0:0:
233,150,128893,5,8,1:0:0:0:
263,175,128983,1,0,0:0:0:0:
289,142,129072,1,8,1:0:0:0:
319,166,129161,1,0,1:0:0:0:
344,132,129251,2,0,P|329:208|323:245,1,97.50000371933,2|0,1:0|0:0,0:0:0:0:
404,262,129608,5,6,1:0:0:0:
479,234,129786,1,0,1:0:0:0:
341,77,129965,1,10,1:0:0:0:
364,54,130054,1,0,0:0:0:0:
407,58,130143,1,2,1:0:0:0:
440,104,130233,1,2,1:0:0:0:
493,102,130322,1,2,1:0:0:0:
348,178,130501,1,8,1:0:0:0:
293,18,130679,5,2,1:0:0:0:
262,58,130768,1,2,1:0:0:0:
295,53,130858,1,2,1:0:0:0:
264,25,130947,1,2,1:0:0:0:
215,15,131036,1,2,1:0:0:0:
163,33,131125,1,2,1:0:0:0:
137,73,131214,1,2,1:0:0:0:
112,120,131303,1,2,1:0:0:0:
52,118,131393,1,2,1:0:0:0:
61,93,131482,1,2,1:0:0:0:
98,102,131571,1,2,1:0:0:0:
92,134,131661,1,2,1:0:0:0:
92,134,131750,6,0,L|67:256,1,102.374996875763,4|8,1:0|1:0,0:0:0:0:
301,206,132018,6,0,L|202:246,1,102.374996875763,4|4,1:3|1:3,0:0:0:0:
243,377,132286,6,0,L|101:349,1,136.499995834351,4|4,1:3|1:3,0:0:0:0:
12,315,132553,5,0,0:0:0:0:
28,318,132732,1,8,1:0:0:0:
507,190,133537,6,0,L|445:217,1,65,4|0,1:0|0:0,0:0:0:0:
393,210,133894,1,0,0:0:0:0:
393,210,133983,1,0,0:0:0:0:
393,210,134072,1,2,1:3:0:0:
405,145,134251,1,8,1:0:0:0:
420,81,134429,1,0,0:0:0:0:
378,31,134608,1,2,1:3:0:0:
314,45,134787,1,0,0:0:0:0:
374,68,134965,1,0,0:0:0:0:
464,105,135233,1,0,0:0:0:0:
367,115,135501,1,0,0:0:0:0:
454,158,135679,5,2,1:3:0:0:
494,107,135858,1,0,0:0:0:0:
481,43,136038,1,0,0:0:0:0:
425,8,136217,1,2,1:3:0:0:
363,28,136397,1,8,1:0:0:0:
363,28,136487,1,0,0:0:0:0:
363,28,136577,1,0,0:0:0:0:
302,51,136756,1,2,1:3:0:0:
252,75,136936,1,8,1:0:0:0:
252,75,137026,1,0,0:0:0:0:
252,75,137116,1,4,1:2:0:0:
4,135,137475,5,4,1:0:0:0:
54,94,137653,1,0,0:0:0:0:
54,94,137742,1,2,1:3:0:0:
116,113,137921,1,0,0:0:0:0:
116,113,138010,1,2,1:3:0:0:
131,176,138189,1,8,1:0:0:0:
103,269,138457,1,0,0:0:0:0:
70,360,138725,5,0,0:0:0:0:
48,299,138903,1,2,1:3:0:0:
109,278,139082,1,0,1:0:0:0:
164,311,139260,1,8,1:0:0:0:
223,285,139439,1,0,0:0:0:0:
203,223,139617,1,2,1:3:0:0:
268,151,139884,1,0,1:0:0:0:
363,170,140152,1,0,1:0:0:0:
380,232,140331,5,8,1:0:0:0:
380,232,140420,1,0,0:0:0:0:
380,232,140509,1,0,0:0:0:0:
319,256,140688,1,2,1:3:0:0:
264,229,140867,1,0,1:0:0:0:
183,153,141045,5,8,1:0:0:0:
171,216,141164,5,8,1:0:0:0:
234,197,141283,5,8,1:0:0:0:
192,185,141402,6,0,L|39:218,1,130,4|2,1:3|0:0,0:0:0:0:
67,211,142293,6,0,L|146:238,1,48.750001859665,4|0,1:0|0:0,0:0:0:0:
0,197,142469,2,0,B|24:190|46:152|46:152|107:203|152:274|152:274|156:251|199:224,1,292.50001115799,8|4,1:0|1:0,0:0:0:0:
246,363,143175,2,0,L|259:285,1,65,8|0,1:0|0:0,0:0:0:0:
223,145,143528,2,0,P|228:176|232:208,1,65,0|0,0:0|1:0,0:0:0:0:
450,321,143884,6,0,P|501:302|473:238,1,130,4|0,1:0|1:0,0:0:0:0:
406,384,144598,2,0,P|334:340|350:235,1,195,8|0,1:0|1:0,0:0:0:0:
428,196,145312,2,0,P|433:161|445:111,1,65,8|0,1:0|0:0,0:0:0:0:
428,196,145669,1,8,1:0:0:0:
297,27,146026,5,2,0:0:0:0:
297,27,146116,1,2,0:0:0:0:
297,27,146205,1,2,0:0:0:0:
333,6,146294,1,2,0:0:0:0:
375,33,146384,2,0,P|363:77|354:123,1,77.999997619629,4|8,1:2|1:0,0:0:0:0:
423,16,146741,5,0,1:0:0:0:
398,90,146919,1,0,1:0:0:0:
317,126,147098,1,0,1:0:0:0:
248,77,147276,1,8,1:0:0:0:
169,32,147455,6,0,P|110:45|104:77,1,77.999997619629,0|0,1:0|1:0,0:0:0:0:
6,166,147812,6,0,P|36:188|58:194,1,38.9999988098145,2|0,0:1|0:0,0:0:0:0:
64,217,147991,2,0,P|75:186|85:159,1,38.9999988098145,2|0,0:1|0:0,0:0:0:0:
137,158,148187,5,4,1:0:0:0:
295,253,148544,1,0,0:0:0:0:
357,226,148722,1,8,1:0:0:0:
154,370,149079,1,0,1:0:0:0:
100,354,149258,1,0,1:0:0:0:
154,346,149437,1,8,1:0:0:0:
256,362,149615,5,0,0:0:0:0:
246,285,149794,1,0,1:0:0:0:
272,313,149972,6,0,L|262:362,1,32.5,2|0,1:0|0:0,0:0:0:0:
298,203,150151,1,2,1:0:0:0:
34,23,150329,6,0,P|50:97|52:117,1,65,8|0,1:0|0:0,0:0:0:0:
64,160,150597,2,0,P|80:234|82:254,1,65,4|0,1:3|0:0,0:0:0:0:
19,287,150865,6,0,P|12:310|32:314,1,32.5,8|0,1:0|0:0,0:0:0:0:
224,290,151044,5,0,0:0:0:0:
224,290,151133,1,2,0:0:0:0:
224,290,151222,1,2,0:0:0:0:
224,290,151311,1,2,0:0:0:0:
224,290,151401,2,0,P|296:308|310:311,2,65,2|2|0,0:0|0:0|0:0,0:0:0:0:
190,350,151936,2,0,P|113:368|50:381,1,130,2|2,0:0|0:0,0:0:0:0:
340,260,152472,1,2,0:0:0:0:
340,260,152651,1,0,0:0:0:0:
406,266,152829,1,2,0:0:0:0:
427,323,153008,1,0,0:0:0:0:
386,364,153186,1,2,0:0:0:0:
323,355,153365,1,2,0:0:0:0:
308,306,153544,1,2,0:0:0:0:
33,206,153901,1,2,0:0:0:0:
68,201,154079,1,2,0:0:0:0:
79,177,154258,1,0,0:0:0:0:
49,149,154436,1,2,0:0:0:0:
25,164,154615,2,0,L|11:230,1,65,2|2,0:0|0:0,0:0:0:0:
100,219,154972,2,0,L|110:287,1,65,0|2,0:0|0:0,0:0:0:0:
144,192,155329,1,2,0:0:0:0:
501,192,155686,6,0,L|453:204,1,32.5,4|0,1:0|0:0,0:0:0:0:
507,239,155865,6,0,L|377:205,1,107.25000327301,0|0,1:0|0:0,0:0:0:0:
361,234,156222,1,0,0:0:0:0:
204,186,156401,6,0,B|163:154|163:154|112:206|112:206|72:177,1,168.999992263794,8|4,1:0|1:0,0:0:0:0:
18,117,156936,6,0,L|37:289,1,168.999992263794,0|0,1:0|0:0,0:0:0:0:
36,284,157472,2,0,L|48:200,1,73.1250027894975,0|0,1:0|0:0,0:0:0:0:
159,170,157829,6,0,B|250:265|285:192|180:143|155:258|119:213,2,208,4|0|0,1:0|1:0|0:0,0:0:0:0:
25,164,158722,1,8,1:0:0:0:
25,164,158901,1,0,0:0:0:0:
109,205,159079,1,4,1:0:0:0:
0,244,159258,5,2,0:3:0:0:
33,236,159345,1,2,0:0:0:0:
64,229,159432,1,2,0:0:0:0:
241,200,159606,5,8,1:0:0:0:
241,200,159694,1,0,0:0:0:0:
241,200,159781,1,0,0:0:0:0:
241,200,159868,1,2,0:0:0:0:
241,200,159955,1,2,1:3:0:0:
331,170,160139,1,8,1:3:0:0:
409,231,160323,6,0,L|531:276,1,97.50000371933,4|0,1:0|0:0,0:0:0:0:
316,353,160680,2,0,L|432:318,1,97.50000371933,0|0,1:0|0:0,0:0:0:0:
241,231,161037,5,8,1:0:0:0:
269,177,161215,1,0,0:0:0:0:
291,254,161394,1,0,1:0:0:0:
252,323,161573,6,0,P|179:321|160:294,1,97.50000371933,8|2,1:0|0:3,0:0:0:0:
1,299,161930,1,0,1:0:0:0:
1,299,162019,1,0,0:0:0:0:
1,299,162108,2,0,L|117:261,1,97.50000371933,8|0,1:0|0:0,0:0:0:0:
56,366,162465,1,8,1:0:0:0:
107,160,162823,6,0,L|324:207,1,195.00000743866,2|2,1:3|1:0,0:0:0:0:
474,202,163358,1,2,1:0:0:0:
494,148,163537,1,8,1:0:0:0:
437,142,163715,1,2,0:3:0:0:
354,272,163894,5,2,1:3:0:0:
443,314,164073,5,8,1:0:0:0:
443,314,164162,1,0,0:0:0:0:
374,244,164340,5,0,0:0:0:0:
313,260,164430,1,2,0:3:0:0:
275,365,164608,2,0,P|271:318|262:251,1,97.50000371933,8|0,1:0|1:0,0:0:0:0:
230,40,164965,5,4,1:0:0:0:
304,62,165144,1,0,0:0:0:0:
312,142,165323,1,8,1:0:0:0:
252,187,165501,1,0,0:0:0:0:
252,187,165680,6,0,L|136:165,1,97.50000371933,0|0,1:0|0:0,0:0:0:0:
320,232,166037,1,8,1:0:0:0:
320,232,166215,2,0,L|431:213,1,97.50000371933,0|0,1:0|0:0,0:0:0:0:
506,192,166573,1,0,1:0:0:0:
452,165,166751,1,8,1:0:0:0:
370,180,166930,1,0,0:0:0:0:
342,264,167108,1,0,1:0:0:0:
271,315,167286,1,0,0:0:0:0:
271,315,167375,1,0,0:0:0:0:
271,315,167465,1,4,1:0:0:0:
193,271,167643,1,2,0:3:0:0:
283,303,167822,5,4,1:3:0:0:
307,190,168000,1,6,1:3:0:0:
290,329,168179,5,0,0:0:0:0:
407,344,168358,1,0,1:0:0:0:
195,368,168536,5,8,1:0:0:0:
152,373,168625,1,0,0:0:0:0:
116,351,168715,1,6,1:3:0:0:
62,298,168804,6,0,L|10:309,2,32.5,0|4|0,0:0|1:3|0:0,0:0:0:0:
99,252,169072,2,0,L|152:264,1,32.5,6|0,1:3|0:0,0:0:0:0:
57,200,169250,1,8,1:0:0:0:
57,200,169608,6,0,P|137:168|220:249,1,195.00000743866,4|8,1:0|1:0,0:0:0:0:
338,370,170143,1,2,0:3:0:0:
320,251,170322,2,0,P|306:302|295:353,1,97.50000371933,2|2,1:3|1:3,0:0:0:0:
423,316,170679,2,0,P|422:270|416:195,1,97.50000371933,8|2,1:0|0:0,0:0:0:0:
321,44,171036,5,0,1:0:0:0:
358,62,171125,1,2,0:0:0:0:
433,130,171304,5,0,0:0:0:0:
471,105,171393,1,8,1:0:0:0:
308,199,171572,1,8,1:0:0:0:
308,199,171661,1,0,0:0:0:0:
308,199,171750,1,2,0:3:0:0:
308,199,171840,1,2,0:0:0:0:
308,199,171929,2,0,P|203:164|119:164,1,195.00000743866,2|0,0:0|0:0,0:0:0:0:
19,230,172465,5,0,1:0:0:0:
120,196,172643,1,0,1:0:0:0:
30,261,172822,1,8,1:0:0:0:
127,229,173000,1,0,0:0:0:0:
236,21,173179,6,0,P|273:61|286:61,1,65,4|0,1:3|0:0,0:0:0:0:
350,33,173447,2,0,L|386:46,1,32.5,4|0,1:3|0:0,0:0:0:0:
257,166,173715,6,0,L|211:179,1,42.2499980659486,4|0,1:3|0:0,0:0:0:0:
512,196,173893,6,0,L|495:266,2,65,4|2|2,0:0|0:0|0:0,0:0:0:0:
433,216,174428,2,0,L|416:286,2,65,2|2|2,0:0|3:2|3:2,0:0:0:0:
352,239,174964,1,4,0:0:0:0:
72,351,175678,5,2,0:0:0:0:
129,366,176035,1,2,0:0:0:0:
175,329,176392,1,2,0:0:0:0:
175,329,176749,5,0,0:0:0:0:
23,203,176927,5,4,1:0:0:0:
132,144,177106,1,8,1:0:0:0:
209,233,177284,2,0,P|200:286|194:321,1,65
227,329,177642,1,0,1:0:0:0:
172,227,177820,6,0,L|158:68,2,146.250005578995,4|0|0,1:3|0:0|1:0,0:0:0:0:
117,355,178534,2,0,P|55:376|9:354,1,97.50000371933,8|0,1:0|0:0,0:0:0:0:
121,336,178892,6,0,L|202:360,1,65,4|2,1:0|0:0,0:0:0:0:
219,365,179159,1,0,0:0:0:0:
219,365,179249,1,2,0:0:0:0:
292,339,179427,1,8,1:0:0:0:
311,261,179606,1,0,0:0:0:0:
251,214,179784,1,0,0:0:0:0:
110,189,179963,5,0,1:0:0:0:
179,163,180142,1,0,1:0:0:0:
174,209,180320,5,8,1:0:0:0:
108,153,180499,1,0,0:0:0:0:
37,187,180677,1,0,1:0:0:0:
37,187,180856,1,0,0:0:0:0:
163,93,181034,2,0,L|185:19,1,65,8|0,1:0|0:0,0:0:0:0:
215,9,181302,1,0,0:0:0:0:
224,37,181392,1,0,0:0:0:0:
100,71,181570,1,8,1:0:0:0:
10,0,181749,5,0,1:0:0:0:
248,133,182017,1,0,1:0:0:0:
191,160,182284,1,0,0:0:0:0:
5,255,182463,6,0,P|61:267|79:271,1,65,8|0,1:0|0:0,0:0:0:0:
128,373,182820,2,0,P|135:329|141:297,1,65
213,240,183177,5,0,1:0:0:0:
288,242,183355,1,0,0:0:0:0:
338,315,183534,1,0,1:0:0:0:
320,381,183712,1,0,0:0:0:0:
477,192,183891,6,0,P|416:209|400:270,1,126.749994197846,8|0,1:0|0:0,0:0:0:0:
414,272,184248,6,0,P|416:231|437:210,1,65,4|0,1:0|1:0,0:0:0:0:
493,269,184515,1,0,0:0:0:0:
493,269,184605,1,0,0:0:0:0:
424,298,184783,1,8,1:0:0:0:
312,215,184962,2,0,L|303:138,1,65,0|0,0:0|1:0,0:0:0:0:
346,75,185319,1,0,0:0:0:0:
288,170,185498,1,8,1:0:0:0:
242,70,185676,1,0,0:0:0:0:
195,137,185855,1,0,0:0:0:0:
16,68,186033,6,0,P|29:79|47:77,1,32.5,0|0,1:0|0:0,0:0:0:0:
67,109,186212,2,0,P|91:110|97:98,1,32.5,0|0,1:0|0:0,0:0:0:0:
135,39,186390,6,0,L|104:180,1,130,8|0,1:0|0:0,0:0:0:0:
107,165,186926,2,0,L|96:211,1,32.5,0|0,1:0|0:0,0:0:0:0:
2,384,187105,6,0,B|22:323|71:375|122:390|143:334,1,168.999992263794,4|0,1:0|1:0,0:0:0:0:
512,209,187819,2,0,B|401:223|448:299|506:369|380:385,1,253.499988395691,8|0,1:0|1:0,0:0:0:0:
291,349,188533,1,12,1:0:0:0:
291,349,188712,1,0,0:0:0:0:
340,287,188890,1,0,1:0:0:0:
340,287,189069,1,0,0:0:0:0:
512,183,189248,6,0,L|363:158,1,146.250005578995,8|0,1:0|0:0,0:0:0:0:
341,175,189962,1,0,1:0:0:0:
102,204,190319,6,0,L|28:218,1,65,2|2,0:3|0:0,0:0:0:0:
155,150,190676,1,8,1:0:0:0:
255,248,191033,5,0,0:0:0:0:
255,248,191212,1,8,1:0:0:0:
318,205,191390,1,2,0:3:0:0:
248,170,191569,1,0,1:0:0:0:
155,96,191748,1,2,0:0:0:0:
231,71,191926,1,2,1:3:0:0:
307,51,192105,2,0,L|322:124,1,65,8|2,1:0|1:3,0:0:0:0:
473,39,192462,5,0,1:0:0:0:
444,32,192640,1,2,1:2:0:0:
365,13,192819,2,0,L|349:148,1,130,2|8,0:3|1:0,0:0:0:0:
440,308,193533,5,0,0:0:0:0:
488,298,193711,1,0,1:0:0:0:
378,349,193890,5,2,0:3:0:0:
426,366,194069,1,2,0:0:0:0:
344,311,194247,5,0,1:0:0:0:
296,325,194426,1,8,1:0:0:0:
207,372,194604,6,0,P|185:346|194:315,1,65,2|0,1:3|1:0,0:0:0:0:
247,206,194961,2,0,P|267:238|247:263,1,65,2|2,0:3|0:3,0:0:0:0:
133,266,195318,2,0,L|3:304,1,130,8|0,1:0|0:0,0:0:0:0:
8,302,195854,1,0,1:0:0:0:
69,319,196032,1,2,0:3:0:0:
81,265,196210,1,0,1:0:0:0:
24,253,196389,1,2,1:3:0:0:
166,204,196567,5,2,0:3:0:0:
176,256,196746,1,8,1:0:0:0:
166,204,196924,1,2,0:3:0:0:
222,149,197103,5,0,1:0:0:0:
258,138,197192,1,2,0:3:0:0:
288,128,197282,1,0,1:0:0:0:
121,132,197460,5,8,1:0:0:0:
41,156,197639,1,8,1:0:0:0:
238,8,197817,6,0,B|234:59|194:66|194:66|150:43|150:43|152:11,2,146.250005578995,2|2|2,1:0|1:0|1:0,0:0:0:0:
429,169,198532,6,0,L|507:187,2,71.5000021820069,4|0|8,1:2|1:0|1:0,0:0:0:0:
507,154,199067,5,8,1:0:0:0:
423,209,199246,2,0,L|346:229,1,71.5000021820069,4|0,1:2|0:0,0:0:0:0:
264,191,199603,1,0,1:0:0:0:
269,245,199782,6,0,P|275:276|246:302,1,71.5000021820069,4|8,1:2|1:0,0:0:0:0:
257,144,200139,2,0,P|244:108|264:78,1,71.5000021820069,4|8,0:0|1:0,0:0:0:0:
169,208,200496,1,0,1:0:0:0:
93,192,200674,1,4,1:2:0:0:
19,178,200853,1,8,1:0:0:0:
52,223,201032,5,4,1:2:0:0:
133,188,201210,1,0,1:0:0:0:
189,270,201389,1,8,1:0:0:0:
269,226,201567,1,4,0:0:0:0:
269,226,201746,1,8,1:0:0:0:
499,355,202103,5,4,0:0:0:0:
442,328,202282,1,0,1:0:0:0:
397,375,202460,1,4,0:0:0:0:
353,342,202639,1,4,1:2:0:0:
202,321,202817,2,0,L|274:306,1,65,8|4,1:0|0:0,0:0:0:0:
502,197,203174,5,4,1:0:0:0:
422,180,203352,1,4,1:2:0:0:
403,254,203531,1,8,1:0:0:0:
465,231,203709,2,0,L|392:212,1,65,4|0,1:3|0:0,0:0:0:0:
352,114,204066,2,0,L|332:181,1,65,8|4,1:0|1:2,0:0:0:0:
290,241,204424,2,0,P|245:264|168:234,1,130,4|4,1:2|1:2,0:0:0:0:
19,197,204959,1,8,1:0:0:0:
96,180,205138,1,0,0:0:0:0:
169,165,205316,1,8,1:0:0:0:
260,74,205674,5,0,1:0:0:0:
276,13,205852,1,4,1:2:0:0:
225,80,206031,5,0,0:0:0:0:
238,147,206209,1,4,0:0:0:0:
253,218,206388,2,0,L|262:287,1,65,8|0,1:0|0:0,0:0:0:0:
245,373,206745,5,4,1:2:0:0:
480,234,207013,1,2,1:3:0:0:
400,170,207281,2,0,P|386:153|398:134,1,32.5,8|0,1:0|0:0,0:0:0:0:
443,254,207459,6,0,P|433:283|397:298,1,65,2|2,0:0|3:2,0:0:0:0:
504,146,207818,1,0,0:0:0:0:
504,146,207997,1,0,0:0:0:0:
504,146,208177,1,2,0:0:0:0:
260,198,208536,5,0,3:2:0:0:
260,198,208716,1,2,0:0:0:0:
177,214,208896,1,2,3:2:0:0:
177,214,209074,1,2,3:2:0:0:
293,231,209610,5,2,0:0:0:0:
364,250,209788,1,0,3:2:0:0:
435,270,209967,2,0,P|444:219|449:197,1,65,4|0,3:2|3:2,0:0:0:0:
504,193,210324,1,2,0:0:0:0:
318,72,210681,1,2,3:2:0:0:
254,91,210859,1,0,0:0:0:0:
243,65,211038,1,0,3:2:0:0:
308,48,211216,1,2,3:2:0:0:
475,70,211752,5,0,0:0:0:0:
443,121,211930,1,2,3:2:0:0:
504,153,212109,2,0,P|463:170|442:178,1,65,4|2,3:2|3:2,0:0:0:0:
395,246,212466,1,0,0:0:0:0:
253,203,212823,6,0,L|124:185,1,130,0|2,3:0|3:2,0:0:0:0:
87,222,213359,1,0,3:0:0:0:
11,165,213716,5,0,0:0:0:0:
11,165,213894,1,2,0:0:0:0:
90,118,214073,1,0,0:0:0:0:
90,118,214251,1,2,3:2:0:0:
166,165,214429,1,0,0:0:0:0:
263,371,214786,5,2,0:0:0:0:
229,335,214965,1,0,3:0:0:0:
265,289,215143,1,2,0:0:0:0:
326,253,215322,1,2,3:2:0:0:
358,208,215501,1,0,0:0:0:0:
321,173,215679,1,2,0:0:0:0:
243,201,215858,5,0,0:0:0:0:
271,56,216215,1,2,3:2:0:0:
286,1,216393,1,2,3:2:0:0:
271,56,216572,1,4,3:2:0:0:
