osu file format v14

[General]
AudioFilename: audio.mp3
AudioLeadIn: 0
PreviewTime: 688
Countdown: 0
SampleSet: Soft
StackLeniency: 0.7
Mode: 0
LetterboxInBreaks: 0
WidescreenStoryboard: 1

[Editor]
DistanceSpacing: 0.9
BeatDivisor: 4
GridSize: 16
TimelineZoom: 1.4

[Metadata]
Title:Munou
TitleUnicode:無能
Artist:oesterreich
ArtistUnicode:österreich
Creator:aishiteiru-
Version:fllecc's insane
Source:東京喰種√A
Tags:tokyo ghoul トーキョーグール root a season 2 math rock osterreich rock opening op anime japanese mirash posydomojka fllecc xytoper
BeatmapID:4056402
BeatmapSetID:1949537

[Difficulty]
HPDrainRate:6
CircleSize:4
OverallDifficulty:8
ApproachRate:8
SliderMultiplier:1.2
SliderTickRate:1

[Events]
//Background and Video events
0,0,"d.jpg",0,0
//Break Periods
2,75795,79935
2,93889,95680
2,113379,119226
2,151065,154936
//Storyboard Layer 0 (Background)
//Storyboard Layer 1 (Fail)
//Storyboard Layer 2 (Pass)
//Storyboard Layer 3 (Foreground)
//Storyboard Layer 4 (Overlay)
//Storyboard Sound Samples

[TimingPoints]
688,357.142857142857,7,2,1,40,1,0
3187,357.142857142857,6,2,1,40,1,0
3187,-100,6,2,1,40,0,0
5329,357.142857142857,7,2,1,50,1,0
5329,-100,7,2,1,50,0,0
7828,357.142857142857,5,2,1,50,1,0
7828,-100,5,2,1,50,0,0
8899,-83.3333333333333,5,2,69,60,0,0
9613,357.142857142857,4,2,1,50,1,0
9613,-100,4,2,1,50,0,0
12470,357.142857142857,5,2,1,50,1,0
12470,-100,5,2,1,50,0,0
14255,357.142857142857,6,2,1,50,1,0
14255,-100,6,2,1,50,0,0
16755,348.837209302326,6,2,1,50,1,0
16755,-100,6,2,1,50,0,0
17278,342.857142857143,6,2,1,50,1,0
17278,-100,6,2,1,50,0,0
17620,375,6,2,1,50,1,0
17620,-100,6,2,1,50,0,0
17807,-100,6,2,1,60,0,0
18088,342.857142857143,6,2,1,60,1,0
18088,-100,6,2,1,60,0,0
18345,357.142857142857,6,2,1,60,1,0
18345,-100,6,2,1,60,0,0
18523,363.636363636364,4,2,1,40,1,0
18523,-100,4,2,1,40,0,0
19613,357.142857142857,4,2,1,40,1,0
19613,-100,4,2,1,40,0,0
21041,357.142857142857,6,2,1,40,1,0
21041,-100,6,2,1,40,0,0
21398,-125,6,2,1,40,0,0
22469,-100,6,2,1,40,0,0
23183,357.142857142857,7,2,1,40,1,0
23183,-100,7,2,1,40,0,0
25505,-100,7,2,69,40,0,0
25687,352.941176470588,4,2,1,40,1,0
25687,-100,4,2,1,40,0,0
27098,357.142857142857,4,2,1,40,1,0
27098,-100,4,2,1,40,0,0
27812,-33.3333333333333,4,2,70,55,0,0
28526,-33.3333333333333,4,2,1,40,0,0
31026,-166.666666666667,4,2,1,40,0,0
32455,-125,4,2,1,40,0,0
34955,-166.666666666667,4,2,1,40,0,0
36562,-100,4,2,1,40,0,0
37098,-100,4,2,1,50,0,0
37455,-90.9090909090909,4,2,1,50,0,0
42812,357.142857142857,5,2,1,40,1,0
42812,-100,5,2,1,40,0,0
43526,-76.9230769230769,5,2,1,50,0,0
44597,-90.9090909090909,5,2,1,50,0,0
44954,-90.9090909090909,5,2,1,30,0,0
45133,-166.666666666667,5,2,1,30,0,0
46383,357.142857142857,7,2,1,60,1,1
46383,-83.3333333333333,7,2,1,60,0,1
46472,-83.3333333333333,7,2,1,60,0,0
48883,357.142857142857,6,2,1,60,1,0
48883,-83.3333333333333,6,2,1,60,0,0
51025,357.142857142857,5,2,1,60,1,0
51025,-100,5,2,1,60,0,0
51203,-90.9090909090909,5,2,1,60,0,0
52810,357.142857142857,4,2,1,60,1,0
52810,-100,4,2,1,60,0,0
53524,-83.3333333333333,4,2,1,60,0,0
55667,357.142857142857,6,2,1,60,1,0
55667,-83.3333333333333,6,2,1,60,0,0
58702,-90.9090909090909,6,2,1,60,0,0
59952,357.142857142857,3,2,1,60,1,0
59952,-71.4285714285714,3,2,1,60,0,0
61023,361.44578313253,5,2,1,60,1,0
61023,-100,5,2,1,60,0,0
62830,357.142857142857,6,2,1,60,1,0
62830,-90.9090909090909,6,2,1,60,0,0
63901,-125,6,2,1,60,0,0
63990,-125,6,2,1,40,0,0
64972,357.142857142857,4,2,1,40,1,0
64972,-100,4,2,1,40,0,0
70329,357.142857142857,4,2,1,40,1,0
70329,-100,4,2,1,40,0,0
71043,-111.111111111111,4,2,1,40,0,0
74614,357.142857142857,5,2,1,40,1,0
74614,-100,5,2,1,40,0,0
75685,-100,5,2,1,20,0,0
76043,-100,5,2,1,5,0,0
76222,-100,5,2,1,30,0,0
76400,357.142857142857,4,2,1,30,1,0
76400,-100,4,2,1,30,0,0
80685,-100,4,2,1,50,0,0
84972,357.142857142857,7,2,1,40,1,0
84972,-100,7,2,1,40,0,0
85150,-166.666666666667,7,2,1,40,0,0
86043,-100,7,2,1,40,0,0
87472,357.142857142857,6,2,1,40,1,0
87472,-100,6,2,1,40,0,0
89614,357.142857142857,7,2,1,40,1,0
89614,-100,7,2,1,40,0,0
92114,352.941176470588,4,2,1,40,1,0
92114,-100,4,2,1,40,0,0
93172,344.827586206897,4,2,69,50,1,0
93172,-100,4,2,69,50,0,0
93689,428.571428571429,4,2,1,50,1,0
93689,-100,4,2,1,50,0,0
93903,357.142857142857,4,2,1,30,1,0
93903,-100,4,2,1,30,0,0
94260,357.142857142857,6,2,1,30,1,0
94260,-100,6,2,1,30,0,0
96224,413.793103448276,4,2,1,40,1,0
96224,-100,4,2,1,40,0,0
96430,348.837209302326,4,2,1,40,1,0
96430,-100,4,2,1,40,0,0
97825,357.142857142857,4,2,1,40,1,0
97825,-100,4,2,1,40,0,0
98896,357.142857142857,7,2,1,40,1,0
98896,-100,7,2,1,40,0,0
100324,-250.000000000001,7,2,1,40,0,0
101396,357.142857142857,6,2,1,40,1,0
101396,-100,6,2,1,40,0,0
107824,357.142857142857,5,2,1,40,1,0
107824,-100,5,2,1,40,0,0
109609,357.142857142857,6,2,1,60,1,0
109609,-100,6,2,1,60,0,0
111751,357.142857142857,4,2,1,60,1,0
111751,-100,4,2,1,60,0,0
113173,-100,4,2,1,40,0,0
116036,358.208955223881,5,2,1,40,1,0
116036,-100,5,2,1,40,0,0
117827,358.208955223881,6,2,1,40,1,0
117827,-100,6,2,1,40,0,0
119976,357.142857142857,7,2,1,40,1,0
119976,-100,7,2,1,40,0,0
121742,-100,7,2,1,30,0,0
122118,-76.9230769230769,7,2,1,30,0,0
122457,-76.9230769230769,7,2,69,60,0,0
122476,-58.8235294117647,7,2,69,60,0,1
122833,-66.6666666666667,7,2,69,60,0,1
123726,-58.8235294117647,7,2,69,60,0,1
124976,355.029585798817,5,2,69,60,1,1
124976,-62.5,5,2,69,60,0,1
126218,-50,5,2,69,60,0,1
126751,357.142857142857,6,2,69,60,1,1
126751,-62.5,6,2,69,60,0,1
131036,357.142857142857,7,2,1,65,1,1
131036,-100,7,2,1,65,0,1
131385,-100,7,2,69,70,0,1
131742,-100,7,2,69,75,0,1
131750,-58.8235294117647,7,2,69,75,0,1
132457,-58.8235294117647,7,2,69,60,0,1
132464,-58.8235294117647,7,2,69,60,0,0
133537,357.142857142857,6,2,1,50,1,1
133537,-83.3333333333333,6,2,1,50,0,1
135679,359.281437125748,5,2,1,50,1,1
135679,-83.3333333333333,5,2,1,50,0,1
137475,357.142857142857,6,2,1,50,1,1
137475,-83.3333333333333,6,2,1,50,0,1
139617,357.142857142857,7,2,1,50,1,1
139617,-83.3333333333333,7,2,1,50,0,1
141402,-166.666666666667,7,2,1,50,0,0
142117,352.941176470588,5,2,1,50,1,0
142117,-100,5,2,1,50,0,0
143175,-90.9090909090909,5,2,1,50,0,0
143884,357.142857142857,6,2,1,50,1,0
143884,-100,6,2,1,50,0,0
146384,-83.3333333333333,6,2,1,50,0,0
147812,-83.3333333333333,6,2,69,50,0,0
148187,357.142857142857,4,2,1,50,1,0
148187,-90.9090909090909,4,2,1,50,0,0
149972,-90.9090909090909,4,3,69,50,0,0
150329,-90.9090909090909,4,3,1,50,0,0
151044,357.142857142857,7,2,1,40,1,0
151044,-100,7,2,1,40,0,0
153544,357.142857142857,6,2,1,40,1,0
153544,-100,6,2,1,40,0,0
159258,348.837209302326,6,2,1,40,1,0
159258,-100,6,2,1,40,0,0
159606,-83.3333333333333,6,2,1,40,0,0
159955,368.098159509202,4,2,1,40,1,0
159955,-100,4,2,1,40,0,0
160323,357.142857142857,7,2,1,60,1,1
160323,-71.4285714285714,7,2,1,60,0,1
160412,-71.4285714285714,7,2,1,60,0,0
161394,-76.9230769230769,7,2,1,60,0,0
162823,357.142857142857,6,2,1,60,1,0
162823,-100,6,2,1,60,0,0
164965,-76.9230769230769,6,2,1,60,0,0
166751,-83.3333333333333,6,2,1,60,0,0
167108,357.142857142857,7,2,1,60,1,0
167108,-83.3333333333333,7,2,1,60,0,0
172108,357.142857142857,5,2,1,60,1,0
172108,-83.3333333333333,5,2,1,60,0,0
173893,357.142857142857,3,2,1,40,1,0
173893,-100,3,2,1,40,0,0
174964,357.142857142857,5,2,1,50,1,0
174964,-100,4,2,1,50,0,0
175678,-100,4,2,1,40,0,0
176392,-100,7,2,1,40,0,0
176749,357.142857142857,3,2,1,40,1,0
176927,-100,7,2,1,60,0,0
177106,-83.3333333333333,7,2,1,60,0,0
178892,357.142857142857,4,2,1,50,1,0
178892,-100,4,2,1,50,0,0
180320,-90.9090909090909,4,2,1,50,0,0
183177,357.142857142857,3,2,1,50,1,0
183177,-100,3,2,1,50,0,0
184248,357.142857142857,4,2,1,50,1,0
184248,-100,4,2,1,50,0,0
184962,-90.9090909090909,4,2,1,50,0,0
189605,-142.857142857143,4,2,1,50,0,0
190131,-142.857142857143,4,2,1,40,0,0
190319,-100,4,2,1,40,0,0
192819,357.142857142857,5,2,1,40,1,0
192819,-100,5,2,1,40,0,0
194604,357.142857142857,4,2,1,40,1,0
194604,-100,4,2,1,40,0,0
196032,357.142857142857,7,2,1,40,1,0
196032,-100,7,2,1,40,0,0
197817,-83.3333333333333,7,2,69,40,0,0
198532,-83.3333333333333,7,2,1,50,0,0
198710,-90.9090909090909,7,2,1,50,0,0
201032,357.142857142857,6,2,1,50,1,0
201032,-100,6,2,1,50,0,0
203174,357.142857142857,7,2,1,50,1,0
203174,-100,7,2,1,50,0,0
205674,357.142857142857,5,2,1,50,1,0
205674,-100,5,2,1,50,0,0
207459,359.281437125748,4,2,1,40,1,0
207459,-100,4,2,1,40,0,0
208896,357.142857142857,5,2,1,40,1,0
208896,-100,5,2,1,40,0,0
209967,-100,5,2,1,30,0,0
210146,-100,5,2,1,30,0,0
210681,357.142857142857,4,2,1,30,1,0
210681,-100,4,2,1,30,0,0
212109,357.142857142857,6,2,1,30,1,0
212109,-100,6,2,1,30,0,0
212287,-100,6,2,1,30,0,0
214251,357.142857142857,7,2,1,30,1,0
214251,-100,7,2,1,30,0,0
216572,-100,7,2,1,20,0,0

[Colours]
Combo1 : 222,165,231
Combo2 : 199,192,169
Combo3 : 126,90,116
Combo4 : 218,86,170

[HitObjects]
377,346,687,5,2,0:0:0:0:
388,342,865,1,0,0:0:0:0:
163,260,1222,5,2,0:0:0:0:
152,256,1402,1,0,0:0:0:0:
237,360,1758,5,0,0:0:0:0:
243,369,1937,1,2,0:0:0:0:
274,358,2115,1,0,0:0:0:0:
305,324,2294,1,2,0:0:0:0:
314,274,2472,1,2,0:0:0:0:
292,218,2651,1,0,0:0:0:0:
233,178,2829,1,2,0:0:0:0:
211,107,3008,1,0,0:0:0:0:
238,37,3187,5,2,0:0:0:0:
256,27,3365,1,0,0:0:0:0:
273,29,3544,1,2,0:0:0:0:
278,39,3722,1,2,0:0:0:0:
271,43,3901,1,2,0:0:0:0:
321,103,4258,5,2,0:0:0:0:
318,114,4437,1,2,0:0:0:0:
209,193,4615,5,2,0:0:0:0:
212,204,4794,1,0,0:0:0:0:
295,280,4972,5,2,0:0:0:0:
292,291,5151,1,2,0:0:0:0:
242,370,5329,5,4,1:0:0:0:
242,370,5507,2,0,L|267:185,1,180,0|8,1:0|1:0,0:0:0:0:
59,166,6579,1,0,1:0:0:0:
59,166,6668,1,0,0:0:0:0:
59,166,6757,2,0,P|29:162|-1:158,1,60,2|0,0:0|1:0,0:0:0:0:
126,120,7114,6,0,P|130:60|122:0,2,120,0|8|0,1:0|1:0|1:0,0:0:0:0:
194,161,8006,1,0,1:0:0:0:
342,96,8185,1,2,0:0:0:0:
272,72,8363,1,0,0:0:0:0:
308,165,8542,1,8,1:0:0:0:
308,165,8899,6,0,B|358:179|358:179|412:166,2,107.999996704102,2|2|10,1:0|1:0|1:0,0:0:0:0:
508,25,9613,5,0,1:0:0:0:
429,0,9791,1,0,1:0:0:0:
429,0,9880,1,0,0:0:0:0:
429,0,9970,1,0,0:0:0:0:
404,79,10148,1,2,0:0:0:0:
483,104,10327,1,8,1:0:0:0:
395,67,10505,1,0,0:0:0:0:
307,30,10684,6,0,B|211:26|244:69|169:85,1,150
176,88,11220,2,0,P|128:72|98:66,1,60,0|0,1:0|0:0,0:0:0:0:
71,10,11577,1,0,0:0:0:0:
33,131,11755,2,0,P|49:179|55:209,1,60,8|0,1:0|0:0,0:0:0:0:
51,188,12023,1,2,0:0:0:0:
51,188,12113,1,0,1:0:0:0:
11,252,12291,2,0,P|99:236|189:226,2,180,0|8|0,1:0|1:0|1:0,0:0:0:0:
11,252,13541,5,2,0:0:0:0:
72,252,13720,1,2,0:0:0:0:
125,280,13898,1,0,1:0:0:0:
292,349,14077,5,8,1:0:0:0:
223,381,14255,2,0,P|215:322|220:263,1,120,2|0,1:2|0:0,0:0:0:0:
315,199,14790,1,2,0:0:0:0:
376,153,14969,2,0,P|384:94|379:35,1,120,8|0,1:0|0:0,0:0:0:0:
378,34,15505,5,0,1:0:0:0:
343,14,15683,1,2,0:0:0:0:
284,22,15862,1,0,1:0:0:0:
253,73,16040,1,0,1:0:0:0:
274,124,16219,1,0,0:0:0:0:
492,232,16576,5,0,0:0:0:0:
430,276,16755,2,0,L|445:352,1,60,2|0,1:3|1:0,0:0:0:0:
441,334,17016,1,2,1:3:0:0:
441,334,17103,1,0,1:0:0:0:
353,384,17278,2,0,B|274:371|313:354|243:340,1,120,2|0,1:3|1:0,0:0:0:0:
140,277,17807,5,8,1:0:0:0:
70,298,18088,5,8,1:0:0:0:
0,319,18345,5,8,1:0:0:0:
74,373,18523,6,0,L|79:291,1,60,0|0,1:0|1:0,0:0:0:0:
186,245,18886,1,2,1:3:0:0:
118,206,19068,2,0,L|109:65,1,120,0|0,0:0|1:0,0:0:0:0:
1,26,19613,5,0,1:0:0:0:
1,26,19791,1,0,1:0:0:0:
92,90,19970,1,2,0:0:0:0:
160,54,20148,1,8,1:1:0:0:
191,81,20327,1,2,0:0:0:0:
282,34,20505,1,2,0:0:0:0:
186,0,20684,5,0,1:0:0:0:
205,90,20863,1,4,0:0:0:0:
233,189,21041,5,4,1:0:0:0:
233,189,21219,1,0,0:0:0:0:
233,189,21398,2,0,B|344:180|314:240|412:257,1,192,2|2,3:3|0:0,0:0:0:0:
469,212,22291,1,4,0:0:0:0:
399,356,22469,5,0,0:0:0:0:
276,300,22648,1,0,1:0:0:0:
324,371,22826,1,8,1:0:0:0:
392,331,23005,1,2,0:0:0:0:
474,325,23183,6,0,P|479:266|468:185,1,120,4|8,1:0|1:0,0:0:0:0:
512,135,23718,1,2,0:0:0:0:
512,135,23808,1,2,0:0:0:0:
512,135,23897,1,2,1:3:0:0:
403,9,24075,1,8,1:0:0:0:
403,9,24433,5,0,1:0:0:0:
360,49,24611,1,2,0:0:0:0:
305,42,24790,1,2,0:0:0:0:
195,56,24968,5,8,1:0:0:0:
133,100,25147,1,2,0:0:0:0:
62,70,25325,2,0,L|73:-9,1,60,8|2,1:0|1:0,0:0:0:0:
71,11,25593,1,2,1:0:0:0:
71,11,25683,1,4,1:2:0:0:
253,167,25951,5,8,1:0:0:0:
253,167,26039,2,0,L|242:246,1,60,8|4,1:0|1:3,0:0:0:0:
0,243,26569,1,8,1:0:0:0:
69,279,26745,2,0,L|80:358,1,60,0|0,1:0|0:0,0:0:0:0:
77,338,27010,1,0,1:0:0:0:
77,338,27098,1,8,1:0:0:0:
170,360,27276,1,4,1:3:0:0:
262,381,27455,1,4,1:3:0:0:
262,381,27812,6,0,B|270:353|270:353|249:325|249:325|256:300,8,90.0000034332277,2|2|2|2|2|2|2|0|0,1:0|1:0|1:0|1:0|1:0|1:0|1:0|1:0|1:0,0:0:0:0:
262,381,29240,5,8,1:0:0:0:
308,305,29598,5,2,0:0:0:0:
218,239,29955,5,0,1:0:0:0:
332,45,30669,5,8,1:0:0:0:
257,6,31026,6,0,P|247:77|255:148,1,143.999995605469,2|0,0:3|1:0,0:0:0:0:
255,148,32098,1,8,1:0:0:0:
99,226,32455,2,0,L|36:218,1,48,2|2,0:0|0:0,0:0:0:0:
15,155,32812,5,0,1:0:0:0:
141,114,33169,5,0,0:0:0:0:
233,183,33526,5,8,1:0:0:0:
205,306,33883,5,4,0:0:0:0:
308,366,34240,5,0,1:0:0:0:
408,310,34598,5,2,0:0:0:0:
482,352,34776,1,8,1:0:0:0:
444,383,34955,6,0,L|435:239,1,143.999995605469,0|4,0:0|0:0,0:0:0:0:
435,239,36026,1,8,1:0:0:0:
311,49,36383,1,4,1:3:0:0:
384,16,36562,2,0,B|367:83|342:49|328:119,1,120,2|8,0:0|1:0,0:0:0:0:
403,168,37098,5,0,1:0:0:0:
424,164,37187,1,2,0:0:0:0:
445,160,37276,1,0,1:0:0:0:
466,156,37365,1,2,0:0:0:0:
487,152,37455,2,0,P|500:196|508:231,1,66.0000020141602,6|8,0:0|1:0,0:0:0:0:
391,364,37812,2,0,P|382:329|371:294,1,66.0000020141602,0|0,0:0|1:0,0:0:0:0:
445,268,38169,1,0,0:0:0:0:
445,268,38347,1,8,1:0:0:0:
386,370,38526,6,0,P|352:367|313:366,1,66.0000020141602,0|0,1:0|1:0,0:0:0:0:
245,254,38883,2,0,P|236:178|246:106,1,132.00000402832,8|0,1:0|1:0,0:0:0:0:
306,78,39419,1,0,1:0:0:0:
306,78,39508,1,0,0:0:0:0:
306,78,39597,1,2,0:0:0:0:
232,18,39776,1,8,1:0:0:0:
131,91,39955,6,0,P|37:88|0:1,1,198.000006042481,2|8,0:0|1:0,0:0:0:0:
74,11,40669,5,0,1:0:0:0:
144,97,40937,5,0,0:0:0:0:
123,209,41205,5,0,0:0:0:0:
49,239,41383,6,0,P|36:292|49:371,1,132.00000402832,0|2,1:0|1:3,0:0:0:0:
127,364,41919,1,8,1:0:0:0:
24,363,42097,5,2,1:3:0:0:
59,319,42276,1,0,1:0:0:0:
131,281,42455,1,0,1:0:0:0:
227,271,42633,1,8,1:0:0:0:
323,299,42812,1,8,1:0:0:0:
391,350,42990,1,4,1:3:0:0:
447,361,43169,1,2,1:2:0:0:
509,308,43347,1,8,1:0:0:0:
415,193,43526,6,0,P|404:115|414:38,1,155.999992858887,4|8,1:0|1:0,0:0:0:0:
496,219,44062,5,4,1:0:0:0:
234,353,44419,1,0,1:0:0:0:
313,381,44597,6,0,P|321:314|313:247,1,132.00000402832,4|2,1:0|0:0,0:0:0:0:
257,196,45133,2,0,P|249:139|256:82,1,107.999996704102,0|6,0:0|0:0,0:0:0:0:
299,22,45847,1,2,0:0:0:0:
299,22,45937,1,0,0:0:0:0:
299,22,46026,1,2,0:0:0:0:
234,78,46204,1,2,0:0:0:0:
366,177,46383,6,0,B|453:171|432:212|504:222,1,143.999995605469,4|0,1:0|1:0,0:0:0:0:
499,221,46918,1,0,0:0:0:0:
325,308,47097,2,0,B|238:302|259:343|187:353,1,143.999995605469,8|0,1:0|1:0,0:0:0:0:
192,352,47632,1,0,1:0:0:0:
445,374,47811,6,0,P|437:326|423:289,1,71.9999978027344,2|0,0:3|1:0,0:0:0:0:
357,269,48168,1,0,0:0:0:0:
312,188,48347,1,0,1:0:0:0:
370,99,48525,1,8,1:0:0:0:
370,99,48883,6,0,P|404:46|384:-10,1,107.999996704102,4|0,1:0|1:0,0:0:0:0:
395,4,49240,2,0,P|352:14|318:16,1,71.9999978027344,2|0,1:3|1:0,0:0:0:0:
195,68,49597,5,2,0:3:0:0:
119,101,49775,1,8,1:0:0:0:
52,55,49954,1,0,1:0:0:0:
126,21,50133,1,0,0:0:0:0:
245,146,50311,5,0,1:0:0:0:
334,174,50490,1,2,1:3:0:0:
414,128,50668,1,8,1:0:0:0:
474,11,51025,5,0,1:0:0:0:
414,128,51203,2,0,P|411:88|417:52,1,66.0000020141602,0|2,1:0|1:3,0:0:0:0:
509,200,51560,2,0,P|519:281|507:353,1,132.00000402832,8|0,1:0|1:0,0:0:0:0:
408,327,52096,5,0,1:0:0:0:
390,250,52275,1,8,1:0:0:0:
483,346,52453,1,2,1:3:0:0:
354,381,52632,1,0,1:0:0:0:
265,181,52810,5,8,1:0:0:0:
265,181,53167,1,0,1:0:0:0:
255,367,53524,6,0,P|251:295|243:223,1,143.999995605469,4|8,1:0|1:0,0:0:0:0:
270,11,54060,2,0,P|273:82|282:155,1,143.999995605469,4|0,1:0|1:0,0:0:0:0:
360,197,54595,5,8,1:0:0:0:
164,184,54863,5,0,1:0:0:0:
164,184,54952,1,4,1:3:0:0:
68,212,55131,5,4,1:3:0:0:
2,264,55310,5,8,1:0:0:0:
2,264,55667,6,0,B|25:339|50:304|77:384,2,143.999995605469,4|0|8,1:0|1:0|1:0,0:0:0:0:
2,264,56559,1,0,0:0:0:0:
116,196,56738,2,0,B|124:158|124:158|111:118,1,71.9999978027344,0|0,1:0|1:0,0:0:0:0:
52,76,57095,1,2,0:3:0:0:
166,14,57274,5,0,1:0:0:0:
216,225,57542,5,0,0:0:0:0:
7,163,57809,5,0,1:0:0:0:
135,127,57988,1,0,1:0:0:0:
135,127,58345,5,4,1:0:0:0:
215,150,58524,1,2,1:3:0:0:
317,91,58702,2,0,B|451:76|393:117|518:108,1,198.000006042481,2|0,1:3|1:0,0:0:0:0:
512,109,59417,1,2,1:3:0:0:
385,14,59595,5,8,1:0:0:0:
385,14,59684,1,0,1:0:0:0:
385,14,59774,1,0,1:0:0:0:
385,14,59863,1,0,1:0:0:0:
385,14,59952,2,0,P|402:90|419:200,1,167.999994873047,4|8,1:0|1:0,0:0:0:0:
511,341,60487,6,0,B|499:257|499:257|464:332,1,167.999994873047,4|0,1:0|1:0,0:0:0:0:
464,332,61023,5,8,1:0:0:0:
364,374,61565,5,0,1:0:0:0:
364,374,61655,1,0,1:0:0:0:
364,374,61745,1,8,1:0:0:0:
292,295,61926,1,4,1:3:0:0:
187,316,62107,5,8,1:0:0:0:
131,302,62227,5,4,1:3:0:0:
85,324,62348,5,8,1:0:0:0:
59,356,62468,5,4,1:3:0:0:
34,371,62589,5,4,1:3:0:0:
6,362,62709,5,8,1:0:0:0:
6,362,62830,6,0,P|3:277|13:194,1,132.00000402832,4|8,1:0|1:0,0:0:0:0:
44,138,63365,1,4,1:0:0:0:
258,2,63901,6,0,P|264:97|257:193,1,192,4|8,1:2|1:0,0:0:0:0:
256,193,64972,5,4,1:0:0:0:
340,233,65150,1,2,0:0:0:0:
340,233,65239,1,2,0:0:0:0:
340,233,65329,1,2,0:0:0:0:
388,171,65507,1,0,0:0:0:0:
263,275,65686,6,0,B|158:279|195:306|79:314,1,180,0|2,1:0|0:0,0:0:0:0:
88,314,66400,2,0,P|82:284|75:255,1,60,2|0,0:0|1:0,0:0:0:0:
152,372,66757,2,0,P|161:343|170:314,1,60,0|2,1:0|0:0,0:0:0:0:
217,255,67114,5,8,1:0:0:0:
177,190,67293,1,0,0:0:0:0:
177,190,67382,1,2,0:0:0:0:
177,190,67472,1,2,0:0:0:0:
132,118,67650,2,0,P|136:84|136:48,1,60,2|0,0:0|1:0,0:0:0:0:
220,23,68007,5,0,1:0:0:0:
220,23,68097,1,2,1:0:0:0:
220,23,68186,1,0,1:0:0:0:
127,40,68364,1,2,0:0:0:0:
34,58,68543,1,8,1:0:0:0:
34,58,68900,5,2,0:0:0:0:
85,24,69079,1,0,1:0:0:0:
157,36,69257,1,2,0:0:0:0:
196,86,69436,1,0,1:0:0:0:
210,140,69614,1,0,1:0:0:0:
253,169,69793,1,2,0:0:0:0:
305,160,69972,1,8,1:0:0:0:
324,128,70150,1,2,0:0:0:0:
355,37,70329,5,0,1:0:0:0:
432,11,70507,1,0,0:0:0:0:
432,11,70596,1,0,0:0:0:0:
432,11,70686,1,2,0:0:0:0:
493,64,70864,1,0,1:0:0:0:
417,91,71043,2,0,P|411:162|416:234,1,134.999995880127,8|0,1:0|0:0,0:0:0:0:
415,225,71579,5,0,0:0:0:0:
494,299,71757,2,0,P|500:262|514:232,1,53.9999983520508,0|0,1:0|0:0,0:0:0:0:
419,353,72114,2,0,P|397:322|385:291,1,53.9999983520508,0|2,1:0|0:0,0:0:0:0:
498,381,72471,5,8,1:0:0:0:
392,282,72739,5,2,0:0:0:0:
253,254,73007,6,0,P|239:218|236:185,1,53.9999983520508,0|0,1:0|1:0,0:0:0:0:
282,143,73364,1,0,0:0:0:0:
282,143,73454,1,0,1:0:0:0:
282,143,73543,1,0,0:0:0:0:
224,82,73721,1,0,1:0:0:0:
274,21,73900,5,8,1:0:0:0:
256,183,74168,5,4,1:3:0:0:
244,341,74436,5,2,0:0:0:0:
244,341,74525,1,0,0:0:0:0:
244,341,74614,2,0,P|191:348|87:367,1,150,0|0,1:0|0:0,0:0:0:0:
95,365,75149,1,8,1:0:0:0:
23,319,75328,2,0,P|15:305|13:291,3,30,0|2|2|0,0:0|0:0|0:0|0:0,0:0:0:0:
422,138,80685,6,0,L|414:218,1,60,4|0,1:0|1:0,0:0:0:0:
416,197,80954,1,0,1:0:0:0:
416,197,81042,1,8,1:0:0:0:
508,123,81221,1,8,1:0:0:0:
434,31,81399,1,8,1:0:0:0:
342,104,81578,1,2,1:3:0:0:
342,104,81935,5,8,1:0:0:0:
222,71,82114,2,0,L|216:11,1,60,2|8,1:3|1:0,0:0:0:0:
233,0,82471,1,0,1:0:0:0:
206,80,82650,1,0,1:0:0:0:
254,176,82828,6,0,B|267:236|267:236|253:292,1,120,2|4,1:3|1:2,0:0:0:0:
180,299,83364,1,0,1:0:0:0:
180,299,83453,1,0,1:0:0:0:
180,299,83542,1,8,1:0:0:0:
108,234,83721,1,0,1:0:0:0:
22,267,83900,1,4,1:3:0:0:
22,267,83989,1,0,1:0:0:0:
22,267,84078,1,0,1:0:0:0:
98,383,84257,6,0,L|92:323,1,60,4|4,1:3|1:3,0:0:0:0:
93,324,84525,1,0,1:0:0:0:
93,324,84614,1,2,1:3:0:0:
265,114,84972,5,0,1:0:0:0:
194,87,85150,2,0,P|187:50|186:13,1,71.9999978027344,0|0,1:0|1:0,0:0:0:0:
199,6,85686,1,8,1:0:0:0:
184,90,85864,1,8,1:0:0:0:
115,133,86043,6,0,P|78:126|41:125,1,60,0|2,0:0|0:0,0:0:0:0:
20,57,86400,1,2,0:0:0:0:
74,37,86579,1,0,1:0:0:0:
138,51,86757,1,0,1:0:0:0:
192,104,86936,1,2,0:0:0:0:
210,194,87114,1,2,0:3:0:0:
291,240,87293,1,8,1:0:0:0:
399,216,87472,6,0,P|437:207|477:202,1,60,0|2,1:0|0:0,0:0:0:0:
509,148,87829,1,0,0:0:0:0:
502,131,88007,1,2,0:0:0:0:
487,120,88186,1,8,1:0:0:0:
435,11,88543,5,2,0:0:0:0:
350,43,88722,1,0,1:0:0:0:
315,109,88900,1,2,0:0:0:0:
315,171,89079,1,2,0:2:0:0:
338,218,89257,1,2,1:3:0:0:
371,242,89436,1,8,1:0:0:0:
445,301,89614,6,0,P|470:331|478:371,2,60,0|0|2,1:0|1:0|0:0,0:0:0:0:
449,222,90149,1,2,0:0:0:0:
371,329,90328,2,0,P|341:354|301:362,1,60,8|2,1:0|0:0,0:0:0:0:
248,384,90685,2,0,P|211:370|184:339,1,60,2|0,0:0|1:0,0:0:0:0:
138,305,91042,2,0,P|131:266|144:227,1,60,0|2,0:0|0:0,0:0:0:0:
189,190,91399,1,2,1:3:0:0:
236,124,91578,1,2,0:0:0:0:
209,38,91756,1,8,1:0:0:0:
209,38,92114,6,0,P|162:30|129:13,1,60,0|2,1:0|0:0,0:0:0:0:
61,20,92466,1,2,0:0:0:0:
0,87,92643,1,8,1:0:0:0:
13,175,92819,1,8,1:0:0:0:
155,301,93172,5,2,1:0:0:0:
255,287,93430,5,2,1:0:0:0:
355,273,93689,5,8,1:0:0:0:
510,360,96430,6,0,P|447:350|364:339,1,120,2|0,1:3|0:0,0:0:0:0:
353,278,96953,1,0,1:0:0:0:
228,319,97127,2,0,P|233:352|240:390,1,60,2|0,0:0|1:0,0:0:0:0:
244,312,97476,1,8,1:0:0:0:
212,230,97650,1,2,0:0:0:0:
258,20,98003,5,0,1:0:0:0:
177,0,98182,1,2,0:0:0:0:
158,81,98361,1,2,0:0:0:0:
246,107,98539,1,8,1:0:0:0:
246,107,98627,1,2,0:0:0:0:
246,107,98717,1,2,0:0:0:0:
346,73,98896,6,0,P|379:39|480:35,1,150,0|0,1:0|0:0,0:0:0:0:
481,37,99431,2,0,P|467:63|458:92,1,60,0|8,1:0|1:0,0:0:0:0:
506,149,99788,1,0,0:0:0:0:
399,191,99967,1,0,0:0:0:0:
391,266,100146,1,0,1:0:0:0:
459,302,100324,6,0,L|507:296,1,48,2|0,1:3|0:0,0:0:0:0:
351,350,101038,6,0,L|303:343,1,48,2|0,1:3|1:0,0:0:0:0:
439,384,101574,1,0,1:0:0:0:
363,337,101753,1,2,0:0:0:0:
431,161,102110,5,8,1:0:0:0:
431,161,102199,1,2,0:0:0:0:
431,161,102288,1,2,0:0:0:0:
491,215,102467,5,2,0:0:0:0:
354,185,102735,5,2,0:0:0:0:
448,81,103003,5,2,0:0:0:0:
17,281,103360,5,4,1:0:0:0:
98,261,103539,1,0,1:0:0:0:
117,342,103718,1,0,1:0:0:0:
36,362,103896,2,0,L|21:293,1,60,8|0,1:0|0:0,0:0:0:0:
126,228,104253,5,2,0:0:0:0:
70,176,104431,2,0,B|78:106|107:143|117:65,1,120,0|2,1:0|0:0,0:0:0:0:
117,69,104878,1,2,0:0:0:0:
117,69,104967,1,2,1:3:0:0:
75,9,105146,1,0,0:0:0:0:
0,23,105324,1,8,1:0:0:0:
396,177,105681,5,4,1:0:0:0:
321,206,105860,2,0,P|313:268|320:331,1,120,0|2,1:0|0:0,0:0:0:0:
318,325,106306,1,0,0:0:0:0:
318,325,106396,1,8,1:0:0:0:
406,358,106574,1,2,0:0:0:0:
511,257,106931,5,2,1:2:0:0:
430,73,107288,5,2,0:0:0:0:
498,16,107467,1,4,1:3:0:0:
498,16,107824,6,0,P|431:27|363:42,1,120,0|2,1:0|0:0,0:0:0:0:
309,76,108359,2,0,P|279:69|250:65,1,60,0|8,1:0|1:0,0:0:0:0:
77,62,108716,5,2,0:0:0:0:
152,76,108895,1,2,0:0:0:0:
127,4,109074,2,0,P|139:63|149:123,1,120,0|2,1:0|0:0,0:0:0:0:
208,171,109609,1,2,0:0:0:0:
86,251,109787,1,0,0:0:0:0:
143,306,109966,2,0,P|135:341|129:377,1,60,8|0,1:0|1:0,0:0:0:0:
148,382,110501,5,0,1:0:0:0:
124,339,110680,1,8,1:0:0:0:
138,292,110859,1,2,3:2:0:0:
113,250,111037,1,8,1:0:0:0:
127,204,111216,1,2,3:2:0:0:
93,170,111394,1,2,3:2:0:0:
100,122,111573,1,8,1:0:0:0:
25,60,111751,6,0,L|36:1,1,60,4|2,1:3|1:3,0:0:0:0:
90,113,112108,1,2,1:0:0:0:
181,111,112286,1,8,1:0:0:0:
231,35,112465,1,4,1:3:0:0:
218,25,112643,1,2,1:3:0:0:
207,31,112822,2,0,L|230:159,1,120,2|4,1:0|1:0,0:0:0:0:
467,376,119976,5,4,1:3:0:0:
404,312,120333,1,0,1:0:0:0:
324,306,120511,1,0,0:0:0:0:
324,306,120601,1,2,0:0:0:0:
324,306,120690,1,0,1:0:0:0:
253,342,120868,1,2,0:0:0:0:
177,315,121047,2,0,P|171:248|181:190,1,120,0|0,1:0|1:0,0:0:0:0:
7,14,121761,5,2,1:0:0:0:
7,14,121851,1,0,1:0:0:0:
7,14,121940,1,2,1:0:0:0:
7,14,122029,1,0,1:0:0:0:
7,14,122118,2,0,B|22:79|45:47|61:122,1,116.999994644165,2|0,1:0|1:0,0:0:0:0:
6,194,122476,6,0,B|69:152|69:152|146:163,1,153.000002918243,4|0,1:0|1:0,0:0:0:0:
145,162,122833,2,0,L|134:256,1,90.0000034332277,0|0,1:0|1:0,0:0:0:0:
196,309,123190,1,8,1:0:0:0:
372,277,123368,1,0,0:0:0:0:
372,277,123458,1,0,0:0:0:0:
372,277,123547,1,0,1:0:0:0:
321,369,123726,6,0,L|342:160,1,204.000003890991,8|8,1:0|1:0,0:0:0:0:
454,15,124261,2,0,P|498:37|513:87,1,102.000001945496,8|0,1:0|0:0,0:0:0:0:
375,170,124618,5,4,1:3:0:0:
332,155,124707,1,0,0:0:0:0:
288,146,124796,1,4,1:3:0:0:
243,140,124885,1,0,0:0:0:0:
198,138,124976,6,0,B|76:127|112:180|-6:194,1,192,4|8,1:0|1:0,0:0:0:0:
17,190,125419,1,2,1:0:0:0:
17,190,125508,1,2,1:0:0:0:
89,74,125686,5,10,1:0:0:0:
117,170,125863,1,10,1:0:0:0:
146,267,126041,1,0,0:0:0:0:
11,347,126218,6,0,B|63:322|63:322|112:362,2,120,8|8|0,1:0|1:0|0:0,0:0:0:0:
99,371,126751,5,0,1:0:0:0:
267,308,126929,1,8,1:0:0:0:
223,384,127108,5,8,1:0:0:0:
139,271,127286,2,0,B|160:166|201:214|224:101,1,192,0|8,1:0|1:0,0:0:0:0:
224,102,127733,1,0,0:0:0:0:
224,102,127822,1,0,0:0:0:0:
68,37,128001,1,2,1:0:0:0:
148,1,128179,5,8,1:0:0:0:
95,146,128358,1,2,1:0:0:0:
95,146,128447,1,2,1:0:0:0:
95,146,128536,2,0,B|0:138,1,96,10|0,1:0|0:0,0:0:0:0:
210,306,128893,1,8,1:0:0:0:
302,254,129072,5,8,1:0:0:0:
302,254,129161,1,0,1:0:0:0:
302,254,129251,2,0,B|417:264|356:294|501:308,1,192,2|6,1:0|1:0,0:0:0:0:
512,235,129786,1,0,1:0:0:0:
413,384,129965,5,10,1:0:0:0:
391,281,130143,1,2,1:0:0:0:
391,281,130233,1,2,1:0:0:0:
391,281,130322,1,2,1:0:0:0:
367,173,130501,1,8,1:0:0:0:
439,74,130679,5,2,1:0:0:0:
465,67,130768,1,2,1:0:0:0:
487,72,130857,1,2,1:0:0:0:
500,85,130946,1,2,1:0:0:0:
509,106,131036,1,2,1:0:0:0:
477,124,131125,1,2,1:0:0:0:
428,115,131214,1,2,1:0:0:0:
390,96,131303,1,2,1:0:0:0:
363,50,131393,1,2,1:0:0:0:
312,24,131482,1,2,1:0:0:0:
260,0,131571,1,2,1:0:0:0:
209,10,131660,1,2,1:0:0:0:
209,10,131750,6,0,P|203:61|215:94,2,85.0000016212464,4|8|8,1:0|1:0|1:3,0:0:0:0:
75,138,132166,6,0,P|116:168|151:174,1,85.0000016212464,4|4,1:3|1:3,0:0:0:0:
256,192,132464,5,8,1:0:0:0:
256,192,132732,1,8,1:0:0:0:
256,192,133000,1,8,1:0:0:0:
256,192,133268,1,8,1:0:0:0:
475,271,133537,6,0,P|449:294|443:329,1,71.9999978027344,4|0,1:0|0:0,0:0:0:0:
498,379,133804,2,0,P|449:355|364:348,1,107.999996704102,2|2,1:3|1:3,0:0:0:0:
327,292,134251,5,8,1:0:0:0:
327,292,134340,1,0,0:0:0:0:
327,292,134429,1,0,0:0:0:0:
249,307,134608,1,2,1:3:0:0:
205,373,134787,1,0,0:0:0:0:
302,378,134965,5,0,0:0:0:0:
241,298,135144,1,2,1:3:0:0:
241,298,135233,1,0,0:0:0:0:
289,208,135412,1,0,0:0:0:0:
289,208,135501,1,0,0:0:0:0:
228,147,135679,6,0,P|221:98|229:40,1,107.999996704102,2|2,1:3|1:3,0:0:0:0:
229,40,136038,1,0,0:0:0:0:
316,20,136217,1,2,1:3:0:0:
402,107,136397,2,0,P|457:113|512:105,1,107.999996704102,8|0,1:0|0:0,0:0:0:0:
508,105,136756,1,2,1:3:0:0:
454,40,136936,1,8,1:0:0:0:
454,40,137026,1,0,0:0:0:0:
454,40,137116,1,4,1:2:0:0:
324,94,137295,1,0,0:0:0:0:
246,47,137475,6,0,L|167:36,1,71.9999978027344,4|0,1:0|0:0,0:0:0:0:
109,0,137742,2,0,L|-6:17,1,107.999996704102,2|2,1:3|1:3,0:0:0:0:
109,83,138189,6,0,B|121:140|142:112|156:178,1,107.999996704102,8|0,1:0|0:0,0:0:0:0:
156,178,138546,1,2,1:3:0:0:
17,372,138814,1,0,1:0:0:0:
17,372,138903,2,0,P|0:335|9:298,1,71.9999978027344,2|0,1:3|1:0,0:0:0:0:
60,248,139260,1,8,1:0:0:0:
60,248,139350,1,0,0:0:0:0:
60,248,139439,1,0,0:0:0:0:
208,279,139617,6,0,P|261:286|315:277,1,107.999996704102,2|0,1:3|1:0,0:0:0:0:
314,277,139974,1,2,0:3:0:0:
375,208,140152,1,0,1:0:0:0:
474,229,140331,1,8,1:0:0:0:
474,229,140420,1,0,0:0:0:0:
474,229,140509,1,0,0:0:0:0:
506,316,140688,2,0,P|503:354|480:395,1,71.9999978027344,2|0,1:3|1:0,0:0:0:0:
314,277,141045,5,8,1:0:0:0:
285,238,141134,1,0,1:0:0:0:
248,208,141223,1,0,1:0:0:0:
204,190,141312,1,0,1:0:0:0:
158,182,141402,6,0,P|118:169|99:139,1,71.9999978027344,4|2,1:3|0:0,0:0:0:0:
0,379,142293,5,4,1:0:0:0:
71,345,142469,2,0,B|83:285|83:285|60:213,1,120,8|0,1:0|0:0,0:0:0:0:
0,136,142999,1,4,1:0:0:0:
0,136,143175,2,0,P|30:149|62:152,1,66.0000020141602,8|0,1:0|0:0,0:0:0:0:
139,200,143528,2,0,P|169:186|201:183,1,66.0000020141602,0|0,0:0|1:0,0:0:0:0:
298,123,143884,6,0,P|305:59|295:1,1,120,4|0,1:0|1:0,0:0:0:0:
218,191,144598,2,0,P|206:281|216:376,1,180,8|0,1:0|1:0,0:0:0:0:
290,376,145312,1,8,1:0:0:0:
395,292,145669,5,8,1:0:0:0:
512,308,145848,1,0,0:0:0:0:
462,383,146026,5,2,0:0:0:0:
462,383,146116,1,2,0:0:0:0:
462,383,146205,1,2,0:0:0:0:
462,383,146294,1,2,0:0:0:0:
462,383,146384,2,0,L|445:219,1,143.999995605469,4|0,1:2|1:0,0:0:0:0:
496,181,146919,5,0,1:0:0:0:
418,237,147098,1,0,1:0:0:0:
332,169,147276,1,8,1:0:0:0:
396,88,147455,1,0,1:0:0:0:
346,16,147634,1,0,1:0:0:0:
271,41,147812,5,2,0:1:0:0:
271,41,147991,1,2,0:1:0:0:
135,102,148187,6,0,P|97:100|60:79,1,66.0000020141602,4|0,1:0|1:0,0:0:0:0:
39,24,148544,1,0,0:0:0:0:
148,102,148722,2,0,P|161:169|151:255,1,132.00000402832,8|0,1:0|1:0,0:0:0:0:
21,384,149258,1,0,1:0:0:0:
67,262,149437,1,8,1:0:0:0:
172,345,149615,1,0,0:0:0:0:
89,340,149794,1,0,1:0:0:0:
214,227,149972,5,2,1:0:0:0:
295,255,150151,1,2,1:0:0:0:
363,190,150329,5,8,1:0:0:0:
380,49,150597,5,4,1:3:0:0:
506,22,150865,5,8,1:0:0:0:
235,359,155686,5,4,1:0:0:0:
309,384,155865,2,0,P|314:324|306:264,1,120,0|0,1:0|0:0,0:0:0:0:
206,177,156401,2,0,P|198:117|203:57,1,120,8|4,1:0|1:0,0:0:0:0:
256,4,156936,1,0,1:0:0:0:
256,4,157472,5,0,1:0:0:0:
334,140,157829,5,4,1:0:0:0:
243,261,158186,5,0,1:0:0:0:
243,261,158365,1,4,1:0:0:0:
96,225,158722,5,8,1:0:0:0:
3,324,159079,5,4,1:0:0:0:
76,378,159258,1,2,0:3:0:0:
76,378,159345,1,2,0:0:0:0:
76,378,159432,1,2,0:0:0:0:
176,338,159606,2,0,L|163:259,1,71.9999978027344,8|0,1:0|0:0,0:0:0:0:
164,266,159868,1,2,0:0:0:0:
164,266,159955,1,2,1:3:0:0:
177,155,160139,1,8,1:3:0:0:
192,44,160323,6,0,B|292:36|267:83|351:95,1,167.999994873047,4|0,1:0|1:0,0:0:0:0:
347,94,160858,1,8,1:0:0:0:
512,37,161037,1,8,1:0:0:0:
428,1,161215,1,0,0:0:0:0:
438,93,161394,2,0,P|449:139|451:187,1,77.9999964294435,0|8,1:0|1:0,0:0:0:0:
374,363,161751,6,0,P|358:301|358:223,1,116.999994644165,2|0,0:3|0:0,0:0:0:0:
355,248,162108,2,0,L|520:268,2,155.999992858887,8|8|2,1:0|1:0|1:3,0:0:0:0:
302,194,163001,5,0,1:0:0:0:
302,194,163090,1,0,0:0:0:0:
302,194,163180,1,2,1:0:0:0:
178,234,163358,1,2,1:0:0:0:
78,165,163537,2,0,P|86:121|86:84,1,60,8|2,1:0|0:3,0:0:0:0:
22,51,163894,5,2,1:3:0:0:
114,22,164073,1,8,1:0:0:0:
246,84,164251,1,2,1:3:0:0:
331,66,164430,1,2,0:3:0:0:
218,0,164608,5,8,1:0:0:0:
236,89,164787,1,0,1:0:0:0:
221,203,164965,6,0,L|237:282,1,77.9999964294435,4|0,1:0|0:0,0:0:0:0:
311,306,165323,1,8,1:0:0:0:
147,338,165501,2,0,B|55:331|77:375|1:385,1,155.999992858887
2,384,166037,1,8,1:0:0:0:
59,323,166215,1,0,1:0:0:0:
256,260,166573,5,0,1:0:0:0:
332,230,166751,2,0,P|347:190|340:142,1,71.9999978027344,8|0,1:0|0:0,0:0:0:0:
403,111,167108,2,0,P|385:72|346:43,1,71.9999978027344,0|0,1:0|0:0,0:0:0:0:
246,0,167465,6,0,L|267:159,1,143.999995605469,4|4,1:0|1:3,0:0:0:0:
203,189,168000,1,6,1:3:0:0:
299,260,168179,1,0,0:0:0:0:
226,335,168358,1,0,1:0:0:0:
287,384,168536,5,8,1:0:0:0:
224,240,168804,5,0,0:0:0:0:
224,240,168893,1,4,1:3:0:0:
285,149,169072,5,6,1:3:0:0:
228,75,169250,5,8,1:0:0:0:
228,75,169608,6,0,P|244:44|241:4,1,71.9999978027344,4|2,1:0|0:0,0:0:0:0:
245,160,169965,2,0,P|278:149|304:119,1,71.9999978027344,8|2,1:0|0:3,0:0:0:0:
54,223,170322,6,0,P|35:193|0:176,1,71.9999978027344,2|2,1:3|1:3,0:0:0:0:
132,254,170679,2,0,P|139:219|126:182,1,71.9999978027344,8|2,1:0|0:0,0:0:0:0:
6,384,171036,6,0,P|58:358|148:342,1,143.999995605469,0|8,1:0|1:0,0:0:0:0:
309,317,171572,1,8,1:0:0:0:
254,384,171750,5,2,0:3:0:0:
223,291,171929,1,2,0:0:0:0:
273,179,172108,6,0,P|286:107|272:37,1,143.999995605469,4|0,1:0|1:0,0:0:0:0:
200,7,172643,1,0,1:0:0:0:
324,95,172822,1,8,1:0:0:0:
452,15,173000,1,0,0:0:0:0:
370,5,173179,5,4,1:3:0:0:
411,81,173358,1,0,0:0:0:0:
388,176,173536,1,0,0:0:0:0:
469,266,173715,2,0,L|484:341,1,71.9999978027344,4|4,1:3|0:0,0:0:0:0:
483,336,175678,5,2,0:0:0:0:
332,251,176035,5,2,0:0:0:0:
191,213,176392,5,2,0:0:0:0:
67,208,176927,5,4,1:0:0:0:
2,258,177106,2,0,P|25:291|57:301,1,71.9999978027344,8|0,1:0|0:0,0:0:0:0:
243,310,177463,1,0,0:0:0:0:
203,378,177642,1,0,1:0:0:0:
124,382,177820,6,0,P|194:358|341:340,1,215.999993408203,4|0,1:3|1:0,0:0:0:0:
396,294,178534,1,8,1:0:0:0:
396,294,178892,5,4,1:0:0:0:
340,235,179070,1,2,0:0:0:0:
340,235,179159,1,0,0:0:0:0:
340,235,179249,1,2,0:0:0:0:
360,157,179427,1,8,1:0:0:0:
413,127,179606,1,0,0:0:0:0:
471,105,179784,1,0,0:0:0:0:
482,39,179963,1,0,1:0:0:0:
411,0,180142,1,0,1:0:0:0:
331,33,180320,6,0,P|336:71|357:109,1,66.0000020141602,8|0,1:0|0:0,0:0:0:0:
451,220,180677,2,0,P|445:151|418:90,2,132.00000402832,0|8|0,1:0|1:0|0:0,0:0:0:0:
434,302,181570,1,8,1:0:0:0:
512,276,181749,1,0,1:0:0:0:
339,370,182017,5,0,1:0:0:0:
339,370,182106,1,0,0:0:0:0:
255,362,182284,1,0,0:0:0:0:
208,297,182463,1,8,1:0:0:0:
208,297,182820,5,0,0:0:0:0:
190,212,182999,1,0,0:0:0:0:
118,175,183177,1,0,1:0:0:0:
41,195,183355,1,0,0:0:0:0:
19,243,183534,1,0,1:0:0:0:
41,289,183712,1,0,0:0:0:0:
69,298,183891,2,0,P|92:273|96:241,1,60,8|0,1:0|0:0,0:0:0:0:
88,118,184248,5,4,1:0:0:0:
1,86,184426,1,0,1:0:0:0:
1,86,184515,1,0,0:0:0:0:
1,86,184605,1,0,0:0:0:0:
71,27,184783,1,8,1:0:0:0:
156,56,184962,2,0,B|254:61|205:83|315:95,1,165.000005035401
314,94,185498,1,8,1:0:0:0:
479,78,185676,6,0,P|494:40|508:7,1,66.0000020141602
425,148,186033,2,0,P|408:110|395:77,1,66.0000020141602,0|0,1:0|1:0,0:0:0:0:
436,235,186390,1,8,1:0:0:0:
436,235,186569,2,0,P|397:220|364:206,1,66.0000020141602
128,276,186926,5,0,1:0:0:0:
205,254,187105,2,0,P|215:303|206:408,2,132.00000402832,4|0|8,1:0|1:0|1:0,0:0:0:0:
383,122,188355,5,0,1:0:0:0:
307,140,188534,2,0,P|297:91|306:-14,1,132.00000402832,12|0,1:0|1:0,0:0:0:0:
300,9,189069,1,0,0:0:0:0:
191,62,189248,2,0,P|154:64|106:43,1,66.0000020141602,8|0,1:0|0:0,0:0:0:0:
55,84,189605,2,0,P|34:52|28:0,1,83.9999974365235,2|0,0:0|1:0,0:0:0:0:
181,189,190230,5,2,0:0:0:0:
181,189,190319,2,0,P|171:219|149:242,1,60,2|2,0:3|0:0,0:0:0:0:
80,219,190676,1,8,1:0:0:0:
0,300,190855,2,0,P|57:307|123:318,1,120,2|8,0:3|1:0,0:0:0:0:
118,317,191390,1,2,0:3:0:0:
252,376,191748,1,2,0:0:0:0:
252,376,191926,2,0,P|311:366|370:358,1,120,2|2,1:3|1:3,0:0:0:0:
470,241,192640,5,2,1:2:0:0:
493,192,192819,1,2,0:3:0:0:
463,147,192997,1,2,0:0:0:0:
405,135,193176,1,8,1:0:0:0:
353,81,193354,2,0,P|344:45|404:0,1,120,2|0,0:3|1:0,0:0:0:0:
471,32,193890,5,2,0:3:0:0:
471,89,194069,1,2,0:0:0:0:
425,126,194247,1,0,1:0:0:0:
372,115,194426,1,8,1:0:0:0:
324,63,194604,2,0,P|294:49|247:52,1,60,2|0,1:3|1:0,0:0:0:0:
204,4,194961,2,0,P|172:15|141:50,1,60,2|2,0:3|0:3,0:0:0:0:
0,144,195318,5,8,1:0:0:0:
72,172,195496,2,0,P|79:112|69:53,1,120,2|0,0:3|1:0,0:0:0:0:
1,12,196032,1,2,0:3:0:0:
13,68,196210,1,0,1:0:0:0:
61,87,196389,1,2,1:3:0:0:
102,67,196567,1,2,0:3:0:0:
341,186,196924,5,2,0:3:0:0:
410,243,197103,1,0,1:0:0:0:
410,243,197192,1,2,0:3:0:0:
410,243,197282,1,0,1:0:0:0:
388,320,197460,1,8,1:0:0:0:
314,350,197639,1,8,1:0:0:0:
220,282,197817,6,0,L|230:170,2,107.999996704102,2|2|2,1:0|1:0|1:0,0:0:0:0:
97,367,198532,5,4,1:2:0:0:
110,368,198710,2,0,P|107:333|99:303,1,66.0000020141602,0|8,1:0|1:0,0:0:0:0:
7,230,199067,1,8,1:0:0:0:
78,194,199246,2,0,P|96:130|99:64,1,132.00000402832,4|0,1:2|1:0,0:0:0:0:
5,19,199782,5,4,1:2:0:0:
5,19,199960,2,0,P|37:44|68:55,1,66.0000020141602,8|4,1:0|0:0,0:0:0:0:
112,112,200317,2,0,P|152:107|182:92,1,66.0000020141602,8|0,1:0|1:0,0:0:0:0:
271,1,200674,2,0,P|255:38|253:71,1,66.0000020141602,4|8,1:2|1:0,0:0:0:0:
251,147,201032,5,4,1:2:0:0:
313,171,201210,1,0,1:0:0:0:
374,165,201389,1,8,1:0:0:0:
421,138,201567,1,4,0:0:0:0:
457,88,201746,1,8,1:0:0:0:
457,88,202103,6,0,P|483:67|513:58,1,60,4|0,0:0|1:0,0:0:0:0:
363,153,202460,2,0,P|361:118|372:90,1,60,4|4,0:0|1:2,0:0:0:0:
360,267,202817,2,0,P|331:247|314:222,1,60,8|4,1:0|0:0,0:0:0:0:
512,222,203174,5,4,1:0:0:0:
436,252,203352,1,4,1:2:0:0:
413,336,203531,1,8,1:0:0:0:
334,376,203709,2,0,P|274:385|213:376,1,120,4|8,1:3|1:0,0:0:0:0:
167,314,204245,5,4,1:2:0:0:
183,233,204424,1,4,1:2:0:0:
108,168,204602,1,0,0:0:0:0:
10,205,204781,1,4,1:2:0:0:
63,266,204959,6,0,P|71:323|63:385,2,120,8|8|0,1:0|1:0|1:0,0:0:0:0:
102,165,205852,1,4,1:2:0:0:
74,86,206031,1,0,0:0:0:0:
124,42,206209,1,4,0:0:0:0:
104,13,206388,1,8,1:0:0:0:
104,13,206745,6,0,P|100:57|104:102,2,90,4|2|8,1:2|1:3|1:0,0:0:0:0:
15,81,207459,5,2,0:0:0:0:
3,78,207638,1,2,3:2:0:0:
235,166,207997,5,0,0:0:0:0:
247,163,208176,1,2,0:0:0:0:
139,95,208536,5,0,3:2:0:0:
127,92,208716,1,2,0:0:0:0:
109,121,208896,1,2,3:2:0:0:
105,166,209074,1,2,3:2:0:0:
128,212,209253,1,0,0:0:0:0:
181,242,209431,1,2,0:0:0:0:
252,237,209610,1,2,0:0:0:0:
313,280,209788,1,0,3:2:0:0:
334,351,209967,5,4,3:2:0:0:
326,371,210146,1,0,3:2:0:0:
312,379,210324,1,2,0:0:0:0:
302,374,210503,1,2,0:0:0:0:
304,366,210681,1,2,3:2:0:0:
314,361,211038,5,0,3:2:0:0:
332,353,211216,1,2,3:2:0:0:
374,293,211395,1,2,0:0:0:0:
355,233,211573,1,2,0:0:0:0:
310,201,211752,1,0,0:0:0:0:
287,159,211931,1,2,3:2:0:0:
285,102,212109,5,4,3:2:0:0:
313,44,212287,1,2,3:2:0:0:
382,18,212466,1,0,0:0:0:0:
456,34,212644,6,0,P|483:46|482:84,1,60,2|0,0:0|3:0,0:0:0:0:
486,163,213001,6,0,P|491:197|463:207,1,60,2|2,0:0|3:2,0:0:0:0:
412,276,213359,6,0,P|384:296|356:283,1,60,0|2,3:0|0:0,0:0:0:0:
274,271,213716,5,0,0:0:0:0:
274,271,213894,1,2,0:0:0:0:
225,165,214251,5,2,3:2:0:0:
284,103,214786,5,2,0:0:0:0:
292,46,214965,1,0,3:0:0:0:
248,9,215143,1,2,0:0:0:0:
191,14,215322,1,2,3:2:0:0:
59,141,215679,5,2,0:0:0:0:
2,131,215858,1,0,0:0:0:0:
176,282,216215,5,2,3:2:0:0:
255,271,216394,1,2,3:2:0:0:
334,260,216572,1,4,3:2:0:0:
