osu file format v14

[General]
AudioFilename: audio.mp3
AudioLeadIn: 0
PreviewTime: 688
Countdown: 0
SampleSet: Soft
StackLeniency: 0.7
Mode: 0
LetterboxInBreaks: 0
WidescreenStoryboard: 1

[Editor]
DistanceSpacing: 0.9
BeatDivisor: 4
GridSize: 8
TimelineZoom: 1.9

[Metadata]
Title:Munou
TitleUnicode:無能
Artist:oesterreich
ArtistUnicode:österreich
Creator:aishiteiru-
Version:extra
Source:東京喰種√A
Tags:tokyo ghoul トーキョーグール root a season 2 math rock osterreich rock opening op anime japanese mirash posydomojka fllecc xytoper
BeatmapID:4036097
BeatmapSetID:1949537

[Difficulty]
HPDrainRate:7
CircleSize:4
OverallDifficulty:8
ApproachRate:8
SliderMultiplier:1.4
SliderTickRate:1

[Events]
//Background and Video events
0,0,"d.jpg",0,0
//Break Periods
2,151244,154936
//Storyboard Layer 0 (Background)
//Storyboard Layer 1 (Fail)
//Storyboard Layer 2 (Pass)
//Storyboard Layer 3 (Foreground)
//Storyboard Layer 4 (Overlay)
//Storyboard Sound Samples

[TimingPoints]
688,357.142857142857,7,2,1,40,1,0
688,-200,7,2,1,40,0,0
1402,-133.333333333333,7,2,1,40,0,0
3187,357.142857142857,6,2,1,40,1,0
3901,-200,7,2,1,40,0,0
5329,357.142857142857,7,2,1,50,1,0
7114,-80,7,2,1,50,0,0
7828,357.142857142857,5,2,1,50,1,0
8542,-76.9230769230769,5,2,1,50,0,0
8899,-100,5,2,69,60,0,0
9613,357.142857142857,4,2,1,50,1,0
12470,357.142857142857,5,2,1,50,1,0
14255,357.142857142857,6,2,1,50,1,0
16755,348.837209302326,6,2,1,50,1,0
17278,342.857142857143,6,2,1,50,1,0
17278,-83.3333333333333,6,2,1,50,0,0
17620,375,6,2,1,50,1,0
17807,-100,6,2,1,60,0,0
18088,342.857142857143,6,2,1,60,1,0
18345,357.142857142857,6,2,1,60,1,0
18523,363.636363636364,4,2,1,40,1,0
19613,357.142857142857,4,2,1,40,1,0
21041,357.142857142857,6,2,1,40,1,0
23183,357.142857142857,7,2,1,40,1,0
25505,-100,7,2,69,40,0,0
25687,352.941176470588,4,2,1,40,1,0
27098,357.142857142857,4,2,1,40,1,0
27812,-100,4,2,70,55,0,0
28526,-133.333333333333,4,2,1,40,0,0
31026,-181.818181818182,4,2,1,40,0,0
32098,-133.333333333333,4,2,1,40,0,0
37098,-133.333333333333,4,2,1,50,0,0
42812,357.142857142857,5,2,1,40,1,0
43526,-83.3333333333333,5,2,1,50,0,0
44954,-83.3333333333333,5,2,1,30,0,0
45133,-133.333333333333,5,2,1,30,0,0
46383,357.142857142857,7,2,1,60,1,0
48883,357.142857142857,6,2,1,60,1,0
51025,357.142857142857,5,2,1,60,1,0
52810,357.142857142857,4,2,1,60,1,0
55667,357.142857142857,6,2,1,60,1,0
59952,357.142857142857,3,2,1,60,1,0
59952,-66.6666666666667,3,2,1,60,0,0
61023,361.44578313253,5,2,1,60,1,0
62830,357.142857142857,6,2,1,60,1,0
63990,-100,6,2,1,40,0,0
64972,357.142857142857,4,2,1,40,1,0
70329,357.142857142857,4,2,1,40,1,0
74614,357.142857142857,5,2,1,40,1,0
75685,-100,5,2,1,20,0,0
76043,-100,5,2,1,5,0,0
76222,-100,5,2,1,30,0,0
76400,357.142857142857,4,2,1,30,1,0
80685,-100,4,2,1,50,0,0
82114,-66.6666666666667,4,2,1,50,0,0
84972,357.142857142857,7,2,1,40,1,0
87472,357.142857142857,6,2,1,40,1,0
89614,357.142857142857,7,2,1,40,1,0
92114,352.941176470588,4,2,1,40,1,0
93172,344.827586206897,4,2,69,50,1,0
93689,428.571428571429,4,2,1,50,1,0
93903,357.142857142857,4,2,1,30,1,0
94260,357.142857142857,6,2,1,30,1,0
96224,413.793103448276,4,2,1,40,1,0
96430,348.837209302326,4,2,1,40,1,0
97825,357.142857142857,4,2,1,40,1,0
98896,357.142857142857,7,2,1,40,1,0
101396,357.142857142857,6,2,1,40,1,0
107824,357.142857142857,5,2,1,40,1,0
109609,357.142857142857,6,2,1,60,1,0
111751,357.142857142857,4,2,1,60,1,0
113173,-100,4,2,1,40,0,0
116036,358.208955223881,5,2,1,40,1,0
116394,-500,5,2,1,40,0,0
117827,358.208955223881,6,2,1,40,1,0
119976,357.142857142857,7,2,1,40,1,0
121742,-100,7,2,1,30,0,0
122457,-100,7,2,69,60,0,0
122476,-40,7,2,69,60,0,0
124976,355.029585798817,5,2,69,60,1,0
124976,-40,7,2,69,60,0,0
126751,357.142857142857,6,2,69,60,1,0
126751,-50,7,2,69,60,0,0
131036,357.142857142857,7,2,1,65,1,0
131385,-100,7,2,69,70,0,0
131742,-100,7,2,69,75,0,0
132457,-100,7,2,69,60,0,0
133537,357.142857142857,6,2,1,50,1,0
135679,359.281437125748,5,2,1,50,1,0
137475,357.142857142857,6,2,1,50,1,0
139617,357.142857142857,7,2,1,50,1,0
142117,352.941176470588,5,2,1,50,1,0
143884,357.142857142857,6,2,1,50,1,0
147812,-100,6,2,69,50,0,0
148187,357.142857142857,4,2,1,50,1,0
149972,-100,4,3,69,50,0,0
150329,-100,4,3,1,50,0,0
151044,357.142857142857,7,2,1,40,1,0
153544,357.142857142857,6,2,1,40,1,0
159258,348.837209302326,6,2,1,40,1,0
159955,368.098159509202,4,2,1,40,1,0
160323,357.142857142857,7,2,1,60,1,0
162823,357.142857142857,6,2,1,60,1,0
167108,357.142857142857,7,2,1,60,1,0
172108,357.142857142857,5,2,1,60,1,0
173893,357.142857142857,3,2,1,40,1,0
174964,357.142857142857,5,2,1,50,1,0
175678,-100,4,2,1,40,0,0
176749,357.142857142857,3,2,1,40,1,0
176927,-100,7,2,1,60,0,0
178892,357.142857142857,4,2,1,50,1,0
183177,357.142857142857,3,2,1,50,1,0
184248,357.142857142857,4,2,1,50,1,0
190131,-100,4,2,1,40,0,0
192819,357.142857142857,5,2,1,40,1,0
194604,357.142857142857,4,2,1,40,1,0
196032,357.142857142857,7,2,1,40,1,0
197817,-100,7,2,69,40,0,0
198532,-100,7,2,1,50,0,0
201032,357.142857142857,6,2,1,50,1,0
203174,357.142857142857,7,2,1,50,1,0
205674,357.142857142857,5,2,1,50,1,0
207459,359.281437125748,4,2,1,40,1,0
208896,357.142857142857,5,2,1,40,1,0
209967,-100,5,2,1,30,0,0
210146,-100,5,2,1,30,0,0
210681,357.142857142857,4,2,1,30,1,0
212109,357.142857142857,6,2,1,30,1,0
212287,-100,6,2,1,30,0,0
214251,357.142857142857,7,2,1,30,1,0
216572,-100,7,2,1,20,0,0

[Colours]
Combo1 : 222,165,231
Combo2 : 199,192,169
Combo3 : 126,90,116
Combo4 : 218,86,170

[HitObjects]
257,368,688,5,2,0:0:0:0:
295,286,866,2,0,P|251:293|214:299,1,70,0|2,0:0|0:0,0:0:0:0:
264,211,1402,2,0,P|261:181|254:99,1,105.000004005432
306,43,1937,5,2,0:0:0:0:
338,113,2116,1,0,0:0:0:0:
179,117,2295,1,2,0:0:0:0:
205,40,2473,1,2,0:0:0:0:
263,175,2652,1,0,0:0:0:0:
218,313,2830,1,2,0:0:0:0:
281,353,3009,1,0,0:0:0:0:
202,329,3187,5,2,0:0:0:0:
277,332,3365,1,0,0:0:0:0:
344,297,3544,1,2,0:0:0:0:
420,295,3722,1,2,0:0:0:0:
490,265,3901,6,0,P|487:232|493:192,1,70,2|2,0:0|0:0,0:0:0:0:
324,264,4437,1,2,0:0:0:0:
400,278,4615,1,2,0:0:0:0:
342,274,4794,1,0,0:0:0:0:
251,245,4972,1,2,0:0:0:0:
176,254,5151,1,2,0:0:0:0:
34,219,5329,5,4,1:0:0:0:
0,281,5507,2,0,B|60:247|60:247|141:281,1,140,0|0,1:0|0:0,0:0:0:0:
400,334,6043,2,0,P|339:352|260:344,1,140,8|0,1:0|0:0,0:0:0:0:
224,253,6579,1,0,1:0:0:0:
224,253,6668,1,0,0:0:0:0:
224,253,6757,1,2,0:0:0:0:
283,203,6936,1,0,1:0:0:0:
215,174,7114,6,0,P|207:80|201:-11,2,175,0|8|0,1:0|1:0|1:0,0:0:0:0:
246,353,8006,1,0,1:0:0:0:
187,300,8185,2,0,P|139:290|103:282,1,70,2|0,0:0|0:0,0:0:0:0:
286,260,8542,2,0,B|366:240|351:316|430:324,1,136.499993751526,8|0,1:0|0:0,0:0:0:0:
415,329,8899,6,0,P|415:291|408:238,1,70,2|0,1:0|0:0,0:0:0:0:
427,184,9167,2,0,P|427:146|420:93,1,70,2|0,1:0|0:0,0:0:0:0:
399,43,9435,1,10,1:0:0:0:
248,152,9613,5,0,1:0:0:0:
321,179,9791,1,0,1:0:0:0:
305,102,9970,2,0,P|299:61|295:18,1,70,0|2,0:0|0:0,0:0:0:0:
307,16,10238,1,0,0:0:0:0:
279,7,10327,1,8,1:0:0:0:
202,82,10505,1,0,0:0:0:0:
330,192,10684,5,0,0:0:0:0:
228,289,10863,1,8,1:0:0:0:
186,221,11041,1,0,0:0:0:0:
314,275,11220,1,0,1:0:0:0:
229,369,11398,1,0,0:0:0:0:
114,262,11577,1,0,0:0:0:0:
252,177,11755,1,8,1:0:0:0:
232,254,11934,1,0,0:0:0:0:
232,254,12023,1,2,0:0:0:0:
232,254,12113,1,0,1:0:0:0:
122,184,12291,1,0,1:0:0:0:
46,210,12470,6,0,P|36:178|31:139,1,70,0|2,0:0|0:0,0:0:0:0:
188,189,12827,1,8,1:0:0:0:
112,168,13005,1,2,0:0:0:0:
163,155,13184,1,0,0:0:0:0:
239,177,13362,1,0,1:0:0:0:
291,167,13541,2,0,P|325:162|360:161,1,70,2|2,0:0|0:0,0:0:0:0:
395,279,13898,5,0,1:0:0:0:
448,118,14077,1,8,1:0:0:0:
465,131,14255,5,2,1:2:0:0:
448,45,14433,1,0,1:0:0:0:
341,16,14612,5,0,0:0:0:0:
302,112,14790,1,2,0:0:0:0:
402,240,14969,6,0,P|332:236|265:214,1,140,8|0,1:0|0:0,0:0:0:0:
367,345,15505,2,0,P|332:347|298:356,1,70,0|2,1:0|0:0,0:0:0:0:
232,324,15862,1,0,1:0:0:0:
68,267,16040,2,0,P|103:261|139:263,1,70,0|0,1:0|0:0,0:0:0:0:
278,143,16397,2,0,P|293:189|291:290,1,140,8|2,1:0|1:3,0:0:0:0:
186,169,16929,5,0,1:0:0:0:
186,169,17016,1,2,1:3:0:0:
186,169,17103,1,0,1:0:0:0:
406,61,17278,2,0,B|330:27|330:27|243:54,1,167.999994873047,2|0,1:3|1:0,0:0:0:0:
125,14,17807,5,8,1:0:0:0:
319,164,18088,5,8,1:0:0:0:
181,211,18345,1,8,1:0:0:0:
185,187,18523,5,0,1:0:0:0:
257,213,18704,1,0,1:0:0:0:
283,324,18886,1,2,1:3:0:0:
210,316,19068,1,0,0:0:0:0:
356,302,19250,2,0,P|363:257|368:213,1,70,8|0,1:0|1:0,0:0:0:0:
512,364,19613,5,0,1:0:0:0:
473,350,19791,1,0,1:0:0:0:
403,367,19970,1,2,0:0:0:0:
284,317,20148,1,8,1:1:0:0:
213,346,20327,2,0,P|211:294|204:258,1,70,2|2,0:0|0:0,0:0:0:0:
57,239,20684,1,0,1:0:0:0:
57,239,20773,1,0,0:0:0:0:
57,239,20863,1,4,0:0:0:0:
126,260,21041,5,4,1:0:0:0:
93,164,21219,1,0,0:0:0:0:
52,51,21398,1,2,3:3:0:0:
122,74,21576,1,0,1:0:0:0:
15,134,21755,1,8,1:0:0:0:
20,140,22112,5,2,0:0:0:0:
92,158,22291,1,4,0:0:0:0:
140,142,22469,1,0,0:0:0:0:
194,197,22648,1,0,1:0:0:0:
319,169,22826,2,0,P|356:162|437:153,1,105,8|0,1:0|0:0,0:0:0:0:
435,163,23183,6,0,P|478:168|516:166,1,70,4|2,1:0|0:0,0:0:0:0:
414,74,23540,1,8,1:0:0:0:
436,244,23718,1,2,0:0:0:0:
436,244,23808,1,2,0:0:0:0:
436,244,23897,1,2,1:3:0:0:
456,374,24075,1,8,1:0:0:0:
465,365,24433,5,0,1:0:0:0:
377,343,24611,1,2,0:0:0:0:
390,247,24790,1,2,0:0:0:0:
501,292,24968,1,8,1:0:0:0:
430,320,25147,1,2,0:0:0:0:
409,171,25325,2,0,P|410:122|402:83,1,70,8|2,1:0|1:0,0:0:0:0:
385,81,25593,1,2,1:0:0:0:
406,54,25683,5,4,1:2:0:0:
250,18,25863,1,0,1:0:0:0:
247,46,25951,1,8,1:0:0:0:
243,77,26039,1,8,1:0:0:0:
277,147,26216,1,4,1:3:0:0:
136,354,26569,5,8,1:0:0:0:
66,264,26745,1,0,1:0:0:0:
160,272,26922,1,0,0:0:0:0:
160,272,27010,1,0,1:0:0:0:
160,272,27098,1,8,1:0:0:0:
160,272,27187,1,0,0:0:0:0:
160,272,27276,1,4,1:3:0:0:
34,365,27455,2,0,P|21:333|-8:298,1,70,4|2,1:3|0:0,0:0:0:0:
10,116,27812,5,2,1:0:0:0:
29,68,27901,5,2,1:0:0:0:
41,70,27990,5,2,1:0:0:0:
82,37,28080,5,2,1:0:0:0:
131,15,28169,5,2,1:0:0:0:
147,21,28258,5,2,1:0:0:0:
201,26,28348,5,2,1:0:0:0:
248,51,28437,5,0,1:0:0:0:
253,63,28526,5,0,1:0:0:0:
283,207,28883,5,0,0:0:0:0:
233,352,29240,6,0,P|183:358|110:374,1,105.000004005432,8|2,1:0|0:0,0:0:0:0:
347,297,29955,5,0,1:0:0:0:
158,225,30312,5,0,0:0:0:0:
302,105,30669,5,8,1:0:0:0:
253,161,31026,6,0,P|248:128|255:-3,1,154.000004699707,2|0,0:3|1:0,0:0:0:0:
363,95,32098,1,8,1:0:0:0:
161,126,32455,1,2,0:0:0:0:
238,121,32633,1,2,0:0:0:0:
311,152,32812,6,0,P|316:183|317:264,1,105.000004005432,0|0,1:0|0:0,0:0:0:0:
128,341,33526,1,8,1:0:0:0:
204,358,33883,1,4,0:0:0:0:
52,365,34240,6,0,P|45:333|52:246,1,105.000004005432,0|2,1:0|0:0,0:0:0:0:
211,276,34776,1,8,1:0:0:0:
115,215,34955,2,0,P|108:183|115:96,1,105.000004005432,0|2,0:0|0:0,0:0:0:0:
125,93,35401,1,2,0:0:0:0:
114,79,35490,1,2,0:0:0:0:
126,63,35580,1,0,0:0:0:0:
110,40,35669,5,4,0:0:0:0:
110,40,36026,5,8,1:0:0:0:
388,21,36383,5,4,1:3:0:0:
313,30,36562,1,2,0:0:0:0:
392,47,36740,2,0,P|426:47|460:42,1,52.5000020027161,0|8,0:0|1:0,0:0:0:0:
358,147,37098,5,0,1:0:0:0:
328,165,37187,1,2,0:0:0:0:
286,151,37276,1,0,1:0:0:0:
286,151,37365,1,2,0:0:0:0:
240,160,37455,5,6,0:0:0:0:
97,127,37633,1,8,1:0:0:0:
163,101,37812,2,0,P|167:136|169:164,1,52.5000020027161,0|0,0:0|1:0,0:0:0:0:
146,303,38169,1,0,0:0:0:0:
251,265,38347,1,8,1:0:0:0:
341,331,38526,6,0,P|342:306|352:268,1,52.5000020027161,0|0,1:0|1:0,0:0:0:0:
210,348,38883,2,0,P|150:352|84:371,1,105.000004005432,8|0,1:0|1:0,0:0:0:0:
83,345,39330,1,0,0:0:0:0:
75,316,39419,1,0,1:0:0:0:
70,286,39508,1,0,0:0:0:0:
65,257,39597,5,2,0:0:0:0:
153,274,39776,1,8,1:0:0:0:
2,182,39955,6,0,P|31:180|64:177,1,52.5000020027161,2|0,0:0|1:0,0:0:0:0:
164,181,40312,1,0,1:0:0:0:
267,199,40490,1,8,1:0:0:0:
372,183,40669,1,0,1:0:0:0:
448,166,40847,1,0,1:0:0:0:
508,212,41026,2,0,P|511:249|501:310,1,78.7500030040742,8|0,1:0|0:0,0:0:0:0:
483,307,41383,5,0,1:0:0:0:
439,287,41472,1,2,0:0:0:0:
400,320,41562,1,0,1:0:0:0:
371,350,41651,1,2,0:0:0:0:
390,370,41740,5,2,1:3:0:0:
302,213,41919,1,8,1:0:0:0:
423,174,42097,1,2,1:3:0:0:
375,249,42276,1,0,1:0:0:0:
298,83,42455,1,0,1:0:0:0:
464,96,42633,1,8,1:0:0:0:
295,229,42812,6,0,P|260:223|225:217,1,70,8|4,1:0|1:3,0:0:0:0:
238,353,43169,1,2,1:2:0:0:
133,249,43347,1,8,1:0:0:0:
184,90,43526,6,0,P|248:79|334:74,1,125.999996154785,4|0,1:0|0:0,0:0:0:0:
385,41,43883,2,0,P|381:66|379:93,1,41.9999987182618,8|0,1:0|0:0,0:0:0:0:
449,125,44062,6,0,B|514:117|514:56|491:26|450:45,1,125.999996154785,4|0,1:0|0:0,0:0:0:0:
379,46,44419,2,0,P|383:71|385:98,1,41.9999987182618,0|0,1:0|0:0,0:0:0:0:
343,179,44597,6,0,B|366:268|441:208|452:322,1,167.999994873047,4|2,1:0|0:0,0:0:0:0:
436,290,45133,2,0,B|423:208|505:234|495:144,1,157.500006008148,0|6,0:0|0:0,0:0:0:0:
381,19,45847,1,2,0:0:0:0:
399,26,45937,1,0,0:0:0:0:
398,45,46026,1,2,0:0:0:0:
313,163,46204,1,2,0:0:0:0:
187,131,46383,6,0,P|180:196|164:276,1,140,4|0,1:0|1:0,0:0:0:0:
356,321,46918,1,0,0:0:0:0:
443,129,47097,6,0,P|436:194|420:274,1,140,8|0,1:0|1:0,0:0:0:0:
280,207,47633,1,0,1:0:0:0:
182,350,47811,2,0,P|172:313|160:268,1,70,2|0,0:3|1:0,0:0:0:0:
51,237,48168,1,0,0:0:0:0:
13,168,48347,1,0,1:0:0:0:
84,133,48525,1,8,1:0:0:0:
84,133,48883,5,4,1:0:0:0:
246,167,49150,5,0,1:0:0:0:
413,124,49418,5,0,1:0:0:0:
312,101,49597,1,2,0:3:0:0:
456,214,49775,1,8,1:0:0:0:
459,33,49954,1,0,1:0:0:0:
354,185,50222,5,2,1:3:0:0:
350,202,50311,5,0,1:0:0:0:
200,120,50490,1,2,1:3:0:0:
341,78,50668,1,8,1:0:0:0:
239,235,50847,1,0,0:0:0:0:
78,221,51025,5,0,1:0:0:0:
147,185,51203,2,0,P|152:233|152:270,1,70,0|2,1:0|1:3,0:0:0:0:
27,363,51560,2,0,B|85:329|85:329|164:359,1,140,8|0,1:0|1:0,0:0:0:0:
341,277,52096,1,0,1:0:0:0:
236,357,52275,1,8,1:0:0:0:
205,283,52453,1,2,1:3:0:0:
336,356,52632,1,0,1:0:0:0:
443,257,52810,6,0,P|444:216|436:104,1,140,8|0,1:0|1:0,0:0:0:0:
374,76,53345,1,0,0:0:0:0:
474,2,53524,6,0,B|502:26|502:26|497:70,1,70,4|0,1:0|0:0,0:0:0:0:
370,219,53881,2,0,B|368:200|378:202|375:180,1,35,8|0,1:0|0:0,0:0:0:0:
310,126,54060,2,0,P|271:134|172:157,1,140,4|0,1:0|1:0,0:0:0:0:
35,109,54595,1,8,1:0:0:0:
139,46,54774,5,0,1:0:0:0:
144,62,54863,1,0,1:0:0:0:
25,240,55131,5,4,1:3:0:0:
102,360,55310,1,8,1:0:0:0:
109,271,55488,1,0,0:0:0:0:
36,324,55667,6,0,P|107:314|200:310,1,140,4|0,1:0|1:0,0:0:0:0:
245,344,56202,1,0,1:0:0:0:
390,277,56381,1,8,1:0:0:0:
325,241,56559,1,0,0:0:0:0:
325,241,56649,1,0,1:0:0:0:
325,241,56738,1,0,1:0:0:0:
374,356,56917,1,0,1:0:0:0:
478,256,57095,5,2,0:3:0:0:
385,142,57274,1,0,1:0:0:0:
264,193,57452,1,8,1:0:0:0:
343,281,57631,1,0,1:0:0:0:
400,222,57809,5,0,1:0:0:0:
268,115,57988,1,0,1:0:0:0:
127,200,58167,1,0,0:0:0:0:
52,171,58345,1,4,1:0:0:0:
116,129,58524,1,2,1:3:0:0:
129,208,58702,1,2,1:3:0:0:
82,355,58881,1,8,1:0:0:0:
82,355,59238,5,0,1:0:0:0:
251,334,59417,1,2,1:3:0:0:
437,357,59595,1,8,1:0:0:0:
359,367,59774,1,0,1:0:0:0:
342,360,59863,1,0,1:0:0:0:
343,348,59952,6,0,P|342:306|337:116,1,210.000008010865,4|8,1:0|1:0,0:0:0:0:
117,51,60487,2,0,B|166:71|166:71|224:38,2,105.000004005432,4|0|0,1:0|0:0|1:0,0:0:0:0:
351,144,61023,6,0,P|395:134|509:113,1,140,8|0,1:0|2:0,0:0:0:0:
272,196,61565,1,0,1:0:0:0:
262,187,61655,1,0,1:0:0:0:
275,177,61745,5,8,1:0:0:0:
259,105,61926,1,4,1:3:0:0:
219,252,62107,5,8,1:0:0:0:
291,266,62227,5,4,1:3:0:0:
303,307,62348,5,8,1:0:0:0:
239,319,62468,5,4,1:3:0:0:
245,350,62589,5,4,1:3:0:0:
291,358,62709,5,8,1:0:0:0:
271,372,62830,6,0,P|275:318|282:196,1,140,4|8,1:0|1:0,0:0:0:0:
279,2,63365,6,0,P|274:71|269:141,1,140,4|0,1:0|0:0,0:0:0:0:
142,206,63901,6,0,P|176:201|219:194,1,70,4|2,1:2|0:0,0:0:0:0:
226,216,64169,2,0,P|254:213|272:211,1,35,0|2,0:0|0:0,0:0:0:0:
340,184,64437,1,0,1:0:0:0:
485,220,64615,2,0,P|451:225|408:232,1,70,8|0,1:0|0:0,0:0:0:0:
276,132,64972,5,4,1:0:0:0:
247,289,65150,1,0,0:0:0:0:
256,303,65239,1,2,0:0:0:0:
237,306,65329,1,2,0:0:0:0:
189,227,65507,1,0,0:0:0:0:
328,260,65686,2,0,P|375:254|411:250,1,70,0|0,1:0|0:0,0:0:0:0:
268,201,66043,1,2,0:0:0:0:
181,239,66222,1,2,0:0:0:0:
117,192,66400,5,2,0:0:0:0:
167,182,66579,1,0,1:0:0:0:
123,246,66757,1,0,1:0:0:0:
34,207,66936,1,2,0:0:0:0:
100,84,67114,1,8,1:0:0:0:
178,151,67293,1,0,0:0:0:0:
164,157,67382,1,2,0:0:0:0:
152,145,67472,1,2,0:0:0:0:
84,184,67650,1,2,0:0:0:0:
198,274,67829,5,0,1:0:0:0:
258,214,68007,1,0,1:0:0:0:
252,201,68097,1,0,1:0:0:0:
235,203,68186,1,0,1:0:0:0:
274,338,68364,1,2,0:0:0:0:
407,269,68543,2,0,P|404:230|397:192,1,70,8|0,1:0|0:0,0:0:0:0:
314,91,68900,5,2,0:0:0:0:
458,142,69079,1,0,1:0:0:0:
427,61,69257,5,2,0:0:0:0:
331,166,69436,1,0,1:0:0:0:
192,193,69614,1,0,1:0:0:0:
160,102,69793,1,2,0:0:0:0:
57,114,69972,2,0,P|50:164|45:204,1,70,8|2,1:0|0:0,0:0:0:0:
28,336,70329,5,0,1:0:0:0:
131,328,70507,1,0,0:0:0:0:
140,323,70596,1,0,0:0:0:0:
138,312,70686,5,2,0:0:0:0:
125,239,70864,1,0,1:0:0:0:
292,162,71043,5,8,1:0:0:0:
325,298,71221,1,2,0:0:0:0:
218,284,71400,5,2,0:0:0:0:
234,258,71579,1,0,0:0:0:0:
209,266,71757,5,0,1:0:0:0:
236,279,71936,1,0,0:0:0:0:
191,138,72114,2,0,P|178:92|169:54,1,70,0|2,1:0|0:0,0:0:0:0:
348,8,72471,1,8,1:0:0:0:
468,95,72650,1,0,0:0:0:0:
390,103,72829,1,2,0:0:0:0:
437,71,73007,1,0,1:0:0:0:
436,178,73186,5,0,1:0:0:0:
328,160,73364,1,0,0:0:0:0:
315,158,73454,1,0,1:0:0:0:
311,147,73543,1,0,0:0:0:0:
217,173,73721,1,0,1:0:0:0:
40,149,73900,1,8,1:0:0:0:
246,88,74168,5,4,1:3:0:0:
249,102,74257,5,0,0:0:0:0:
242,251,74436,1,2,0:0:0:0:
275,324,74614,6,0,P|316:332|355:339,1,70,0|0,1:0|1:0,0:0:0:0:
361,330,74881,1,0,1:0:0:0:
373,353,74971,1,0,0:0:0:0:
252,364,75149,1,8,1:0:0:0:
237,233,75328,1,0,0:0:0:0:
241,216,75417,1,2,0:0:0:0:
230,207,75506,1,2,0:0:0:0:
238,191,75596,6,0,P|238:142|237:2,1,175,0|0,0:0|2:0,0:0:0:0:
190,77,76221,5,0,0:0:0:0:
239,83,76310,1,2,0:0:0:0:
288,89,76399,1,2,0:0:0:0:
313,163,76578,1,0,0:0:0:0:
192,173,76757,1,2,0:0:0:0:
174,248,76935,1,2,0:0:0:0:
174,248,77292,5,2,0:0:0:0:
314,267,77471,2,0,P|320:308|325:361,1,70
178,351,77828,1,0,0:0:0:0:
161,242,78007,1,2,0:0:0:0:
319,244,78364,5,2,0:0:0:0:
334,142,78721,5,2,0:0:0:0:
182,123,78900,1,0,0:0:0:0:
165,27,79078,1,0,0:0:0:0:
336,0,79257,2,0,P|342:41|347:94,1,70,2|2,0:0|0:0,0:0:0:0:
191,161,79792,5,2,0:0:0:0:
329,244,79971,1,0,0:0:0:0:
225,309,80150,1,0,0:0:0:0:
291,368,80328,1,2,0:0:0:0:
254,223,80507,1,0,0:0:0:0:
216,66,80685,5,4,1:0:0:0:
385,130,80864,1,0,1:0:0:0:
397,125,80953,1,0,1:0:0:0:
398,115,81042,1,8,1:0:0:0:
280,10,81221,1,8,1:0:0:0:
312,176,81400,1,8,1:0:0:0:
385,39,81578,2,0,P|425:35|465:32,1,70,2|0,1:3|0:0,0:0:0:0:
235,142,81935,2,0,P|231:163|227:183,1,35,8|0,1:0|0:0,0:0:0:0:
159,209,82114,6,0,P|165:251|173:333,1,105.000004005432,2|8,1:3|1:0,0:0:0:0:
245,286,82471,1,0,1:0:0:0:
310,323,82650,1,0,1:0:0:0:
106,364,82828,2,0,P|49:342|32:198,1,210.000008010865,2|4,1:3|1:2,0:0:0:0:
80,111,83364,1,0,1:0:0:0:
105,121,83453,1,0,1:0:0:0:
101,147,83542,5,8,1:0:0:0:
57,321,83721,1,0,1:0:0:0:
212,377,83900,1,4,1:3:0:0:
240,365,83989,1,0,1:0:0:0:
242,334,84078,1,0,1:0:0:0:
196,167,84257,1,4,1:3:0:0:
212,162,84346,1,0,1:0:0:0:
232,156,84435,1,4,1:3:0:0:
250,151,84525,1,0,1:0:0:0:
264,147,84614,2,0,P|291:156|324:166,1,52.5000020027161,2|0,1:3|2:0,0:0:0:0:
506,358,84971,5,0,1:0:0:0:
436,300,85150,2,0,P|430:342|425:378,1,70,0|0,1:0|0:0,0:0:0:0:
507,349,85507,1,0,1:0:0:0:
346,313,85686,1,8,1:0:0:0:
196,361,85864,5,8,1:0:0:0:
120,339,86043,1,0,0:0:0:0:
181,288,86222,1,2,0:0:0:0:
193,368,86400,5,2,0:0:0:0:
107,342,86579,1,0,1:0:0:0:
181,279,86757,1,0,1:0:0:0:
198,372,86936,5,2,0:0:0:0:
77,265,87114,1,2,0:3:0:0:
150,127,87293,1,8,1:0:0:0:
244,146,87472,5,0,1:0:0:0:
165,154,87650,1,2,0:0:0:0:
221,91,87829,1,0,0:0:0:0:
191,226,88007,1,2,0:0:0:0:
66,130,88186,1,8,1:0:0:0:
66,130,88543,5,2,0:0:0:0:
134,156,88722,1,0,1:0:0:0:
82,100,88900,1,2,0:0:0:0:
98,199,89079,1,2,0:2:0:0:
211,108,89257,1,2,1:3:0:0:
349,152,89436,1,8,1:0:0:0:
276,184,89614,5,0,1:0:0:0:
263,40,89792,1,0,1:0:0:0:
410,95,89971,5,2,0:0:0:0:
383,239,90149,1,2,0:0:0:0:
512,323,90328,5,8,1:0:0:0:
505,248,90506,1,2,0:0:0:0:
314,289,90685,6,0,P|283:292|237:303,1,70,2|0,0:0|1:0,0:0:0:0:
49,274,91042,2,0,P|83:270|117:262,1,70,0|2,0:0|0:0,0:0:0:0:
204,207,91399,5,2,1:3:0:0:
209,112,91578,1,2,0:0:0:0:
117,136,91756,1,8,1:0:0:0:
116,142,92114,5,0,1:0:0:0:
189,151,92290,1,2,0:0:0:0:
263,123,92466,5,2,0:0:0:0:
435,152,92643,1,8,1:0:0:0:
373,314,92819,1,8,1:0:0:0:
381,322,93172,5,2,1:0:0:0:
151,199,93430,5,2,1:0:0:0:
362,70,93689,5,8,1:0:0:0:
395,138,93903,1,2,0:0:0:0:
394,146,93992,1,0,0:0:0:0:
381,149,94081,1,2,0:0:0:0:
306,124,94260,1,4,0:0:0:0:
367,64,94438,6,0,P|408:60|513:56,1,140
440,79,94974,1,0,0:0:0:0:
370,49,95152,1,0,0:0:0:0:
297,65,95331,1,0,0:0:0:0:
182,102,95510,1,0,0:0:0:0:
175,107,95867,5,0,0:0:0:0:
88,90,96045,1,0,0:0:0:0:
138,77,96224,1,0,0:0:0:0:
165,217,96430,6,0,P|172:273|168:385,1,140,2|0,1:3|0:0,0:0:0:0:
98,341,96953,1,0,1:0:0:0:
29,305,97127,1,2,0:0:0:0:
92,265,97302,2,0,P|89:227|81:193,1,70,0|8,1:0|1:0,0:0:0:0:
215,92,97650,2,0,P|217:126|225:161,1,70,2|0,0:0|0:0,0:0:0:0:
290,271,98003,5,0,1:0:0:0:
212,289,98182,1,2,0:0:0:0:
278,297,98360,1,2,0:0:0:0:
403,248,98539,1,8,1:0:0:0:
423,253,98628,1,2,0:0:0:0:
425,272,98717,1,2,0:0:0:0:
350,362,98896,5,0,1:0:0:0:
338,365,98985,1,2,0:0:0:0:
330,354,99074,1,2,0:0:0:0:
323,227,99253,1,0,1:0:0:0:
302,155,99431,1,0,1:0:0:0:
323,14,99610,5,8,1:0:0:0:
353,83,99788,1,0,0:0:0:0:
213,37,99967,1,0,0:0:0:0:
139,136,100146,5,0,1:0:0:0:
65,108,100324,2,0,P|53:72|49:37,1,70,2|0,1:3|0:0,0:0:0:0:
145,140,100681,5,0,0:0:0:0:
95,199,100860,1,0,1:0:0:0:
158,245,101038,2,0,P|170:281|174:316,1,70,2|0,1:3|0:0,0:0:0:0:
55,371,101396,5,0,1:0:0:0:
71,295,101574,1,0,1:0:0:0:
145,324,101753,1,2,0:0:0:0:
321,222,102110,5,8,1:0:0:0:
316,203,102199,1,2,0:0:0:0:
338,198,102288,1,2,0:0:0:0:
440,281,102467,5,2,0:0:0:0:
241,247,102735,5,2,0:0:0:0:
39,202,103003,5,2,0:0:0:0:
101,154,103181,1,2,0:0:0:0:
85,270,103360,6,0,P|78:322|80:366,2,70,4|0|0,1:0|1:0|1:0,0:0:0:0:
193,191,103896,2,0,B|270:162|263:244|336:249,1,140,8|2,1:0|0:0,0:0:0:0:
387,156,104431,2,0,P|389:116|381:73,1,70,0|0,1:0|0:0,0:0:0:0:
250,11,104788,1,2,0:0:0:0:
225,7,104878,1,2,0:0:0:0:
221,24,104967,6,0,P|219:64|227:107,1,70,2|0,1:3|0:0,0:0:0:0:
294,211,105324,1,8,1:0:0:0:
208,200,105503,1,0,0:0:0:0:
237,355,105681,5,4,1:0:0:0:
321,296,105860,1,0,1:0:0:0:
162,280,106038,1,0,0:0:0:0:
53,361,106217,2,0,P|47:342|40:325,2,35,2|0|8,0:0|0:0|1:0,0:0:0:0:
132,355,106574,1,2,0:0:0:0:
91,225,106753,1,0,0:0:0:0:
219,207,106931,2,0,P|212:170|196:133,1,70,2|0,1:2|0:0,0:0:0:0:
84,104,107288,1,2,0:0:0:0:
202,9,107467,2,0,B|254:-5|259:36|297:62,1,105,4|0,1:3|0:0,0:0:0:0:
305,55,107824,5,0,1:0:0:0:
292,129,108002,1,0,1:0:0:0:
400,178,108181,5,2,0:0:0:0:
391,139,108359,1,0,1:0:0:0:
496,72,108538,5,8,1:0:0:0:
496,72,108716,1,2,0:0:0:0:
399,124,108895,5,2,0:0:0:0:
402,51,109074,1,0,1:0:0:0:
262,19,109252,5,0,0:0:0:0:
276,141,109431,1,2,0:0:0:0:
162,162,109609,5,2,0:0:0:0:
185,88,109787,1,0,0:0:0:0:
216,269,109966,2,0,P|214:321|214:354,1,70,8|0,1:0|1:0,0:0:0:0:
214,341,110501,5,0,1:0:0:0:
311,212,110680,1,8,1:0:0:0:
232,230,110859,1,2,3:2:0:0:
377,328,111037,1,8,1:0:0:0:
415,230,111216,1,2,3:2:0:0:
307,189,111394,1,2,3:2:0:0:
289,361,111573,1,8,1:0:0:0:
462,361,111751,6,0,P|466:337|478:288,1,70,4|2,1:3|1:3,0:0:0:0:
509,223,112108,1,2,1:0:0:0:
424,77,112286,1,8,1:0:0:0:
375,137,112465,2,0,P|321:153|291:162,1,70,4|2,1:3|1:3,0:0:0:0:
121,36,113001,1,8,1:0:0:0:
230,0,113179,5,4,1:0:0:0:
230,0,113536,2,0,P|239:38|242:283,3,280,0|0|0|2,0:0|0:0|0:0|0:0,0:0:0:0:
158,298,115858,1,0,0:0:0:0:
325,334,116036,5,2,0:0:0:0:
334,323,116125,1,0,0:0:0:0:
319,322,116215,1,2,0:0:0:0:
240,314,116394,6,0,P|240:344|243:375,4,56,0|0|2|2|2,0:0|0:0|0:0|0:1|0:1,0:0:0:0:
230,0,119976,5,4,1:3:0:0:
301,24,120333,1,0,1:0:0:0:
181,74,120511,1,0,0:0:0:0:
175,64,120601,1,2,0:0:0:0:
183,60,120690,5,0,1:0:0:0:
305,118,121047,5,0,1:0:0:0:
180,245,121404,5,0,1:0:0:0:
343,350,121761,5,2,1:0:0:0:
346,337,121850,1,0,1:0:0:0:
340,320,121939,1,2,1:0:0:0:
350,306,122029,1,0,1:0:0:0:
342,288,122118,1,2,1:0:0:0:
350,273,122207,1,0,1:0:0:0:
342,254,122296,1,0,1:0:0:0:
347,234,122386,1,0,1:0:0:0:
425,258,122476,6,0,B|502:230|502:230|492:118,1,175,4|0,1:0|1:0,0:0:0:0:
431,101,122743,1,0,1:0:0:0:
491,58,122833,2,0,P|380:84|263:102,1,175,0|0,1:0|1:0,0:0:0:0:
6,54,123190,6,0,B|86:16|86:16|192:88,1,175,8|0,1:0|0:0,0:0:0:0:
190,233,123547,1,0,1:0:0:0:
175,159,123636,1,0,1:0:0:0:
247,187,123726,6,0,P|244:300|241:374,1,175,8|0,1:0|1:0,0:0:0:0:
106,258,124083,2,0,P|115:299|128:359,1,87.5,8|0,1:0|1:0,0:0:0:0:
383,171,124261,2,0,P|360:265|340:383,1,175,8|0,1:0|0:0,0:0:0:0:
250,368,124618,1,4,1:3:0:0:
187,319,124708,1,0,1:0:0:0:
216,247,124797,1,4,1:3:0:0:
293,254,124886,1,0,1:0:0:0:
314,326,124976,6,0,P|304:215|290:51,1,262.5,4|0,1:0|0:0,0:0:0:0:
221,44,125331,1,8,1:0:0:0:
183,109,125419,1,2,1:0:0:0:
234,170,125508,1,2,1:0:0:0:
305,142,125597,1,0,1:0:0:0:
291,64,125686,5,10,1:0:0:0:
147,5,125863,1,10,1:0:0:0:
59,139,126041,2,0,P|61:197|62:237,1,87.5,0|2,0:0|0:1,0:0:0:0:
140,193,126218,2,0,P|132:293|126:391,2,175,8|8|0,1:0|1:0|0:0,0:0:0:0:
347,239,126751,6,0,B|412:220|412:220|485:259,1,140,0|8,1:0|1:0,0:0:0:0:
267,360,127108,2,0,P|261:279|244:58,1,280,8|2,1:0|1:0,0:0:0:0:
374,155,127643,1,8,1:0:0:0:
140,193,127822,1,0,0:0:0:0:
242,0,128001,5,2,1:0:0:0:
291,29,128090,1,0,1:0:0:0:
256,74,128179,2,0,P|254:152|273:258,1,140,8|2,1:0|1:0,0:0:0:0:
291,255,128447,1,2,1:0:0:0:
232,243,128536,1,10,1:0:0:0:
200,291,128626,1,0,0:0:0:0:
231,336,128715,1,0,0:0:0:0:
325,357,128893,5,8,1:0:0:0:
372,264,129072,1,8,1:0:0:0:
366,211,129161,1,0,1:0:0:0:
361,164,129251,2,0,P|199:136|96:117,1,210,2|0,1:0|0:0,0:0:0:0:
213,45,129608,2,0,P|127:57|38:72,1,140,6|0,1:0|1:0,0:0:0:0:
19,116,129876,1,0,0:0:0:0:
82,163,129965,2,0,P|93:217|98:251,1,70,10|0,1:0|0:0,0:0:0:0:
80,311,130143,1,2,1:0:0:0:
80,311,130233,1,2,1:0:0:0:
80,311,130322,5,2,1:0:0:0:
154,288,130501,1,8,1:0:0:0:
271,212,130679,5,2,1:0:0:0:
332,162,130768,1,2,1:0:0:0:
402,196,130858,1,2,1:0:0:0:
385,271,130947,1,2,1:0:0:0:
311,279,131036,5,2,1:0:0:0:
322,272,131125,1,2,1:0:0:0:
336,272,131214,1,2,1:0:0:0:
350,278,131303,1,2,1:0:0:0:
362,286,131393,5,2,1:0:0:0:
337,311,131482,1,2,1:0:0:0:
283,299,131571,1,2,1:0:0:0:
256,249,131661,1,2,1:0:0:0:
281,197,131750,5,4,1:0:0:0:
413,182,131884,5,8,1:0:0:0:
393,82,132047,5,8,1:3:0:0:
306,55,132166,5,4,1:3:0:0:
189,142,132315,5,4,1:3:0:0:
260,297,132464,5,8,1:0:0:0:
477,245,132732,5,8,1:0:0:0:
346,1,133000,5,8,1:0:0:0:
118,119,133268,5,8,1:0:0:0:
320,349,133537,6,0,B|352:337|352:337|389:351,1,70,4|0,1:0|0:0,0:0:0:0:
451,310,133804,2,0,P|445:250|436:174,1,105,2|2,1:3|1:3,0:0:0:0:
362,116,134251,1,8,1:0:0:0:
362,116,134340,1,0,0:0:0:0:
362,116,134429,1,0,0:0:0:0:
433,41,134608,1,2,1:3:0:0:
254,65,134787,5,0,0:0:0:0:
266,86,134876,1,2,1:3:0:0:
282,160,135054,5,0,0:0:0:0:
279,172,135144,1,2,1:3:0:0:
409,288,135322,1,8,1:0:0:0:
416,214,135501,1,0,0:0:0:0:
300,313,135679,6,0,B|267:302|267:302|221:324,1,70,2|0,1:3|0:0,0:0:0:0:
167,354,135948,2,0,P|161:308|146:231,1,105,2|2,1:3|1:3,0:0:0:0:
214,160,136397,1,8,1:0:0:0:
214,160,136487,1,0,0:0:0:0:
214,160,136577,1,0,0:0:0:0:
116,137,136756,1,2,1:3:0:0:
112,263,136936,5,8,1:0:0:0:
115,273,137026,1,0,0:0:0:0:
214,241,137205,5,0,0:0:0:0:
211,256,137295,1,0,0:0:0:0:
210,366,137475,6,0,P|257:357|306:351,1,70,4|0,1:0|0:0,0:0:0:0:
335,303,137742,2,0,P|382:313|461:326,1,105,2|2,1:3|1:3,0:0:0:0:
445,121,138189,2,0,B|400:175|400:175|427:248,2,140,8|2|2,1:0|1:3|1:3,0:0:0:0:
473,108,138992,1,0,0:0:0:0:
437,92,139082,1,0,1:0:0:0:
301,155,139260,1,8,1:0:0:0:
297,139,139350,1,0,0:0:0:0:
316,149,139439,1,0,0:0:0:0:
216,17,139617,6,0,P|211:56|205:95,1,70,2|0,1:3|0:0,0:0:0:0:
132,75,139884,2,0,P|139:128|150:202,1,105,0|0,1:0|1:0,0:0:0:0:
222,168,140242,1,0,0:0:0:0:
222,168,140331,2,0,P|215:221|211:259,1,70,8|0,1:0|0:0,0:0:0:0:
78,212,140688,1,2,1:3:0:0:
141,327,140866,1,0,1:0:0:0:
151,318,140956,1,8,1:0:0:0:
141,309,141045,5,8,1:0:0:0:
121,331,141164,5,8,1:0:0:0:
149,357,141283,5,8,1:0:0:0:
176,327,141402,5,4,1:3:0:0:
496,351,141759,1,2,0:0:0:0:
484,346,141849,1,2,0:0:0:0:
473,352,141938,1,2,0:0:0:0:
476,364,142027,1,2,0:0:0:0:
486,366,142117,5,4,0:0:0:0:
503,268,142293,1,4,1:0:0:0:
471,179,142469,2,0,B|402:156|402:156|335:192,1,140,8|0,1:0|0:0,0:0:0:0:
177,316,142999,1,4,1:0:0:0:
255,350,143175,2,0,P|247:290|234:196,1,140,8|0,1:0|0:0,0:0:0:0:
268,143,143705,1,0,1:0:0:0:
216,87,143884,6,0,P|177:97|131:108,1,70,4|0,1:0|0:0,0:0:0:0:
159,239,144241,2,0,P|120:249|74:260,1,70,0|0,1:0|0:0,0:0:0:0:
3,137,144598,2,0,P|7:99|84:43,1,140,8|0,1:0|0:0,0:0:0:0:
154,68,145134,1,0,1:0:0:0:
300,4,145312,2,0,P|311:41|309:85,1,70,8|0,1:0|0:0,0:0:0:0:
242,222,145669,1,8,1:0:0:0:
231,146,145848,1,0,0:0:0:0:
327,179,146026,5,2,0:0:0:0:
313,183,146116,1,2,0:0:0:0:
318,170,146205,1,2,0:0:0:0:
336,173,146294,1,2,0:0:0:0:
330,190,146384,5,4,1:2:0:0:
301,326,146562,1,8,1:0:0:0:
369,299,146741,1,0,1:0:0:0:
321,289,146919,1,0,1:0:0:0:
410,354,147098,1,0,1:0:0:0:
496,253,147276,2,0,P|496:195|471:94,1,140,8|0,1:0|1:0,0:0:0:0:
324,44,147812,1,2,0:1:0:0:
421,21,147991,1,2,0:1:0:0:
367,125,148187,6,0,P|359:164|352:211,1,70,4|0,1:0|1:0,0:0:0:0:
393,315,148544,2,0,B|406:312|410:320|431:317,1,35
320,267,148722,2,0,P|282:281|259:371,1,140,8|0,1:0|1:0,0:0:0:0:
333,364,149258,1,0,1:0:0:0:
253,206,149437,2,0,P|202:195|171:188,1,70,8|0,1:0|0:0,0:0:0:0:
64,194,149794,5,0,1:0:0:0:
137,175,149972,1,2,1:0:0:0:
155,262,150151,1,2,1:0:0:0:
38,277,150329,1,8,1:0:0:0:
0,122,150508,1,0,0:0:0:0:
0,122,150597,1,4,1:3:0:0:
0,122,150687,1,0,0:0:0:0:
160,82,150865,1,8,1:0:0:0:
122,196,151044,5,0,0:0:0:0:
414,261,155686,5,4,1:0:0:0:
481,360,155865,2,0,P|485:318|501:218,1,140,0|0,1:0|0:0,0:0:0:0:
280,136,156401,2,0,B|349:96|362:181|407:185,1,140,8|4,1:0|1:0,0:0:0:0:
512,38,156936,2,0,B|451:0|451:0|411:69,1,140,0|0,1:0|0:0,0:0:0:0:
240,235,157472,6,0,P|237:186|200:70,2,140,0|4|0,1:0|1:0|1:0,0:0:0:0:
191,293,158365,1,4,1:0:0:0:
269,311,158544,1,0,0:0:0:0:
246,141,158722,2,0,P|244:79|239:-7,1,140,8|4,1:0|1:0,0:0:0:0:
137,101,159258,5,2,0:3:0:0:
126,99,159345,1,2,0:0:0:0:
122,89,159432,1,2,0:0:0:0:
336,33,159606,2,0,P|340:74|344:108,1,70,8|0,1:0|0:0,0:0:0:0:
331,129,159868,1,2,0:0:0:0:
363,143,159955,1,2,1:3:0:0:
329,247,160139,1,8,1:3:0:0:
392,345,160323,6,0,B|326:366|326:366|248:336,1,140,4|0,1:0|1:0,0:0:0:0:
197,297,160858,1,0,0:0:0:0:
0,336,161037,2,0,B|66:315|66:315|144:345,1,140,8|0,1:0|1:0,0:0:0:0:
283,260,161573,1,8,1:0:0:0:
150,157,161751,2,0,P|147:204|146:236,1,70,2|0,0:3|1:0,0:0:0:0:
87,282,162108,1,8,1:0:0:0:
185,313,162287,1,0,0:0:0:0:
142,329,162465,1,8,1:0:0:0:
142,329,162823,5,2,1:3:0:0:
217,301,163001,1,0,1:0:0:0:
294,323,163180,1,2,1:0:0:0:
372,334,163358,1,2,1:0:0:0:
501,263,163537,2,0,P|500:227|490:122,1,140,8|2,1:0|1:3,0:0:0:0:
319,100,164073,5,8,1:0:0:0:
398,86,164251,1,2,1:3:0:0:
350,144,164430,1,2,0:3:0:0:
357,14,164608,1,8,1:0:0:0:
482,110,164787,1,0,1:0:0:0:
440,264,164965,5,4,1:0:0:0:
506,230,165144,1,0,0:0:0:0:
377,216,165323,1,8,1:0:0:0:
398,334,165501,1,0,0:0:0:0:
472,309,165680,1,0,1:0:0:0:
428,288,165858,1,0,0:0:0:0:
292,332,166037,1,8,1:0:0:0:
219,324,166215,2,0,P|180:326|136:332,2,70,0|0|0,1:0|0:0|1:0,0:0:0:0:
264,260,166751,2,0,P|274:219|265:137,1,105,8|0,1:0|0:0,0:0:0:0:
259,142,167108,6,0,P|252:102|256:57,1,70,0|0,1:0|0:0,0:0:0:0:
366,121,167465,1,4,1:0:0:0:
366,121,167822,5,4,1:3:0:0:
148,64,168000,1,6,1:3:0:0:
192,128,168358,5,0,1:0:0:0:
386,42,168536,1,8,1:0:0:0:
263,5,168804,5,0,0:0:0:0:
261,22,168893,1,4,1:3:0:0:
283,123,169072,1,6,1:3:0:0:
256,245,169250,1,8,1:0:0:0:
292,312,169429,1,0,0:0:0:0:
251,374,169608,6,0,P|205:363|100:346,2,140,4|8|2,1:0|1:0|1:3,0:0:0:0:
353,341,170500,1,2,1:3:0:0:
281,232,170679,2,0,P|269:182|264:155,1,70,8|2,1:0|0:0,0:0:0:0:
381,82,171036,1,0,1:0:0:0:
458,103,171215,1,2,1:3:0:0:
446,183,171393,1,8,1:0:0:0:
330,192,171572,1,8,1:0:0:0:
297,31,171750,1,8,1:0:0:0:
401,57,171929,1,8,1:0:0:0:
253,147,172108,5,4,1:0:0:0:
319,290,172286,1,0,0:0:0:0:
365,224,172465,2,0,P|317:217|283:214,1,70,0|0,1:0|1:0,0:0:0:0:
110,324,172822,6,0,P|178:339|247:347,1,140,8|4,1:0|1:3,0:0:0:0:
432,205,173447,5,4,1:3:0:0:
237,61,173715,5,4,1:3:0:0:
214,130,173893,5,4,0:0:0:0:
203,137,174071,5,2,0:0:0:0:
183,137,174250,5,2,0:0:0:0:
156,109,174428,5,2,0:0:0:0:
174,47,174607,5,2,3:2:0:0:
246,21,174785,5,2,3:2:0:0:
312,67,174964,5,4,0:0:0:0:
6,12,175678,5,2,0:0:0:0:
28,86,176035,5,2,0:0:0:0:
16,164,176392,5,2,0:0:0:0:
35,240,176749,5,0,0:0:0:0:
23,351,176927,1,4,1:0:0:0:
136,371,177106,5,8,1:0:0:0:
122,293,177284,1,0,0:0:0:0:
216,278,177463,5,0,0:0:0:0:
209,320,177642,1,0,1:0:0:0:
306,354,177820,6,0,B|357:321|382:375|444:373,1,140,4|0,1:3|0:0,0:0:0:0:
503,337,178356,1,0,1:0:0:0:
404,260,178534,2,0,P|397:222|405:175,1,70,8|0,1:0|0:0,0:0:0:0:
425,50,178892,5,4,1:0:0:0:
501,62,179070,1,2,0:0:0:0:
509,66,179159,1,0,0:0:0:0:
507,76,179249,1,2,0:0:0:0:
487,147,179427,1,8,1:0:0:0:
351,133,179606,2,0,P|306:137|199:154,1,140,0|0,0:0|1:0,0:0:0:0:
163,91,180142,1,0,1:0:0:0:
171,219,180320,6,0,P|168:266|170:299,1,70,8|0,1:0|0:0,0:0:0:0:
286,281,180677,2,0,P|283:328|285:361,1,70,0|0,1:0|0:0,0:0:0:0:
397,214,181034,2,0,P|394:261|396:294,1,70,8|0,1:0|0:0,0:0:0:0:
423,352,181392,1,8,1:0:0:0:
277,364,181570,1,8,1:0:0:0:
346,352,181749,1,0,1:0:0:0:
210,324,182017,5,0,1:0:0:0:
208,333,182106,1,0,0:0:0:0:
136,352,182284,1,0,0:0:0:0:
111,186,182463,2,0,B|169:142|196:215|254:208,1,140,8|0,1:0|0:0,0:0:0:0:
304,165,182999,1,0,0:0:0:0:
412,248,183177,6,0,P|410:213|418:154,1,70,0|0,1:0|0:0,0:0:0:0:
506,121,183534,1,0,1:0:0:0:
486,44,183712,1,0,0:0:0:0:
356,28,183891,1,8,1:0:0:0:
347,160,184069,1,0,0:0:0:0:
401,110,184248,5,4,1:0:0:0:
415,218,184426,1,0,1:0:0:0:
413,226,184515,1,0,0:0:0:0:
401,229,184605,1,0,0:0:0:0:
286,205,184783,1,8,1:0:0:0:
274,127,184962,2,0,P|270:86|270:46,2,70,0|0|0,0:0|1:0|0:0,0:0:0:0:
259,277,185498,1,8,1:0:0:0:
286,348,185676,6,0,P|232:358|206:362,1,70
68,300,186033,1,0,1:0:0:0:
141,281,186212,1,0,1:0:0:0:
135,143,186390,2,0,P|88:144|-3:173,1,140,8|0,1:0|0:0,0:0:0:0:
17,242,186926,1,0,1:0:0:0:
148,289,187105,6,0,P|151:246|153:211,1,70,4|0,1:0|0:0,0:0:0:0:
202,122,187462,1,0,1:0:0:0:
141,73,187640,1,0,0:0:0:0:
280,14,187819,2,0,P|281:82|290:164,1,140,8|0,1:0|0:0,0:0:0:0:
363,177,188355,1,0,1:0:0:0:
304,322,188533,5,12,1:0:0:0:
233,300,188712,1,0,0:0:0:0:
296,298,188890,1,0,1:0:0:0:
236,351,189069,1,8,1:0:0:0:
75,294,189248,5,8,1:0:0:0:
150,308,189426,1,0,0:0:0:0:
91,281,189605,1,2,0:0:0:0:
91,281,189962,5,0,1:0:0:0:
196,249,190140,1,0,1:0:0:0:
204,240,190230,1,2,0:0:0:0:
198,232,190319,1,2,0:3:0:0:
162,168,190498,1,2,0:0:0:0:
273,92,190676,1,8,1:0:0:0:
349,114,190855,2,0,P|343:69|337:40,1,70,2|0,0:3|0:0,0:0:0:0:
189,62,191212,1,8,1:0:0:0:
242,167,191390,5,2,0:3:0:0:
318,187,191569,1,0,1:0:0:0:
249,193,191748,1,2,0:0:0:0:
303,148,191926,1,2,1:3:0:0:
371,248,192105,1,8,1:0:0:0:
255,309,192283,1,2,1:3:0:0:
208,244,192462,1,8,1:0:0:0:
283,226,192640,1,2,1:2:0:0:
329,325,192819,5,2,0:3:0:0:
263,299,192997,1,2,0:0:0:0:
398,273,193176,2,0,P|403:312|403:352,1,70,8|2,1:0|0:3,0:0:0:0:
301,224,193533,1,0,0:0:0:0:
345,160,193711,1,0,1:0:0:0:
420,147,193890,1,2,0:3:0:0:
491,182,194069,1,2,0:0:0:0:
428,132,194247,1,0,1:0:0:0:
500,261,194426,1,8,1:0:0:0:
404,367,194604,5,2,1:3:0:0:
389,288,194782,1,0,1:0:0:0:
284,237,194961,5,2,0:3:0:0:
269,315,195139,1,2,0:3:0:0:
142,360,195318,5,8,1:0:0:0:
107,227,195496,1,2,0:3:0:0:
185,214,195675,1,0,0:0:0:0:
130,258,195854,5,0,1:0:0:0:
119,170,196032,1,2,0:3:0:0:
211,260,196210,1,0,1:0:0:0:
115,334,196389,1,2,1:3:0:0:
61,270,196567,1,2,0:3:0:0:
202,342,196746,6,0,P|250:351|291:358,1,70,8|2,1:0|0:3,0:0:0:0:
390,240,197103,1,0,1:0:0:0:
377,240,197192,1,2,0:3:0:0:
378,254,197282,1,0,1:0:0:0:
486,356,197460,1,8,1:0:0:0:
492,172,197639,1,8,1:0:0:0:
308,191,197817,5,2,1:0:0:0:
74,131,198085,5,2,1:0:0:0:
273,19,198353,5,2,1:0:0:0:
225,79,198532,5,4,1:2:0:0:
316,93,198710,1,0,1:0:0:0:
251,217,198889,1,8,1:0:0:0:
309,358,199067,1,8,1:0:0:0:
354,296,199246,5,4,1:2:0:0:
241,312,199424,1,0,0:0:0:0:
320,224,199603,5,0,1:0:0:0:
250,210,199781,1,4,1:2:0:0:
343,79,199960,5,8,1:0:0:0:
215,105,200138,1,4,0:0:0:0:
270,4,200317,5,8,1:0:0:0:
296,141,200496,1,0,1:0:0:0:
279,218,200674,5,4,1:2:0:0:
253,355,200853,1,8,1:0:0:0:
157,301,201032,5,4,1:2:0:0:
65,317,201210,1,0,1:0:0:0:
138,284,201389,1,8,1:0:0:0:
206,302,201567,1,4,0:0:0:0:
290,293,201746,1,8,1:0:0:0:
382,273,201924,1,8,1:0:0:0:
486,293,202103,5,4,0:0:0:0:
413,301,202282,1,0,1:0:0:0:
404,197,202460,1,4,0:0:0:0:
495,218,202639,1,4,1:2:0:0:
470,51,202817,5,8,1:0:0:0:
353,83,202996,1,4,0:0:0:0:
401,273,203174,5,4,1:0:0:0:
270,207,203352,1,4,1:2:0:0:
262,361,203531,1,8,1:0:0:0:
365,372,203709,1,4,1:3:0:0:
311,293,203888,5,0,0:0:0:0:
188,332,204066,1,8,1:0:0:0:
112,253,204245,1,4,1:2:0:0:
190,231,204424,1,4,1:2:0:0:
253,278,204602,1,0,0:0:0:0:
180,267,204781,1,4,1:2:0:0:
155,121,204959,5,8,1:0:0:0:
412,83,205316,5,8,1:0:0:0:
411,322,205674,5,0,1:0:0:0:
338,299,205852,1,4,1:2:0:0:
416,294,206031,1,0,0:0:0:0:
320,329,206209,1,4,0:0:0:0:
198,297,206388,1,8,1:0:0:0:
5,340,206745,5,4,1:2:0:0:
56,83,207013,5,2,1:3:0:0:
157,232,207281,5,8,1:0:0:0:
213,178,207459,5,2,0:0:0:0:
283,204,207638,1,2,3:2:0:0:
359,198,207818,1,0,0:0:0:0:
419,156,207997,1,0,0:0:0:0:
495,144,208177,1,2,0:0:0:0:
461,169,208357,1,0,0:0:0:0:
388,136,208536,1,0,3:2:0:0:
348,68,208716,1,2,0:0:0:0:
372,66,208896,5,2,3:2:0:0:
307,26,209074,1,2,3:2:0:0:
231,42,209253,1,0,0:0:0:0:
196,113,209431,1,2,0:0:0:0:
243,181,209610,5,2,0:0:0:0:
254,264,209788,1,0,3:2:0:0:
202,330,209967,1,4,3:2:0:0:
219,331,210146,1,0,3:2:0:0:
149,287,210324,1,2,0:0:0:0:
129,205,210503,1,2,0:0:0:0:
156,135,210681,5,2,3:2:0:0:
156,135,211038,5,0,3:2:0:0:
86,122,211216,1,2,3:2:0:0:
149,102,211395,1,2,0:0:0:0:
184,167,211573,1,2,0:0:0:0:
117,207,211752,1,0,0:0:0:0:
59,124,211931,1,2,3:2:0:0:
136,48,212109,5,4,3:2:0:0:
211,71,212287,1,2,3:2:0:0:
254,140,212466,1,0,0:0:0:0:
247,218,212644,1,2,0:0:0:0:
207,287,212823,6,0,P|175:290|134:298,1,70,0|2,3:0|0:0,0:0:0:0:
74,332,213180,1,2,3:2:0:0:
68,258,213359,2,0,P|49:223|53:108,1,140,0|0,3:0|0:0,0:0:0:0:
156,22,213894,2,0,P|169:63|163:110,1,70,2|0,0:0|0:0,0:0:0:0:
276,162,214251,5,2,3:2:0:0:
251,237,214429,1,0,0:0:0:0:
401,338,214786,5,2,0:0:0:0:
429,266,214965,1,0,3:0:0:0:
351,256,215143,1,2,0:0:0:0:
306,359,215322,1,2,3:2:0:0:
203,325,215501,1,0,0:0:0:0:
221,252,215679,1,2,0:0:0:0:
267,288,215858,1,0,0:0:0:0:
29,355,216215,5,2,3:2:0:0:
0,282,216393,5,2,3:2:0:0:
36,327,216572,5,4,3:2:0:0:
