osu file format v14

[General]
AudioFilename: audio.mp3
AudioLeadIn: 0
PreviewTime: 45743
Countdown: 0
SampleSet: Soft
StackLeniency: 0.7
Mode: 0
LetterboxInBreaks: 0
WidescreenStoryboard: 1

[Editor]
Bookmarks: 22351,27350,27440,27529,27618,27708,27797,27886,27975,28065,86276
DistanceSpacing: 1.6
BeatDivisor: 8
GridSize: 32
TimelineZoom: 1.9

[Metadata]
Title:Munou (TV Size)
TitleUnicode:無能 (TV Size)
Artist:oesterreich
ArtistUnicode:österreich
Creator:Tsumugi-chan
Version:smozit's Hard
Source:東京喰種√A
Tags:tokyo ghoul osterreich anime japanese square root a kunimitsu takahashi 高橋國光 ai kamano 鎌野愛 haisuinonasa ハイスイノナサ cami myxo myxomatosis desperate-kun smozit
BeatmapID:2342163
BeatmapSetID:1118528

[Difficulty]
HPDrainRate:5
CircleSize:3.5
OverallDifficulty:6
ApproachRate:7.5
SliderMultiplier:1.2
SliderTickRate:1

[Events]
//Background and Video events
0,0,"kanae.jpg",0,0
//Break Periods
2,75742,79313
//Storyboard Layer 0 (Background)
//Storyboard Layer 1 (Fail)
//Storyboard Layer 2 (Pass)
//Storyboard Layer 3 (Foreground)
//Storyboard Layer 4 (Overlay)
//Storyboard Sound Samples

[TimingPoints]
210,357.142857142857,7,2,1,30,1,0
2709,357.142857142857,6,2,1,30,1,0
2709,-100,6,2,1,30,0,0
4851,357.142857142857,7,2,1,50,1,0
6636,-100,7,2,1,50,0,0
7350,357.142857142857,5,2,1,50,1,0
8421,-100,5,2,69,50,0,0
9135,-100,5,2,1,50,0,0
9850,-100,5,2,1,50,0,0
10742,-100,5,2,1,50,0,0
11278,-100,5,2,1,50,0,0
13064,-100,5,2,1,50,0,0
13777,357.142857142857,7,2,1,50,1,0
14491,-100,7,2,1,50,0,0
15027,-100,7,2,1,50,0,0
15919,-100,7,2,1,50,0,0
16280,357.142857142857,5,2,1,50,1,0
16815,-100,5,2,1,50,0,0
18066,357.142857142857,7,2,1,50,1,0
18066,-100,7,2,1,50,0,0
20566,357.142857142857,6,2,1,50,1,0
22351,-100,6,2,1,50,0,0
22708,357.142857142857,7,2,1,50,1,0
25029,-100,7,2,69,50,0,0
25208,357.142857142857,4,2,69,50,1,0
25386,-100,4,2,69,50,0,0
26993,-100,4,2,1,50,0,0
27350,-100,4,2,70,50,0,0
28065,-111.111111111111,4,2,1,50,0,0
36636,-100,4,2,1,50,0,0
40565,-100,4,2,1,50,0,0
43065,357.142857142857,6,2,1,50,1,0
43065,-100,6,2,1,50,0,0
43600,-100,6,2,1,50,0,0
44136,-100,6,2,1,50,0,0
44493,-100,6,2,1,50,0,0
45923,357.142857142857,7,2,1,70,1,0
45923,-83.3333333333333,7,2,1,70,0,1
46280,-83.3333333333333,7,2,1,70,0,1
48065,-83.3333333333333,7,2,1,70,0,1
48423,357.142857142857,6,2,1,70,1,1
48423,-83.3333333333333,6,2,1,70,0,1
49673,-83.3333333333333,6,2,1,70,0,1
50565,357.142857142857,7,2,1,70,1,1
50565,-83.3333333333333,7,2,1,70,0,1
51100,-83.3333333333333,7,2,1,70,0,1
51636,-83.3333333333333,7,2,1,70,0,1
52172,-83.3333333333333,7,2,1,70,0,1
52350,-83.3333333333333,7,2,1,70,0,1
53065,357.142857142857,6,2,1,70,1,1
53065,-83.3333333333333,6,2,1,70,0,1
53779,-83.3333333333333,6,2,1,70,0,1
54136,-83.3333333333333,6,2,1,70,0,1
55208,357.142857142857,4,2,1,70,1,1
55208,-83.3333333333333,4,2,1,70,0,1
55565,-83.3333333333333,4,2,1,70,0,1
59136,-83.3333333333333,4,2,1,70,0,1
60029,-83.3333333333333,4,2,1,70,0,1
60565,-83.3333333333333,4,2,1,70,0,1
62350,357.142857142857,3,2,1,70,1,1
62350,-83.3333333333333,3,2,1,70,0,1
62885,-83.3333333333333,3,2,1,70,0,1
63421,357.142857142857,5,2,1,70,1,1
63421,-83.3333333333333,5,2,1,70,0,1
64135,-83.3333333333333,5,2,1,70,0,1
64492,-83.3333333333333,5,2,1,60,0,0
65208,357.142857142857,6,2,1,50,1,0
65208,-100,6,2,1,50,0,0
67350,357.142857142857,7,2,1,50,1,0
67350,-100,6,2,1,50,0,0
69492,-100,6,2,1,50,0,0
69850,357.142857142857,4,2,1,50,1,0
69850,-100,6,2,1,50,0,0
74135,357.142857142857,3,2,1,50,1,0
74135,-100,6,2,1,50,0,0
75206,-100,3,2,1,50,0,0
75742,357.142857142857,7,2,1,40,1,0
78242,357.142857142857,4,2,1,40,1,0
80206,-100,4,2,1,40,0,0
81099,357.142857142857,5,2,1,50,1,0
82349,-100,5,2,1,50,0,0
82706,-100,5,2,1,50,0,0
82884,357.142857142857,4,2,1,50,1,0
84134,357.142857142857,6,2,1,50,1,0
85741,-100,6,3,1,50,0,0

[Colours]
Combo1 : 202,0,101
Combo2 : 255,157,206

[HitObjects]
81,248,210,6,0,P|78:220|71:188,1,60,2|0,0:0|0:0,0:0:0:0:
198,61,745,2,0,P|223:72|254:82,1,60,2|0,0:0|0:0,0:0:0:0:
301,255,1281,2,0,P|278:271|254:293,1,60,0|2,0:0|0:0,0:0:0:0:
177,339,1638,6,0,L|96:345,1,60,0|2,0:0|0:0,0:0:0:0:
60,272,1995,2,0,L|119:267,1,60,2|0,0:0|0:0,0:0:0:0:
179,199,2352,1,2,0:0:0:0:
179,199,2531,1,0,0:0:0:0:
179,199,2709,6,0,L|168:121,1,60,2|0,0:0|0:0,0:0:0:0:
96,87,3066,2,0,L|107:9,1,60,2|2,0:0|0:0,0:0:0:0:
194,20,3423,2,0,L|318:38,1,120,2|2,0:0|0:0,0:0:0:0:
387,87,3958,1,2,0:0:0:0:
387,87,4137,2,0,P|416:85|445:71,1,60,2|0,0:0|0:0,0:0:0:0:
499,143,4494,2,0,P|485:169|483:200,1,60,2|2,0:0|0:0,0:0:0:0:
395,212,4851,6,0,P|378:187|352:169,2,60,4|0|0,1:0|1:0|0:0,0:0:0:0:
408,300,5386,1,0,0:0:0:0:
324,334,5565,2,0,B|259:343|276:310|204:322,1,120,8|0,1:0|0:0,0:0:0:0:
119,345,6101,2,0,P|101:330|65:318,1,60,0|2,1:0|0:0,0:0:0:0:
8,249,6458,1,0,1:0:0:0:
8,249,6636,2,0,P|26:234|61:222,1,60,0|0,1:0|0:0,0:0:0:0:
149,212,6993,2,0,P|154:170|100:99,1,120,8|0,1:0|1:0,0:0:0:0:
63,32,7528,6,0,B|99:24|99:24|150:30|150:30|182:24,1,120,0|0,1:0|0:0,0:0:0:0:
254,77,8064,2,0,L|318:69,1,60,8|0,1:0|0:0,0:0:0:0:
403,63,8421,2,0,L|384:158,2,90,2|2|10,1:0|1:0|1:0,0:3:0:0:
474,117,9135,6,0,L|447:242,1,120,0|0,1:0|0:0,0:0:0:0:
379,292,9671,2,0,L|395:368,1,60,2|8,0:0|1:0,0:0:0:0:
211,366,10207,1,0,0:0:0:0:
211,276,10385,2,0,P|194:251|151:232,1,60,8|0,1:0|0:0,0:0:0:0:
81,211,10742,2,0,P|97:187|123:171,1,60,0|0,1:0|0:0,0:0:0:0:
291,105,11278,1,8,1:0:0:0:
113,76,11635,1,0,1:0:0:0:
187,24,11814,1,0,1:0:0:0:
187,24,11992,6,0,L|209:161,1,120,0|8,0:0|1:0,0:0:0:0:
412,361,12885,1,0,1:0:0:0:
467,290,13064,2,0,P|457:270|424:247,1,60,2|2,0:0|0:0,0:0:0:0:
444,160,13421,2,0,P|421:158|386:176,1,60,0|8,1:0|1:0,0:0:0:0:
345,252,13777,1,2,1:2:0:0:
345,252,13955,2,0,P|252:274|171:224,1,180,0|8,1:0|1:0,0:0:0:0:
13,23,15027,1,0,1:0:0:0:
13,23,15205,2,0,L|86:36,1,60,2|0,0:0|1:0,0:0:0:0:
143,88,15562,2,0,L|202:77,1,60,0|0,1:0|0:0,0:0:0:0:
290,59,15919,1,8,1:0:0:0:
467,19,16280,5,2,1:3:0:0:
447,106,16458,2,0,L|456:163,2,30,0|2|0,1:0|1:3|1:0,0:0:0:0:
356,111,16815,1,2,1:3:0:0:
419,279,17172,1,0,1:0:0:0:
330,259,17351,2,0,P|286:268|247:304,2,90,8|8|8,1:0|1:0|1:0,0:0:0:0:
323,349,18066,5,0,1:0:0:0:
323,349,18244,1,0,1:0:0:0:
226,329,18423,1,2,1:3:0:0:
143,358,18601,1,0,0:0:0:0:
143,358,18780,2,0,P|121:340|108:309,1,60,8|0,1:0|1:0,0:0:0:0:
38,254,19137,6,0,P|60:236|73:205,1,60,0|0,1:0|1:0,0:0:0:0:
63,118,19494,2,0,P|89:128|122:124,1,60,2|8,0:0|1:1,0:0:0:0:
193,71,19851,1,2,0:0:0:0:
193,71,20030,1,2,0:0:0:0:
193,71,20208,2,0,P|197:99|217:125,1,60,0|4,1:0|0:0,0:0:0:0:
305,133,20566,6,0,P|327:115|339:85,1,60,4|0,1:0|0:0,0:0:0:0:
398,25,20923,2,0,L|483:21,1,60,2|0,3:3|1:0,0:0:0:0:
507,97,21280,1,8,1:0:0:0:
390,234,21637,2,0,P|380:279|380:317,1,60,2|4,0:0|0:0,0:0:0:0:
310,351,21994,1,0,0:0:0:0:
310,351,22173,1,0,1:0:0:0:
239,296,22351,2,0,P|215:299|179:305,1,60,8|2,1:0|0:0,0:0:0:0:
96,271,22708,5,4,1:0:0:0:
37,203,22886,1,2,0:0:0:0:
52,114,23065,2,0,P|59:64|51:27,2,60,8|2|2,1:0|0:0|1:3,0:0:0:0:
23,199,23600,1,8,1:0:0:0:
170,94,23958,1,0,1:0:0:0:
250,54,24136,2,0,P|280:53|309:62,1,60,2|2,0:0|0:0,0:0:0:0:
359,136,24493,2,0,P|387:127|417:128,1,60,8|2,1:0|0:0,0:0:0:0:
487,185,24850,1,8,1:0:0:0:
487,185,25029,2,0,L|491:235,1,30,2|0,1:0|1:0,0:0:0:0:
472,257,25208,6,0,L|470:358,1,90,4|8,1:2|1:0,0:0:0:0:
349,286,25743,1,8,1:3:0:0:
269,329,25922,2,0,L|180:377,1,90
176,237,26458,1,0,0:0:0:0:
99,189,26636,2,0,L|12:136,2,90,8|0|2,1:0|0:0|0:0,0:0:0:0:
126,102,27350,5,2,1:0:0:0:
126,102,28065,5,0,3:0:0:0:
292,22,28779,1,8,0:0:0:0:
292,22,29493,5,0,3:0:0:0:
444,125,30207,1,8,1:0:0:0:
444,125,30922,6,0,L|440:247,2,107.999996704102,0|0|8,0:0|3:0|1:0,0:0:0:0:
342,273,31993,2,0,L|339:328,1,53.9999983520508,2|2,0:0|0:0,0:0:0:0:
252,361,32350,1,0,1:0:0:0:
111,356,33065,1,8,1:0:0:0:
45,231,33779,1,0,1:0:0:0:
44,123,34493,2,0,L|84:57,1,53.9999983520508,2|0,0:0|0:0,0:0:0:0:
150,38,34850,2,0,L|222:39,1,53.9999983520508,2|0,0:0|0:0,0:0:0:0:
298,79,35208,1,0,0:0:0:0:
53,343,35922,1,0,1:3:0:0:
498,20,36636,6,0,P|467:59|444:139,1,120,0|6,1:0|0:0,0:0:0:0:
493,200,37172,1,8,1:0:0:0:
426,140,37350,2,0,P|376:132|295:152,1,120
282,231,37886,1,0,1:0:0:0:
292,141,38065,2,0,P|273:93|216:33,1,120,0|8,1:0|1:0,0:0:0:0:
48,38,38779,2,0,P|67:86|124:146,1,120,0|2,1:0|0:0,0:0:0:0:
86,223,39315,1,8,1:0:0:0:
86,223,39493,6,0,P|93:251|92:282,1,60,2|0,0:0|1:0,0:0:0:0:
172,322,39850,2,0,P|198:308|220:287,1,60,0|8,1:0|1:0,0:0:0:0:
384,212,40386,1,0,1:0:0:0:
473,221,40565,2,0,P|494:284|463:348,1,120,8|0,1:0|1:0,0:0:0:0:
357,362,41279,1,2,1:3:0:0:
248,322,41636,1,2,1:3:0:0:
228,207,41993,1,0,1:0:0:0:
317,132,42350,1,8,1:0:0:0:
67,28,42886,5,8,1:0:0:0:
150,62,43065,2,0,P|162:82|164:120,1,60,4|0,1:0|0:0,0:0:0:0:
210,195,43422,1,8,1:0:0:0:
210,195,43600,2,0,P|221:174|253:153,1,60,4|0,1:0|0:0,0:0:0:0:
295,77,43957,1,0,1:0:0:0:
295,77,44136,2,0,P|271:77|237:59,1,60,4|0,1:0|0:0,0:0:0:0:
6,328,45923,6,0,B|84:309|58:359|149:341,1,143.999995605469,4|0,1:0|1:0,0:0:0:0:
252,332,46458,1,0,0:0:0:0:
252,332,46637,2,0,P|248:261|167:224,1,143.999995605469,8|0,1:0|1:0,0:0:0:0:
83,219,47173,2,0,P|116:192|138:133,1,71.9999978027344,0|2,1:0|0:3,0:0:0:0:
277,19,47708,1,0,0:0:0:0:
290,111,47887,2,0,P|314:142|349:151,1,71.9999978027344,0|8,1:0|1:0,0:0:0:0:
463,331,48423,6,0,P|382:276|349:270,1,107.999996704102,0|0,1:0|1:0,0:0:0:0:
228,346,48958,1,0,1:0:0:0:
280,259,49137,2,0,P|270:223|250:191,1,71.9999978027344,2|8,0:3|1:0,0:0:0:0:
160,151,49494,2,0,L|23:168,1,107.999996704102,0|2,1:0|1:3,0:0:0:0:
26,14,50030,1,2,1:3:0:0:
117,55,50208,2,0,P|151:60|188:51,1,71.9999978027344,8|0,1:0|0:0,0:0:0:0:
294,35,50565,5,0,1:0:0:0:
382,96,50743,2,0,P|403:172|368:239,1,143.999995605469,0|8,1:0|1:0,0:0:0:0:
198,349,51457,1,0,1:0:0:0:
95,314,51636,2,0,P|130:255|148:242,1,71.9999978027344,0|8,1:0|1:0,0:0:0:0:
55,176,51993,2,0,P|123:176|143:185,1,71.9999978027344,2|0,1:3|1:0,0:0:0:0:
218,120,52350,1,8,1:0:0:0:
350,290,52707,1,0,1:0:0:0:
417,75,53065,6,0,P|473:132|486:217,1,143.999995605469,4|8,1:0|1:0,0:0:0:0:
414,237,53600,2,0,P|358:180|345:95,1,143.999995605469,4|0,1:0|1:3,0:0:0:0:
256,50,54136,2,0,L|141:56,1,107.999996704102,8|0,1:0|1:0,0:0:0:0:
25,162,54672,2,0,P|36:196|40:232,1,71.9999978027344,4|8,1:3|1:0,0:0:0:0:
226,327,55208,6,0,P|316:325|341:265,1,143.999995605469,4|0,1:0|1:0,0:0:0:0:
301,184,55743,1,0,1:0:0:0:
301,184,55922,2,0,P|306:152|331:38,1,143.999995605469,8|0,1:0|1:0,0:0:0:0:
435,20,56458,1,0,1:0:0:0:
485,194,56815,5,0,1:0:0:0:
424,274,56993,1,8,1:0:0:0:
323,277,57172,1,0,1:0:0:0:
135,349,57529,5,0,1:0:0:0:
28,177,57886,1,4,1:0:0:0:
72,86,58065,2,0,P|121:103|157:134,1,71.9999978027344,2|2,1:3|1:3,0:0:0:0:
218,54,58422,2,0,P|314:82|365:72,1,143.999995605469,8|0,1:0|1:0,0:0:0:0:
449,21,58958,1,2,1:3:0:0:
478,124,59136,2,0,L|474:179,3,35.9999989013672,8|0|0|0,1:0|0:0|1:0|1:0,0:0:0:0:
489,212,59493,6,0,P|445:332|425:348,1,143.999995605469,4|8,1:0|1:0,0:0:0:0:
332,309,60029,2,0,P|267:293|186:296,1,143.999995605469,4|0,1:0|1:0,0:0:0:0:
103,359,60565,1,8,1:0:0:0:
0,207,61100,1,0,1:0:0:0:
72,254,61279,2,0,P|81:221|83:183,1,71.9999978027344,8|4,1:0|1:3,0:0:0:0:
58,100,61636,6,0,P|37:67|29:39,2,47.9999985351563,8|4|8,1:0|1:3|1:0,0:0:0:0:
129,109,61993,2,0,L|151:62,2,47.9999985351563,4|4|8,1:3|1:3|1:0,0:0:0:0:
164,171,62350,1,4,1:0:0:0:
332,16,62707,2,0,L|418:27,1,71.9999978027344,8|4,1:0|1:0,0:0:0:0:
487,220,63421,1,4,1:2:0:0:
303,268,63956,2,0,L|306:196,1,71.9999978027344,0|8,1:0|1:0,0:0:0:0:
276,372,64492,5,4,1:0:0:0:
276,372,64849,1,2,0:0:0:0:
276,372,65208,2,0,P|165:337|148:337,1,120,0|2,1:0|0:0,0:0:0:0:
3,249,65922,2,0,P|11:277|15:307,2,60,2|0|0,0:0|1:0|1:0,0:0:0:0:
2,69,66636,2,0,P|38:97|122:123,1,120,8|2,1:0|0:0,0:0:0:0:
254,18,67350,2,0,P|241:59|244:123,1,90,0|0,1:0|0:0,0:0:0:0:
346,189,68064,1,8,1:0:0:0:
505,20,68599,5,0,1:0:0:0:
434,76,68778,2,0,L|366:80,1,60,2|0,0:0|1:0,0:0:0:0:
335,161,69135,2,0,L|275:157,1,60,0|2,1:0|0:0,0:0:0:0:
196,113,69492,2,0,L|136:117,1,60,8|2,1:0|0:0,0:0:0:0:
53,79,69850,6,0,P|38:142|54:212,1,120,0|2,1:0|0:0,0:0:0:0:
22,281,70385,1,0,1:0:0:0:
22,281,70564,2,0,P|70:268|133:293,1,120,8|2,1:0|0:0,0:0:0:0:
208,342,71100,1,0,0:0:0:0:
208,342,71279,2,0,P|256:355|319:330,1,120,0|0,1:0|1:0,0:0:0:0:
463,223,71992,2,0,P|465:277|487:336,2,90,8|2|0,1:0|0:0|1:0,0:0:0:0:
416,145,72707,2,0,P|432:115|419:47,1,90,0|0,1:0|1:0,0:0:0:0:
295,30,73242,1,0,1:0:0:0:
244,104,73421,2,0,L|150:114,1,90,8|4,1:0|1:3,0:0:0:0:
50,313,74135,6,0,B|105:301|105:301|165:339|165:339|227:330,1,180,0|8,1:0|1:0,0:0:0:0:
483,286,75206,1,2,0:0:0:0:
463,358,80206,5,4,1:0:0:0:
411,284,80384,2,0,L|416:241,2,30,0|0|8,0:0|1:0|1:0,0:0:0:0:
344,345,80742,2,0,L|284:354,1,60,8|8,1:0|1:0,0:0:0:0:
200,321,81099,1,2,1:3:0:0:
200,321,81456,5,8,1:0:0:0:
190,231,81634,1,2,1:3:0:0:
176,320,81813,1,8,1:0:0:0:
2,366,82170,2,0,P|24:332|46:298,1,60,0|2,1:0|1:3,0:0:0:0:
108,151,82706,5,4,1:2:0:0:
139,67,82884,2,0,L|133:21,2,30,0|0|8,1:0|1:0|1:0,0:0:0:0:
130,156,83241,1,0,1:0:0:0:
219,156,83419,2,0,L|269:158,2,30,4|0|0,1:3|1:0|1:0,0:0:0:0:
134,187,83776,1,4,1:3:0:0:
185,261,83955,2,0,L|209:296,2,30,4|0|2,1:3|1:0|1:3,0:0:0:0:
344,344,84491,6,0,P|364:322|380:297,2,60,0|0|8,1:0|1:0|1:0,0:0:0:0:
305,262,85026,1,0,1:0:0:0:
341,179,85205,1,8,1:0:0:0:
429,163,85384,2,0,P|449:141|465:116,2,60,8|0|8,1:0|0:0|1:3,0:0:0:0:
326,75,86009,2,0,P|276:75|231:78,1,90,8|12,1:0|1:3,0:0:0:0:
