osu file format v14

[General]
AudioFilename: audio.mp3
AudioLeadIn: 0
PreviewTime: 45743
Countdown: 0
SampleSet: Soft
StackLeniency: 0.7
Mode: 0
LetterboxInBreaks: 0
WidescreenStoryboard: 1

[Editor]
Bookmarks: 22351,27350,27440,27529,27618,27708,27797,27886,27975,28065,86276
DistanceSpacing: 2.2
BeatDivisor: 8
GridSize: 32
TimelineZoom: 1.9

[Metadata]
Title:Munou (TV Size)
TitleUnicode:無能 (TV Size)
Artist:oesterreich
ArtistUnicode:österreich
Creator:Tsumugi-chan
Version:Cami's Insane
Source:東京喰種√A
Tags:tokyo ghoul osterreich anime japanese square root a kunimitsu takahashi 高橋國光 ai kamano 鎌野愛 haisuinonasa ハイスイノナサ cami myxo myxomatosis desperate-kun smozit
BeatmapID:2340388
BeatmapSetID:1118528

[Difficulty]
HPDrainRate:7
CircleSize:4.4
OverallDifficulty:7
ApproachRate:8
SliderMultiplier:1.4
SliderTickRate:1

[Events]
//Background and Video events
0,0,"kanae.jpg",0,0
//Break Periods
//Storyboard Layer 0 (Background)
//Storyboard Layer 1 (Fail)
//Storyboard Layer 2 (Pass)
//Storyboard Layer 3 (Foreground)
//Storyboard Layer 4 (Overlay)
//Storyboard Sound Samples

[TimingPoints]
210,357.142857142857,7,2,1,30,1,0
2709,357.142857142857,6,2,1,30,1,0
2709,-200,6,2,1,30,0,0
4851,357.142857142857,7,2,1,50,1,0
6636,-100,7,2,1,50,0,0
7350,357.142857142857,5,2,1,50,1,0
8421,-100,5,2,69,50,0,0
9135,-100,5,2,1,50,0,0
9850,-100,5,2,1,50,0,0
10742,-100,5,2,1,50,0,0
11278,-100,5,2,1,50,0,0
13064,-100,5,2,1,50,0,0
13777,357.142857142857,7,2,1,50,1,0
14491,-100,7,2,1,50,0,0
15027,-100,7,2,1,50,0,0
15919,-100,7,2,1,50,0,0
16280,357.142857142857,5,2,1,50,1,0
16815,-100,5,2,1,50,0,0
18066,357.142857142857,7,2,1,50,1,0
18066,-100,7,2,1,50,0,0
19941,-117.647058823529,7,2,1,50,0,0
20566,357.142857142857,6,2,1,50,1,0
22351,-100,6,2,1,50,0,0
22708,357.142857142857,7,2,1,50,1,0
25029,-100,7,2,69,50,0,0
25208,357.142857142857,4,2,69,50,1,0
25386,-100,4,2,69,50,0,0
26993,-100,4,2,1,50,0,0
27350,-100,4,2,70,50,0,0
28065,-133.333333333333,4,2,1,50,0,0
36636,-100,4,2,1,50,0,0
40565,-100,4,2,1,50,0,0
43065,357.142857142857,6,2,1,50,1,0
43065,-76.9230769230769,6,2,1,50,0,0
43600,-90.9090909090909,6,2,1,50,0,0
44136,-142.857142857143,6,2,1,50,0,0
44493,-100,6,2,1,50,0,0
45923,357.142857142857,7,2,1,70,1,0
45923,-66.6666666666667,7,2,1,70,0,0
46280,-100,7,2,1,70,0,0
48065,-100,7,2,1,70,0,0
48423,357.142857142857,6,2,1,70,1,0
48423,-80,6,2,1,70,0,0
49673,-100,6,2,1,70,0,0
50565,357.142857142857,7,2,1,70,1,0
50565,-80,7,2,1,70,0,0
51100,-100,7,2,1,70,0,0
51636,-133.333333333333,7,2,1,70,0,0
52172,-100,7,2,1,70,0,0
52350,-76.9230769230769,7,2,1,70,0,0
52707,-66.6666666666667,7,2,1,70,0,0
53065,357.142857142857,6,2,1,70,1,0
53065,-80,6,2,1,70,0,0
53779,-100,6,2,1,70,0,0
54136,-100,6,2,1,70,0,0
55208,357.142857142857,4,2,1,70,1,0
55208,-66.6666666666667,4,2,1,70,0,0
55565,-100,4,2,1,70,0,0
59136,-66.6666666666667,4,2,1,70,0,0
60029,-80,4,2,1,70,0,0
60565,-100,4,2,1,70,0,0
62350,357.142857142857,3,2,1,70,1,0
62350,-76.9230769230769,3,2,1,70,0,0
62885,-90.9090909090909,3,2,1,70,0,0
63421,357.142857142857,5,2,1,70,1,0
63421,-142.857142857143,5,2,1,70,0,0
64135,-100,5,2,1,70,0,0
65208,357.142857142857,6,2,1,50,1,0
65208,-200,6,2,1,50,0,0
67350,357.142857142857,7,2,1,50,1,0
67350,-200,6,2,1,50,0,0
69492,-100,6,2,1,50,0,0
69850,357.142857142857,4,2,1,50,1,0
69850,-200,6,2,1,50,0,0
74135,357.142857142857,3,2,1,50,1,0
74135,-200,6,2,1,50,0,0
75206,-100,3,2,1,50,0,0
75742,357.142857142857,7,2,1,40,1,0
78242,357.142857142857,4,2,1,40,1,0
80206,-100,4,2,1,40,0,0
81099,357.142857142857,5,2,1,50,1,0
82349,-100,5,2,1,50,0,0
82706,-100,5,2,1,50,0,0
82884,357.142857142857,4,2,1,50,1,0
84134,357.142857142857,6,2,1,50,1,0
85741,-100,6,3,1,50,0,0

[Colours]
Combo1 : 202,0,101
Combo2 : 255,157,206

[HitObjects]
256,352,210,5,2,0:0:0:0:
264,275,388,1,0,0:0:0:0:
330,147,745,5,2,0:0:0:0:
326,228,923,1,0,0:0:0:0:
326,228,1281,5,0,0:0:0:0:
285,205,1459,1,2,0:0:0:0:
239,201,1638,1,0,0:0:0:0:
194,215,1816,1,2,0:0:0:0:
57,280,1995,5,2,0:0:0:0:
98,302,2173,1,0,0:0:0:0:
144,306,2352,1,2,0:0:0:0:
188,292,2530,1,0,0:0:0:0:
194,215,2709,6,0,P|193:198|186:166,1,35,2|0,0:0|0:0,0:0:0:0:
127,134,3066,2,0,P|124:116|124:99,1,35,2|2,0:0|0:0,0:0:0:0:
173,39,3423,1,2,0:0:0:0:
326,228,3780,5,2,0:0:0:0:
366,250,3958,1,2,0:0:0:0:
412,254,4137,1,2,0:0:0:0:
457,240,4315,1,0,0:0:0:0:
464,164,4494,5,2,0:0:0:0:
509,156,4672,1,2,0:0:0:0:
471,88,4851,5,4,1:0:0:0:
471,88,5029,2,0,P|333:102|249:109,2,210,0|8|0,1:0|1:0|1:0,0:0:0:0:
286,34,6458,1,0,1:0:0:0:
261,107,6636,2,0,P|265:144|271:180,1,70,0|0,1:0|0:0,0:0:0:0:
177,361,6993,2,0,P|173:326|168:292,1,70,8|0,1:0|0:0,0:0:0:0:
215,231,7350,5,0,1:0:0:0:
215,231,7528,2,0,P|304:211|435:197,1,210,0|8,1:0|1:0,0:0:0:0:
421,198,8421,6,0,P|385:193|327:181,1,70,2|0,1:0|0:0,0:0:0:0:
295,133,8689,2,0,P|308:165|319:198,1,70,2|0,1:0|0:0,0:0:0:0:
302,275,8957,1,10,1:0:0:0:
302,275,9135,6,0,P|233:294|163:318,1,140,0|0,1:0|0:0,0:0:0:0:
72,199,9671,1,2,0:0:0:0:
107,131,9850,2,0,P|103:213|104:271,1,140,8|0,1:0|0:0,0:0:0:0:
168,316,10385,2,0,P|202:306|248:286,1,70,8|0,1:0|0:0,0:0:0:0:
302,112,10742,2,0,P|305:147|311:182,1,70,0|0,1:0|0:0,0:0:0:0:
358,243,11099,1,0,0:0:0:0:
358,243,11278,2,0,P|307:233|257:219,1,105,8|2,1:0|0:0,0:0:0:0:
255,218,11635,1,0,1:0:0:0:
104,214,11814,2,0,P|208:203|310:181,2,210,0|8|0,1:0|1:0|1:0,0:0:0:0:
41,169,13064,5,2,0:0:0:0:
78,102,13242,1,2,0:0:0:0:
39,37,13421,1,0,1:0:0:0:
154,100,13599,5,8,1:0:0:0:
78,102,13777,2,0,P|138:92|229:72,1,140,2|0,1:2|0:0,0:0:0:0:
342,124,14312,1,2,0:0:0:0:
305,191,14491,2,0,L|288:53,1,140,8|0,1:0|0:0,0:0:0:0:
215,75,15027,6,0,L|223:144,1,70,0|2,1:0|0:0,0:0:0:0:
128,239,15384,1,0,1:0:0:0:
128,239,15563,2,0,P|160:226|194:216,1,70,0|0,1:0|0:0,0:0:0:0:
259,256,15919,1,8,1:0:0:0:
434,303,16098,5,0,0:0:0:0:
372,355,16280,1,2,1:3:0:0:
292,336,16458,1,0,1:0:0:0:
292,336,16547,1,2,1:3:0:0:
292,336,16637,1,0,1:0:0:0:
212,317,16815,2,0,P|207:241|201:166,1,140,2|0,1:3|1:0,0:0:0:0:
252,55,17351,6,0,P|255:90|258:125,1,70,8|0,1:0|0:0,0:0:0:0:
287,149,17619,2,0,P|324:145|372:141,1,70,8|0,1:0|0:0,0:0:0:0:
461,182,17888,5,8,1:0:0:0:
387,166,18066,2,0,P|377:96|373:26,1,140,0|2,1:0|1:3,0:0:0:0:
423,84,18601,1,0,0:0:0:0:
347,99,18780,2,0,P|314:103|260:115,1,70,8|0,1:0|1:0,0:0:0:0:
90,147,19137,2,0,P|160:156|229:170,1,140,0|2,1:0|0:0,0:0:0:0:
285,228,19673,1,8,1:1:0:0:
285,228,19941,2,0,P|275:274|264:356,1,119.000002269745,2|2,0:0|0:0,0:0:0:0:
285,228,20566,6,0,P|293:193|299:142,1,70,4|0,1:0|0:0,0:0:0:0:
254,94,20923,2,0,P|191:83|104:74,1,140,2|8,3:3|1:0,0:0:0:0:
115,74,21637,5,2,0:0:0:0:
66,134,21816,1,4,0:0:0:0:
115,192,21994,2,0,P|124:228|129:270,1,70,0|0,0:0|1:0,0:0:0:0:
52,333,22351,1,8,1:0:0:0:
52,333,22708,6,0,P|121:318|190:306,1,140,4|8,1:0|1:0,0:0:0:0:
240,248,23243,2,0,P|275:243|309:233,1,70,2|2,0:0|1:3,0:0:0:0:
493,310,23600,2,0,P|458:314|425:325,1,70,8|0,1:0|0:0,0:0:0:0:
425,325,23958,5,0,1:0:0:0:
366,277,24135,1,2,0:0:0:0:
379,201,24314,1,2,0:0:0:0:
315,156,24493,2,0,P|306:107|293:40,1,105,8|0,1:0|0:0,0:0:0:0:
265,28,24850,1,8,1:0:0:0:
184,86,25029,5,2,1:0:0:0:
120,37,25208,1,4,1:2:0:0:
73,98,25386,1,0,1:0:0:0:
73,98,25475,1,8,1:0:0:0:
73,98,25565,1,8,1:0:0:0:
132,146,25743,1,8,1:3:0:0:
309,180,25922,5,0,0:0:0:0:
356,241,26100,1,0,1:0:0:0:
297,289,26279,1,4,3:0:0:0:
255,234,26458,1,0,0:0:0:0:
255,234,26547,1,0,1:0:0:0:
255,234,26636,6,0,P|209:226|147:220,2,105,8|0|2,1:0|0:0|0:0,0:0:0:0:
372,142,27350,5,2,1:0:0:0:
375,124,27439,1,2,1:0:0:0:
357,121,27528,1,2,1:0:0:0:
354,138,27618,1,2,1:0:0:0:
379,152,27708,5,2,1:0:0:0:
385,116,27797,1,2,1:0:0:0:
349,110,27886,1,2,1:0:0:0:
343,144,27976,1,0,1:0:0:0:
364,130,28065,5,0,3:0:0:0:
291,40,28422,1,0,2:0:0:0:
184,85,28779,2,0,P|192:138|194:194,1,105.000004005432,8|0,0:0|0:0,0:0:0:0:
148,254,29493,5,0,3:0:0:0:
221,344,29850,1,0,0:0:0:0:
328,299,30208,2,0,P|319:245|318:190,1,105.000004005432,8|0,1:0|2:0,0:0:0:0:
317,194,31279,5,0,3:0:0:0:
148,254,31636,2,0,P|202:255|259:263,1,105.000004005432,8|2,1:0|0:0,0:0:0:0:
252,261,32172,1,2,0:0:0:0:
252,261,32350,5,0,1:0:0:0:
367,249,32707,1,0,0:0:0:0:
335,360,33065,2,0,P|281:366|220:374,1,105.000004005432,8|4,1:0|0:0,0:0:0:0:
259,122,33779,5,0,1:0:0:0:
145,135,34136,1,2,0:0:0:0:
166,81,34315,5,8,1:0:0:0:
189,28,34493,2,0,L|196:69,3,26.2500010013581,2|0|0|0,0:0|0:0|0:0|0:0,0:0:0:0:
145,135,34850,6,0,L|99:129,3,26.2500010013581,2|0|0|0,0:0|0:0|0:0|0:0,0:0:0:0:
50,171,35208,5,0,0:0:0:0:
121,261,35565,1,8,1:3:0:0:
32,335,35922,2,0,P|28:308|21:267,1,52.5000020027161,0|2,1:3|0:0,0:0:0:0:
23,283,36457,5,8,1:0:0:0:
115,359,36636,2,0,P|148:355|200:346,1,70,0|0,1:0|1:0,0:0:0:0:
263,261,36993,2,0,P|228:266|193:272,1,70,6|8,0:0|1:0,0:0:0:0:
130,227,37350,2,0,P|120:137|119:72,1,140
263,22,37886,5,0,1:0:0:0:
187,35,38065,2,0,P|193:70|193:105,1,70,0|0,1:0|1:0,1:0:0:0:
327,180,38422,2,0,P|318:128|318:76,1,105,8|0,1:0|0:0,0:0:0:0:
345,49,38779,6,0,P|384:54|437:59,1,70,0|0,1:0|1:0,0:0:0:0:
475,105,39136,2,0,P|474:141|468:191,1,70,2|8,0:0|1:0,0:0:0:0:
298,251,39493,2,0,P|201:236|110:228,1,175,2|0,0:0|0:0,0:0:0:0:
93,252,40029,1,8,1:0:0:0:
110,332,40207,1,0,1:0:0:0:
110,332,40565,6,0,P|118:267|125:220,1,105,8|0,1:0|0:0,0:0:0:0:
100,196,40922,6,0,P|66:185|31:180,1,70,0|0,1:0|1:0,0:0:0:0:
177,88,41279,2,0,P|203:64|225:37,1,70,2|8,1:3|1:0,0:3:0:0:
233,209,41636,2,0,P|241:243|254:276,1,70,2|0,1:3|1:0,0:0:0:0:
170,164,41993,5,0,1:0:0:0:
254,276,42172,1,8,1:0:0:0:
156,262,42350,1,8,1:0:0:0:
272,182,42529,1,4,1:3:0:0:
272,182,42886,5,8,1:0:0:0:
156,262,43065,2,0,P|94:223|17:234,1,136.499993751526,4|0,1:0|0:0,0:0:0:0:
0,265,43422,1,8,1:0:0:0:
171,165,43600,6,0,P|181:112|146:52,1,115.50000352478,4|0,1:0|0:0,0:0:0:0:
114,42,43957,1,0,1:0:0:0:
272,182,44136,6,0,P|326:155|358:76,2,146.999995513916,4|0|6,1:0|0:0|0:0,0:0:0:0:
272,182,45743,5,2,0:0:0:0:
120,204,45923,6,0,B|193:221|188:165|273:182,1,157.500006008148,4|0,1:0|0:0,0:0:0:0:
272,182,46280,2,0,P|276:224|282:267,1,70,0|0,1:0|0:0,0:0:0:0:
142,373,46637,2,0,P|139:338|135:304,1,70,8|0,1:0|0:0,0:0:0:0:
208,281,46994,1,0,1:0:0:0:
58,289,47173,1,0,1:0:0:0:
208,281,47351,6,0,P|206:210|193:123,1,140,2|0,0:3|0:0,0:0:0:0:
345,0,47887,2,0,P|346:35|352:79,1,70,0|8,1:0|1:0,0:0:0:0:
350,69,48423,6,0,B|199:-21|111:132,2,262.5,0|0|0,1:0|1:0|1:0,0:0:0:0:
414,111,49673,1,2,0:3:0:0:
370,174,49851,1,0,1:0:0:0:
298,145,50030,1,2,1:3:0:0:
227,175,50208,1,8,1:0:0:0:
148,291,50386,5,0,0:0:0:0:
215,251,50565,2,0,P|214:164|207:76,1,175,0|2,1:0|1:3,0:0:0:0:
81,251,51100,2,0,P|82:181|88:111,1,140,8|0,1:0|1:0,0:0:0:0:
296,293,51636,2,0,P|295:240|290:188,1,105.000004005432,0|2,1:0|1:3,0:0:0:0:
215,251,52172,5,0,1:0:0:0:
376,319,52350,2,0,B|459:326|486:246,1,136.499993751526,8|0,1:0|0:0,0:0:0:0:
457,210,52707,2,0,B|405:280|471:359,1,157.500006008148,0|0,1:0|0:0,0:0:0:0:
510,334,53065,6,0,B|464:251|344:274,1,175,4|8,1:0|1:0,0:0:0:0:
172,152,53600,2,0,B|119:162|96:120,1,87.5,4|0,1:0|0:0,0:0:0:0:
291,304,53957,5,0,1:3:0:0:
240,248,54136,2,0,P|245:195|248:143,2,105,8|0|4,1:0|1:0|1:3,0:0:0:0:
201,81,54850,1,8,1:0:0:0:
170,281,55029,5,2,0:0:0:0:
149,355,55208,2,0,P|144:297|133:173,1,157.500006008148,4|0,1:0|0:0,0:0:0:0:
112,166,55565,2,0,P|77:169|42:175,1,70,0|0,1:0|1:0,0:0:0:0:
240,248,55922,2,0,P|274:244|309:238,1,70,8|0,1:0|0:0,0:0:0:0:
355,176,56279,1,0,1:0:0:0:
355,176,56458,1,0,1:0:0:0:
149,91,56636,5,2,0:3:0:0:
107,156,56815,1,0,1:0:0:0:
180,184,56993,1,8,1:0:0:0:
221,118,57172,2,0,P|290:99|370:73,1,140,0|0,1:0|1:0,0:0:0:0:
355,78,57886,6,0,P|379:153|389:227,1,140,4|2,1:0|1:3,0:0:0:0:
347,279,58422,1,8,1:0:0:0:
275,252,58600,1,2,0:3:0:0:
107,156,58779,5,0,1:0:0:0:
149,91,58958,1,2,1:3:0:0:
221,118,59136,1,8,1:0:0:0:
187,191,59315,1,0,1:0:0:0:
187,191,59404,1,0,1:0:0:0:
187,191,59493,6,0,B|85:200|127:246|25:257,1,157.500006008148,4|0,1:0|0:0,0:0:0:0:
46,253,59850,1,8,1:0:0:0:
264,222,60029,6,0,B|298:147|249:158|283:83,1,131.25,4|0,1:0|0:0,0:0:0:0:
278,95,60386,1,0,1:0:0:0:
198,273,60565,5,8,1:0:0:0:
205,280,61100,1,0,1:0:0:0:
205,280,61190,1,0,1:0:0:0:
205,280,61279,1,8,1:0:0:0:
210,356,61458,1,4,1:3:0:0:
136,380,61636,5,8,1:0:0:0:
90,356,61755,2,0,P|101:336|111:297,1,46.6666666666667,4|8,1:3|1:0,0:0:0:0:
43,196,61993,5,4,1:3:0:0:
89,220,62112,2,0,P|96:197|107:177,1,46.6666666666667,4|8,1:3|1:0,0:0:0:0:
184,121,62350,6,0,P|158:60|60:39,1,136.499993751526,4|0,1:0|0:0,0:0:0:0:
54,60,62707,1,8,1:0:0:0:
257,156,62885,6,0,P|309:162|363:102,1,115.50000352478,4|0,1:0|0:0,0:0:0:0:
367,84,63242,1,0,2:0:0:0:
191,201,63421,6,0,P|151:249|182:336,1,146.999995513916,4|0,1:2|1:0,0:0:0:0:
230,276,64135,1,8,1:0:0:0:
230,276,64492,6,0,P|204:229|59:210,1,210,4|0,1:0|0:0,0:0:0:0:
61,208,65208,6,0,P|97:203|134:197,1,70,0|2,1:0|0:0,0:0:0:0:
266,124,65922,2,0,L|274:90,1,35,2|0,0:0|1:0,0:0:0:0:
348,111,66279,2,0,L|339:144,1,35,0|2,1:0|0:0,0:0:0:0:
201,165,66636,5,8,1:0:0:0:
141,116,66815,1,0,0:0:0:0:
78,161,66993,1,2,0:0:0:0:
28,102,67172,2,0,L|21:56,1,35,2|0,0:0|1:0,0:0:0:0:
22,67,67617,6,0,B|140:45|127:131|242:126,1,227.5,0|2,0:0|0:0,0:0:0:0:
296,79,68957,5,0,1:0:0:0:
238,131,69135,1,0,1:0:0:0:
258,205,69314,1,2,0:0:0:0:
315,154,69492,1,8,1:0:0:0:
238,131,69671,1,2,0:0:0:0:
199,254,69850,6,0,P|159:260|127:263,1,70,0|2,1:0|0:0,0:0:0:0:
22,67,70385,5,0,1:0:0:0:
87,108,70564,2,0,P|121:104|156:99,1,70,8|2,1:0|0:0,0:0:0:0:
317,270,71100,5,0,0:0:0:0:
250,231,71278,2,0,L|243:183,1,35,0|0,1:0|0:0,0:0:0:0:
170,177,71635,2,0,P|148:176|125:182,1,35,0|2,1:0|0:0,0:0:0:0:
89,239,71992,5,8,1:0:0:0:
205,293,72260,1,2,0:0:0:0:
98,365,72528,1,0,1:0:0:0:
132,299,72975,2,0,P|183:287|226:282,1,87.5,0|8,1:0|1:0,0:0:0:0:
376,208,73689,5,4,1:3:0:0:
301,119,73957,5,2,0:0:0:0:
355,65,74135,2,0,P|349:107|345:145,1,70,0|0,1:0|0:0,0:0:0:0:
396,380,74670,2,0,P|404:328|410:276,1,105,8|2,1:0|0:0,0:0:0:0:
418,283,75742,5,2,2:0:0:0:
418,283,75831,1,2,0:0:0:0:
418,283,75920,1,2,0:0:0:0:
423,244,76099,1,0,0:0:0:0:
382,143,76277,5,2,0:0:0:0:
377,182,76456,1,2,0:0:0:0:
130,143,76813,5,2,0:0:0:0:
135,182,76992,1,2,2:0:0:0:
94,283,77349,5,2,2:0:0:0:
89,244,77528,1,2,0:0:0:0:
256,192,77884,5,2,0:0:0:0:
256,192,78242,5,2,0:0:0:0:
275,224,78420,1,2,2:0:0:0:
260,259,78599,1,0,0:0:0:0:
161,308,78777,5,2,0:0:0:0:
188,282,78956,1,2,0:0:0:0:
188,282,79313,5,2,0:0:0:0:
220,303,79492,1,2,2:0:0:0:
257,308,79670,1,2,2:0:0:0:
294,297,79849,1,2,0:0:0:0:
323,271,80027,1,2,2:0:0:0:
189,113,80206,5,4,1:0:0:0:
256,231,80384,1,0,0:0:0:0:
256,231,80474,1,0,1:0:0:0:
256,231,80563,1,8,1:0:0:0:
374,164,80742,1,8,1:0:0:0:
307,46,80920,1,8,1:0:0:0:
286,143,81099,5,2,1:3:0:0:
286,143,81456,1,8,1:0:0:0:
422,223,81634,5,2,1:3:0:0:
323,271,81813,1,8,1:0:0:0:
400,300,81991,1,0,1:0:0:0:
348,197,82170,1,0,1:0:0:0:
400,300,82349,6,0,P|414:200|419:136,1,140,2|4,1:3|1:2,0:0:0:0:
190,100,82884,5,0,1:0:0:0:
190,100,82973,1,0,1:0:0:0:
190,100,83062,1,8,1:0:0:0:
203,175,83241,1,0,1:0:0:0:
222,249,83419,2,0,L|231:295,2,35,4|0|0,1:3|1:0|1:0,0:0:0:0:
262,126,83776,5,4,1:3:0:0:
149,229,83955,2,0,P|131:236|106:238,1,35,4|0,1:3|1:0,0:0:0:0:
83,217,84134,5,2,1:3:0:0:
244,52,84491,5,0,1:0:0:0:
190,100,84669,1,0,1:0:0:0:
262,126,84848,2,0,P|304:119|339:118,1,70,8|0,1:0|1:0,0:0:0:0:
380,177,85205,1,8,1:0:0:0:
355,297,85384,5,8,1:0:0:0:
355,297,85563,1,0,0:0:0:0:
322,228,85741,5,8,1:3:0:0:
312,361,86009,5,8,1:0:0:0:
431,303,86276,5,12,1:3:0:0:
