osu file format v14

[General]
AudioFilename: audio.mp3
AudioLeadIn: 0
PreviewTime: 45743
Countdown: 0
SampleSet: Soft
StackLeniency: 0.3
Mode: 0
LetterboxInBreaks: 0
WidescreenStoryboard: 0

[Editor]
DistanceSpacing: 0.2
BeatDivisor: 12
GridSize: 16
TimelineZoom: 1.9

[Metadata]
Title:Munou (TV Size)
TitleUnicode:無能 (TV Size)
Artist:oesterreich
ArtistUnicode:österreich
Creator:Tsumugi-chan
Version:Absolution
Source:東京喰種√A
Tags:tokyo ghoul osterreich anime japanese square root a kunimitsu takahashi 高橋國光 ai kamano 鎌野愛 haisuinonasa ハイスイノナサ cami myxo myxomatosis desperate-kun smozit
BeatmapID:2336276
BeatmapSetID:1118528

[Difficulty]
HPDrainRate:7
CircleSize:4
OverallDifficulty:8
ApproachRate:9
SliderMultiplier:1.4
SliderTickRate:1

[Events]
//Background and Video events
0,0,"touka.jpeg",0,0
//Break Periods
//Storyboard Layer 0 (Background)
//Storyboard Layer 1 (Fail)
//Storyboard Layer 2 (Pass)
//Storyboard Layer 3 (Foreground)
//Storyboard Layer 4 (Overlay)
//Storyboard Sound Samples

[TimingPoints]
210,357.142857142857,7,2,1,30,1,0
2709,357.142857142857,6,2,1,30,1,0
4851,357.142857142857,7,2,1,50,1,0
6636,-125,7,2,1,50,0,0
7350,357.142857142857,5,2,1,50,1,0
8421,-71.4285714285714,5,2,69,50,0,0
9135,-71.4285714285714,5,2,1,50,0,0
9850,-100,5,2,1,50,0,0
10742,-200,5,2,1,50,0,0
11278,-100,5,2,1,50,0,0
13064,-125,5,2,1,50,0,0
13777,357.142857142857,7,2,1,50,1,0
14491,-250,7,2,1,50,0,0
15027,-125,7,2,1,50,0,0
15919,-100,7,2,1,50,0,0
16280,357.142857142857,5,2,1,50,1,0
16815,-76.9230769230769,5,2,1,50,0,0
18066,357.142857142857,7,2,1,50,1,0
18066,-166.666666666667,7,2,1,50,0,0
20566,357.142857142857,6,2,1,50,1,0
22351,-125,6,2,1,50,0,0
22708,357.142857142857,7,2,1,50,1,0
25029,-100,7,2,69,50,0,0
25208,357.142857142857,4,2,69,50,1,0
25386,-100,4,2,69,50,0,0
26993,-166.666666666667,4,2,1,50,0,0
27350,-166.666666666667,4,2,70,50,0,0
28065,-333.333333333333,4,2,1,50,0,0
30208,-166.666666666667,4,2,1,50,0,0
34493,-125,4,2,1,50,0,0
35208,-142.857142857143,4,2,1,50,0,0
40565,-100,4,2,1,50,0,0
43065,357.142857142857,6,2,1,50,1,0
43065,-62.5,6,2,1,50,0,0
44493,-142.857142857143,6,2,1,50,0,0
45923,357.142857142857,7,2,1,70,1,0
45923,-71.4285714285714,7,2,1,70,0,0
46280,-83.3333333333333,7,2,1,70,0,0
48065,-142.857142857143,7,2,1,70,0,0
48423,357.142857142857,6,2,1,70,1,0
48423,-76.9230769230769,6,2,1,70,0,0
50565,357.142857142857,7,2,1,70,1,0
53065,357.142857142857,6,2,1,70,1,0
53065,-55.5555555555556,6,2,1,70,0,0
54136,-125,6,2,1,70,0,0
55208,357.142857142857,4,2,1,70,1,0
55208,-66.6666666666667,4,2,1,70,0,0
55565,-76.9230769230769,4,2,1,70,0,0
55922,-83.3333333333333,4,2,1,70,0,0
59136,-66.6666666666667,4,2,1,70,0,0
60029,-133.333333333333,4,2,1,70,0,0
60565,-83.3333333333333,4,2,1,70,0,0
62350,357.142857142857,3,2,1,70,1,0
62350,-83.3333333333333,3,2,1,70,0,0
62885,-125,3,2,1,70,0,0
63421,357.142857142857,5,2,1,70,1,0
63421,-125,5,2,1,70,0,0
65208,357.142857142857,6,2,1,50,1,0
67350,357.142857142857,7,2,1,50,1,0
69850,357.142857142857,4,2,1,50,1,0
73421,-76.9230769230769,4,2,1,50,0,0
74135,357.142857142857,3,2,1,50,1,0
74135,-125,3,2,1,50,0,0
75206,-250,3,2,1,50,0,0
75742,357.142857142857,7,2,1,40,1,0
78242,357.142857142857,4,2,1,40,1,0
80206,-41.6666666666667,4,2,1,40,0,0
81099,357.142857142857,5,2,1,50,1,0
82349,-50,5,2,1,50,0,0
82706,-41.6666666666667,5,2,1,50,0,0
82884,357.142857142857,4,2,1,50,1,0
84134,357.142857142857,6,2,1,50,1,0
85741,-100,6,3,1,50,0,0

[Colours]
Combo1 : 0,92,185
Combo2 : 183,255,255

[HitObjects]
17,173,210,5,2,0:0:0:0:
94,149,388,1,0,0:0:0:0:
495,173,745,5,2,0:0:0:0:
418,149,923,1,0,0:0:0:0:
102,171,1281,5,0,0:0:0:0:
179,195,1459,1,2,0:0:0:0:
410,171,1638,5,0,0:0:0:0:
333,195,1817,1,2,0:0:0:0:
179,216,1995,5,2,0:0:0:0:
256,192,2173,1,0,0:0:0:0:
333,216,2353,5,2,0:0:0:0:
256,192,2531,1,0,0:0:0:0:
272,96,2709,5,2,0:0:0:0:
248,19,2887,1,0,0:0:0:0:
240,288,3066,5,2,0:0:0:0:
264,365,3244,1,2,0:0:0:0:
256,192,3423,5,2,0:0:0:0:
17,173,3780,5,2,0:0:0:0:
94,149,3958,1,2,0:0:0:0:
118,226,4138,1,2,0:0:0:0:
41,250,4316,1,0,0:0:0:0:
43,78,4495,5,2,0:0:0:0:
190,165,4673,1,2,0:0:0:0:
337,252,4851,5,4,1:0:0:0:
270,305,5029,2,0,P|273:209|271:90,1,210,0|8,1:0|1:0,0:0:0:0:
269,0,6100,5,0,1:0:0:0:
269,0,6189,1,0,0:0:0:0:
269,0,6279,1,2,0:0:0:0:
329,47,6458,1,0,1:0:0:0:
271,95,6636,2,0,P|271:122|271:150,1,56,0|0,1:0|0:0,0:0:0:0:
270,305,6993,1,8,1:0:0:0:
103,254,7350,5,0,1:0:0:0:
180,230,7528,1,0,1:0:0:0:
436,357,7707,5,2,0:0:0:0:
359,381,7885,1,0,0:0:0:0:
373,217,8064,6,0,P|423:223|508:230,1,105,8|0,1:0|0:0,0:0:0:0:
499,213,8421,6,0,B|521:260|521:260|496:315,1,97.9999970092774,2|0,1:0|0:0,0:0:0:0:
375,305,8689,6,0,B|353:258|353:258|378:203,1,97.9999970092774,2|0,1:0|0:0,0:0:0:0:
394,202,8957,1,10,1:0:0:0:
429,39,9135,5,0,1:0:0:0:
384,107,9314,1,0,1:0:0:0:
384,107,9403,1,0,0:0:0:0:
384,107,9492,1,0,0:0:0:0:
451,151,9671,1,2,0:0:0:0:
496,89,9850,6,0,P|485:158|477:227,1,140,8|0,1:0|0:0,0:0:0:0:
258,146,10385,5,8,1:0:0:0:
194,102,10564,1,0,0:0:0:0:
194,102,10742,2,0,P|201:73|205:19,1,70,0|0,1:0|0:0,0:0:0:0:
75,0,11278,6,0,P|67:32|63:83,1,70,8|0,1:0|0:0,0:0:0:0:
47,82,11546,1,2,0:0:0:0:
56,100,11635,1,0,1:0:0:0:
156,195,11814,5,0,1:0:0:0:
212,247,11992,1,0,0:0:0:0:
150,291,12171,1,2,0:0:0:0:
93,238,12349,6,0,P|97:272|106:389,1,140,8|0,1:0|0:0,0:0:0:0:
273,200,12885,5,0,1:0:0:0:
341,241,13064,1,2,0:0:0:0:
341,241,13242,2,0,L|330:313,1,56,2|0,0:0|1:0,0:0:0:0:
496,368,13599,5,8,1:0:0:0:
428,327,13777,1,2,1:2:0:0:
428,327,13955,2,0,P|434:273|450:176,1,140,0|2,1:0|0:0,0:0:0:0:
456,189,14491,2,0,L|445:261,1,56,8|0,1:0|0:0,0:0:0:0:
143,135,15027,5,0,1:0:0:0:
83,87,15205,1,2,0:0:0:0:
150,52,15384,1,0,1:0:0:0:
209,99,15562,2,0,P|203:133|199:168,1,56,0|0,1:0|0:0,0:0:0:0:
198,243,15919,6,0,P|204:189|220:92,1,140,8|2,1:0|1:3,0:0:0:0:
282,55,16458,5,0,1:0:0:0:
290,58,16547,1,2,1:3:0:0:
298,61,16637,1,0,1:0:0:0:
353,166,16815,6,0,P|341:242|327:361,1,181.999991668702,2|0,1:3|1:0,0:0:0:0:
344,363,17351,5,8,1:0:0:0:
311,254,17619,5,8,1:0:0:0:
371,164,17887,5,8,1:0:0:0:
444,143,18066,6,0,P|466:145|496:149,1,41.9999987182618,0|0,1:0|1:0,0:0:0:0:
371,164,18423,1,2,1:3:0:0:
311,115,18601,1,0,0:0:0:0:
243,148,18780,2,0,P|221:150|191:154,1,41.9999987182618,8|0,1:0|1:0,0:0:0:0:
64,224,19137,5,0,1:0:0:0:
4,175,19315,1,0,1:0:0:0:
59,121,19494,1,2,0:0:0:0:
119,170,19673,1,8,1:1:0:0:
71,321,19851,6,0,P|73:341|75:362,1,41.9999987182618,2|2,0:0|0:0,0:0:0:0:
4,175,20208,1,0,1:0:0:0:
59,121,20387,1,4,0:0:0:0:
240,240,20566,5,4,1:0:0:0:
186,292,20745,1,0,0:0:0:0:
222,227,20923,1,2,3:3:0:0:
295,216,21101,1,0,1:0:0:0:
348,270,21280,1,8,1:0:0:0:
348,270,21637,5,2,0:0:0:0:
401,324,21816,1,4,0:0:0:0:
474,313,21994,1,0,0:0:0:0:
510,248,22172,1,0,1:0:0:0:
473,155,22351,6,0,P|444:170|427:188,1,56,8|2,1:0|0:0,0:0:0:0:
229,152,22708,6,0,P|269:131|293:105,1,70,4|2,1:0|0:0,0:0:0:0:
339,57,23065,1,8,1:0:0:0:
369,136,23243,1,2,0:0:0:0:
369,136,23333,1,2,0:0:0:0:
369,136,23422,1,2,1:3:0:0:
311,373,23600,6,0,P|302:313|283:220,1,140,8|0,1:0|1:0,0:0:0:0:
224,11,24136,5,2,0:0:0:0:
158,53,24315,1,2,0:0:0:0:
220,105,24493,1,8,1:0:0:0:
285,60,24672,1,2,0:0:0:0:
85,5,24850,6,0,P|77:37|73:88,1,70,8|2,1:0|1:0,0:0:0:0:
57,87,25118,1,0,1:0:0:0:
67,104,25207,1,4,1:2:0:0:
116,318,25386,5,0,1:0:0:0:
106,302,25475,1,8,1:0:0:0:
94,285,25565,1,8,1:0:0:0:
139,221,25743,1,8,1:3:0:0:
408,132,26071,5,0,1:0:0:0:
363,196,26249,1,4,3:0:0:0:
220,105,26547,5,0,1:0:0:0:
220,105,26636,1,8,1:0:0:0:
158,53,26815,1,4,1:3:0:0:
290,6,26993,6,0,P|293:32|298:64,1,41.9999987182618,4|2,1:3|0:0,0:0:0:0:
256,350,27350,5,2,1:0:0:0:
254,342,27440,1,2,1:0:0:0:
247,324,27529,1,2,1:0:0:0:
263,301,27618,1,2,1:0:0:0:
232,271,27708,1,2,1:0:0:0:
257,223,27797,1,2,1:0:0:0:
220,178,27886,1,2,1:0:0:0:
271,124,27975,1,0,1:0:0:0:
210,74,28065,6,0,P|213:53|215:32,1,41.9999987182618,0|0,3:0|2:0,0:0:0:0:
290,6,28779,6,0,P|293:32|298:64,1,41.9999987182618,8|0,0:0|0:0,0:0:0:0:
271,124,29493,1,0,3:0:0:0:
271,124,29850,5,0,0:0:0:0:
337,168,30208,2,0,P|377:160|424:155,1,83.9999974365235,8|0,1:0|2:0,0:0:0:0:
424,165,31279,6,0,P|403:167|382:172,1,41.9999987182618,0|0,3:0|0:0,0:0:0:0:
330,233,31636,2,0,L|345:315,1,83.9999974365235,8|2,1:0|0:0,0:0:0:0:
284,361,32172,1,2,0:0:0:0:
202,321,32350,6,0,L|217:238,1,83.9999974365235,0|0,1:0|0:0,0:0:0:0:
207,35,33065,5,8,1:0:0:0:
151,89,33422,2,0,P|155:109|157:130,1,41.9999987182618,4|0,0:0|0:0,0:0:0:0:
230,163,33779,2,0,P|271:154|312:147,1,83.9999974365235,0|2,1:0|0:0,0:0:0:0:
416,208,34315,5,8,1:0:0:0:
475,259,34493,6,0,P|466:279|455:302,3,28,2|0|0|0,0:0|0:0|0:0|0:0,0:0:0:0:
373,286,34850,6,0,P|367:273|361:260,3,28,2|0|0|0,0:0|0:0|0:0|0:0,0:0:0:0:
416,208,35208,6,0,P|464:200|512:189,1,97.9999970092774,0|8,0:0|1:3,0:0:0:0:
368,366,35922,5,0,1:3:0:0:
301,330,36100,2,0,P|270:334|240:341,1,48.9999985046387,2|0,0:0|0:0,0:0:0:0:
48,208,36457,5,8,1:0:0:0:
113,249,36636,1,0,1:0:0:0:
135,239,36725,1,2,0:0:0:0:
153,223,36814,1,0,1:0:0:0:
166,202,36903,1,2,0:0:0:0:
172,178,36993,1,6,0:0:0:0:
256,176,37172,6,0,P|242:128|237:80,1,97.9999970092774,8|0,1:0|1:0,0:0:0:0:
285,21,37707,1,0,0:0:0:0:
285,21,37886,1,0,1:0:0:0:
355,55,38065,6,0,P|361:78|364:102,1,48.9999985046387,0|0,1:0|1:0,1:0:0:0:
471,205,38422,6,0,P|460:256|452:300,1,97.9999970092774,8|0,1:0|1:0,0:0:0:0:
386,340,38957,1,0,1:0:0:0:
326,289,39136,2,0,P|295:295|269:300,1,48.9999985046387,2|8,0:0|1:0,0:0:0:0:
31,272,39493,5,2,0:0:0:0:
97,231,39672,1,0,1:0:0:0:
157,282,39850,1,0,1:0:0:0:
91,324,40029,1,8,1:0:0:0:
105,125,40207,6,0,P|107:98|110:66,1,48.9999985046387,0|0,1:0|1:0,0:0:0:0:
120,50,40565,6,0,P|116:108|111:176,1,105,8|0,1:0|0:0,0:0:0:0:
173,202,40922,5,0,1:0:0:0:
190,203,41012,1,2,0:0:0:0:
208,209,41101,1,0,1:0:0:0:
225,214,41190,1,2,0:0:0:0:
243,216,41279,1,2,1:3:0:0:
320,170,41457,1,8,1:0:0:0:
393,282,41636,5,2,1:3:0:0:
317,329,41815,1,0,1:0:0:0:
246,109,41993,5,0,1:0:0:0:
405,201,42172,1,8,1:0:0:0:
321,42,42350,5,8,1:0:0:0:
319,248,42528,1,4,1:3:0:0:
500,145,42707,1,2,1:2:0:0:
320,170,42886,5,8,1:0:0:0:
140,195,43065,6,0,B|223:175|229:248|318:240,1,168,4|0,1:0|0:0,0:0:0:0:
319,248,43422,1,8,1:0:0:0:
509,273,43600,6,0,B|426:253|420:326|331:318,1,168,4|0,1:0|0:0,0:0:0:0:
330,326,43957,1,0,1:0:0:0:
151,365,44136,5,4,1:0:0:0:
151,365,44493,5,2,2:0:0:0:
85,325,44672,1,0,0:0:0:0:
85,325,44761,1,2,2:0:0:0:
85,325,44850,1,2,0:0:0:0:
148,279,45029,1,2,0:0:0:0:
148,279,45207,1,6,0:0:0:0:
220,321,45386,1,2,0:0:0:0:
220,321,45475,1,2,2:0:0:0:
220,321,45565,1,2,0:0:0:0:
151,365,45743,5,2,0:0:0:0:
42,161,45923,6,0,B|122:143|113:196|204:189,1,146.999995513916,4|0,1:0|0:0,0:0:0:0:
204,198,46280,2,0,B|217:159|217:159|196:120,1,83.9999974365235,0|0,1:0|0:0,0:0:0:0:
361,24,46637,6,0,P|356:86|353:149,1,125.999996154785,8|0,1:0|0:0,0:0:0:0:
332,160,46994,1,0,1:0:0:0:
434,311,47173,5,0,1:0:0:0:
499,270,47351,1,2,0:3:0:0:
433,228,47530,1,0,1:0:0:0:
368,268,47708,1,0,0:0:0:0:
211,350,47887,5,0,1:0:0:0:
80,304,48065,6,0,B|115:291|115:291|149:300,1,73.4999977569581,8|0,1:0|0:0,0:0:0:0:
283,255,48423,6,0,B|213:234|212:293|121:283,1,136.499993751526,0|0,1:0|1:0,0:0:0:0:
146,265,48780,1,2,1:3:0:0:
3,316,48958,1,0,1:0:0:0:
32,245,49137,5,2,0:3:0:0:
211,350,49315,1,8,1:0:0:0:
368,268,49494,5,0,1:0:0:0:
481,345,49673,1,2,0:3:0:0:
481,345,49762,1,2,1:3:0:0:
481,345,49851,1,0,1:0:0:0:
384,368,50030,5,2,1:3:0:0:
489,189,50208,1,8,1:0:0:0:
489,189,50565,5,0,1:0:0:0:
426,141,50743,1,0,1:0:0:0:
418,217,50922,1,2,1:3:0:0:
494,102,51100,5,8,1:0:0:0:
340,116,51279,1,2,0:3:0:0:
430,243,51457,1,0,1:0:0:0:
403,37,51636,5,0,1:0:0:0:
251,123,51815,1,8,1:0:0:0:
337,275,51993,1,2,1:3:0:0:
489,189,52172,1,0,1:0:0:0:
340,116,52350,5,8,1:0:0:0:
191,43,52707,5,0,1:0:0:0:
262,6,53065,6,0,P|269:116|271:244,1,188.999994232178,4|0,1:0|0:0,0:0:0:0:
253,210,53422,1,8,1:0:0:0:
78,282,53600,6,0,B|175:267|169:341|255:338,1,188.999994232178,4|0,1:0|0:0,0:0:0:0:
270,354,53957,1,0,1:3:0:0:
438,233,54136,5,8,1:0:0:0:
512,283,54315,1,0,1:0:0:0:
512,283,54404,1,0,1:0:0:0:
512,283,54493,1,4,1:3:0:0:
445,326,54672,1,4,1:3:0:0:
378,284,54850,1,8,1:0:0:0:
191,43,55208,6,0,B|113:23|113:82|30:79,1,157.500006008148,4|0,1:0|0:0,0:0:0:0:
24,95,55565,2,0,B|8:54|8:54|27:9,1,90.9999958343508,0|0,1:0|1:0,0:0:0:0:
284,52,55922,6,0,P|288:119|289:197,1,125.999996154785,8|0,1:0|1:0,0:0:0:0:
271,194,56279,1,0,1:0:0:0:
155,306,56458,5,0,1:0:0:0:
0,247,56636,1,2,0:3:0:0:
124,147,56815,1,0,1:0:0:0:
96,229,56993,5,8,1:0:0:0:
24,95,57172,2,0,P|29:136|33:178,1,83.9999974365235,0|0,1:0|1:0,0:0:0:0:
257,319,57529,6,0,P|262:256|270:193,1,125.999996154785,0|0,1:0|0:0,0:0:0:0:
289,177,57886,1,4,1:0:0:0:
411,90,58065,1,2,1:3:0:0:
512,190,58243,1,2,1:3:0:0:
403,277,58422,5,8,1:0:0:0:
357,216,58600,1,2,0:3:0:0:
430,201,58779,1,0,1:0:0:0:
326,285,58958,1,2,1:3:0:0:
192,155,59136,6,0,P|196:92|204:29,1,105.000004005432,8|0,1:0|1:0,0:0:0:0:
229,0,59404,5,0,1:0:0:0:
229,0,59493,2,0,P|216:111|207:223,1,210.000008010865,4|8,1:0|1:0,0:0:0:0:
439,305,60029,6,0,P|434:242|426:179,1,105.000004005432,4|0,1:0|1:0,0:0:0:0:
407,171,60565,6,0,P|416:256|423:343,1,167.999994873047,8|0,1:0|2:0,0:0:0:0:
255,367,61100,5,0,1:0:0:0:
257,342,61190,1,0,1:0:0:0:
261,319,61279,1,8,1:0:0:0:
305,257,61458,1,4,1:3:0:0:
387,88,61636,5,8,1:0:0:0:
327,48,61755,5,4,1:3:0:0:
256,61,61874,5,8,1:0:0:0:
217,122,61993,5,4,1:3:0:0:
155,159,62112,5,4,1:3:0:0:
85,140,62231,5,8,1:0:0:0:
85,140,62350,6,0,L|109:-7,1,125.999996154785,4|0,1:0|0:0,0:0:0:0:
92,0,62707,1,8,1:0:0:0:
323,146,62885,6,0,L|302:268,1,112,4|0,1:0|2:0,0:0:0:0:
81,384,63421,6,0,L|94:321,1,56,4|2,1:2|0:0,0:0:0:0:
41,275,63688,1,2,2:0:0:0:
41,275,63778,1,2,0:0:0:0:
108,234,63956,1,0,1:0:0:0:
161,292,64135,1,8,1:0:0:0:
408,145,64492,5,4,1:0:0:0:
472,201,64671,1,2,2:0:0:0:
472,201,64760,1,2,0:0:0:0:
472,201,64849,1,2,0:0:0:0:
397,223,65028,1,0,0:0:0:0:
233,266,65208,5,0,1:0:0:0:
161,292,65386,1,0,0:0:0:0:
218,341,65565,1,2,0:0:0:0:
289,318,65743,1,2,0:0:0:0:
160,192,65922,5,2,0:0:0:0:
89,169,66100,1,0,1:0:0:0:
32,218,66279,1,0,1:0:0:0:
32,218,66458,1,2,0:0:0:0:
233,266,66636,6,0,P|236:231|242:196,1,70,8|0,1:0|0:0,0:0:0:0:
255,172,66904,1,2,0:0:0:0:
255,172,66993,1,2,0:0:0:0:
278,96,67172,1,2,0:0:0:0:
491,172,67350,5,0,1:0:0:0:
464,248,67529,1,0,1:0:0:0:
468,266,67618,1,0,0:0:0:0:
472,282,67707,1,0,1:0:0:0:
410,189,67886,1,2,0:0:0:0:
388,262,68064,1,8,1:0:0:0:
388,262,68421,5,2,0:0:0:0:
328,302,68600,1,0,1:0:0:0:
257,289,68778,1,2,0:0:0:0:
218,228,68957,1,0,1:0:0:0:
156,191,69135,1,0,1:0:0:0:
86,210,69314,1,2,0:0:0:0:
161,214,69492,1,8,1:0:0:0:
131,148,69671,1,2,0:0:0:0:
41,277,69850,5,0,1:0:0:0:
83,350,70028,1,2,2:0:0:0:
83,350,70117,1,2,2:0:0:0:
83,350,70207,1,2,0:0:0:0:
119,282,70385,1,0,1:0:0:0:
212,139,70564,5,8,1:0:0:0:
250,73,70742,1,2,0:0:0:0:
229,150,70921,1,2,0:0:0:0:
267,82,71100,1,0,0:0:0:0:
168,12,71278,6,0,P|158:54|165:93,1,70,0|0,1:0|0:0,0:0:0:0:
358,151,71635,2,0,P|367:117|365:82,1,70,0|2,1:0|0:0,0:0:0:0:
202,219,71992,5,8,1:0:0:0:
275,229,72171,1,0,0:0:0:0:
279,242,72260,1,2,0:0:0:0:
283,255,72350,1,2,0:0:0:0:
354,273,72528,1,0,1:0:0:0:
332,346,72707,5,0,1:0:0:0:
231,149,72975,5,0,1:0:0:0:
427,44,73242,5,0,1:0:0:0:
487,98,73421,6,0,P|473:167|461:245,2,136.499993751526,8|4|2,1:0|1:3|0:0,0:0:0:0:
282,0,74135,6,0,P|285:36|287:63,1,56,0|0,1:0|1:0,0:0:0:0:
299,71,74402,1,0,1:0:0:0:
285,92,74492,1,0,0:0:0:0:
231,149,74670,1,8,1:0:0:0:
288,200,74849,1,0,0:0:0:0:
270,222,74938,1,2,0:0:0:0:
273,238,75027,1,2,0:0:0:0:
257,368,75206,6,0,P|254:332|252:305,1,56,2|0,0:0|2:0,0:0:0:0:
70,244,75742,5,2,2:0:0:0:
70,244,75831,1,2,0:0:0:0:
70,244,75920,1,2,0:0:0:0:
7,293,76099,1,0,0:0:0:0:
68,344,76278,1,2,0:0:0:0:
128,295,76456,1,2,0:0:0:0:
444,344,76813,5,2,0:0:0:0:
384,295,76991,1,2,2:0:0:0:
149,314,77349,5,2,2:0:0:0:
209,363,77527,1,2,0:0:0:0:
363,314,77884,5,2,0:0:0:0:
363,314,78242,5,2,0:0:0:0:
303,363,78420,1,2,2:0:0:0:
215,237,78599,1,0,0:0:0:0:
275,188,78777,1,2,0:0:0:0:
288,275,78956,5,2,0:0:0:0:
39,193,79313,5,2,0:0:0:0:
52,107,79492,1,2,2:0:0:0:
211,139,79670,1,2,2:0:0:0:
199,62,79849,1,2,0:0:0:0:
128,166,80027,5,2,2:0:0:0:
266,209,80206,6,0,B|347:183|332:260|445:253,1,167.999994873047,4|0,1:0|0:0,0:0:0:0:
445,269,80474,1,0,1:0:0:0:
465,258,80563,5,8,1:0:0:0:
396,108,80742,1,8,1:0:0:0:
266,209,80920,1,8,1:0:0:0:
335,359,81099,1,2,1:3:0:0:
335,359,81456,1,8,1:0:0:0:
190,244,81634,5,2,1:3:0:0:
230,132,81812,1,8,1:0:0:0:
341,172,81991,1,0,1:0:0:0:
301,284,82170,1,0,1:0:0:0:
199,52,82349,5,2,1:3:0:0:
199,52,82706,2,0,B|118:26|119:102|20:96,1,167.999994873047,4|0,1:2|1:0,0:0:0:0:
20,112,82974,1,0,1:0:0:0:
0,101,83063,1,8,1:0:0:0:
26,17,83241,5,0,1:0:0:0:
173,136,83419,5,4,1:3:0:0:
168,169,83509,1,0,1:0:0:0:
163,202,83598,1,0,1:0:0:0:
94,236,83776,5,4,1:3:0:0:
25,270,83955,5,4,1:3:0:0:
28,290,84045,1,0,1:0:0:0:
30,309,84134,2,0,L|65:317,1,35,2|0,1:3|1:0,1:0:0:0:
469,334,84491,5,0,1:0:0:0:
509,264,84669,1,0,1:0:0:0:
443,223,84848,1,8,1:0:0:0:
357,120,85026,5,0,1:0:0:0:
325,131,85204,1,8,1:0:0:0:
299,141,85383,1,8,1:0:0:0:
299,141,85562,1,0,0:0:0:0:
256,208,85741,5,8,1:3:0:0:
128,106,86009,5,8,1:0:0:0:
256,16,86276,5,12,1:3:0:0:
