osu file format v14

[General]
AudioFilename: audio.mp3
AudioLeadIn: 0
PreviewTime: 45743
Countdown: 0
SampleSet: Soft
StackLeniency: 0.2
Mode: 0
LetterboxInBreaks: 0
WidescreenStoryboard: 1

[Editor]
Bookmarks: 55565
DistanceSpacing: 1
BeatDivisor: 4
GridSize: 16
TimelineZoom: 1.9

[Metadata]
Title:Munou (TV Size)
TitleUnicode:無能 (TV Size)
Artist:oesterreich
ArtistUnicode:öesterreich
Creator:Scotland
Version:Inadequate
Source:東京喰種√A
Tags:tokyo ghoul anime osterreich square root a
BeatmapID:1905189
BeatmapSetID:911967

[Difficulty]
HPDrainRate:4.5
CircleSize:4.4
OverallDifficulty:8.3
ApproachRate:9.2
SliderMultiplier:2
SliderTickRate:1

[Events]
//Background and Video events
0,0,"munou.jpg",0,0
//Break Periods
2,75286,79636
//Storyboard Layer 0 (Background)
//Storyboard Layer 1 (Fail)
//Storyboard Layer 2 (Pass)
//Storyboard Layer 3 (Foreground)
//Storyboard Layer 4 (Overlay)
//Storyboard Sound Samples

[TimingPoints]
210,357.142857142857,7,2,1,30,1,0
210,-200,4,2,1,30,0,0
2709,357.142857142857,6,2,1,30,1,0
2709,-200,6,2,1,30,0,0
4851,357.142857142857,7,2,1,50,1,0
4851,-133.333333333333,7,2,1,50,0,0
7350,357.142857142857,5,2,1,50,1,0
7350,-133.333333333333,5,2,1,50,0,0
8421,-76.9230769230769,5,2,1,50,0,0
9135,-133.333333333333,5,2,1,50,0,0
13777,357.142857142857,7,2,1,50,1,0
13778,-133.333333333333,7,2,1,50,0,0
16280,357.142857142857,5,2,1,50,1,0
16280,-76.9230769230769,5,2,1,50,0,0
17351,-62.5,5,2,1,50,0,0
18066,357.142857142857,7,2,1,50,1,0
18066,-133.333333333333,7,2,1,50,0,0
20566,357.142857142857,6,2,1,50,1,0
20566,-133.333333333333,6,2,1,50,0,0
22708,357.142857142857,7,2,1,50,1,0
22708,-133.333333333333,7,2,1,50,0,0
24850,-200,7,2,1,50,0,0
25208,357.142857142857,4,2,1,50,1,0
25208,-76.9230769230769,4,2,1,50,0,0
26636,-133.333333333333,4,2,1,50,0,0
27350,-250,4,2,1,80,0,0
27975,-250,4,2,1,80,0,0
28065,-200,4,2,1,50,0,0
36636,-100,4,2,1,50,0,0
41279,-80,4,2,1,50,0,0
41636,-66.6666666666667,4,2,1,50,0,0
42350,-100,4,2,1,50,0,0
43065,357.142857142857,6,2,1,50,1,0
43065,-200,6,2,1,50,0,0
43422,-66.6666666666667,6,2,1,50,0,0
43600,-200,6,2,1,50,0,0
43957,-100,6,2,1,50,0,0
45923,357.142857142857,7,3,1,70,1,1
45923,-66.6666666666667,7,3,1,70,0,1
48065,-250,7,3,1,70,0,1
48423,357.142857142857,6,3,1,70,1,1
48423,-100,6,3,1,70,0,1
48780,-66.6666666666667,6,3,1,70,0,1
50565,357.142857142857,7,3,1,70,1,1
50565,-50,7,3,1,70,0,1
53065,357.142857142857,6,3,1,70,1,1
53422,-66.6666666666667,6,3,1,70,0,1
54315,-66.6666666666667,6,3,1,70,0,1
55208,357.142857142857,4,3,1,70,1,1
55208,-50,4,3,1,70,0,1
58422,-66.6666666666667,4,3,1,70,0,1
59493,-100,4,3,1,70,0,1
60029,-76.9230769230769,4,3,1,70,0,1
60565,-58.8235294117647,4,3,1,70,0,1
60922,-76.9230769230769,4,3,1,70,0,1
61100,-100,4,3,1,70,0,1
62350,357.142857142857,3,3,1,70,1,1
62350,-100,3,3,1,70,0,1
63421,357.142857142857,5,3,1,70,1,1
63421,-133.333333333333,5,3,1,70,0,1
64492,-100,5,2,1,50,0,1
65208,357.142857142857,6,2,1,50,1,0
65208,-133.333333333333,6,2,1,50,0,0
66993,-100,6,2,1,50,0,0
67350,357.142857142857,7,2,1,50,1,0
67350,-133.333333333333,7,2,1,50,0,0
69850,357.142857142857,4,2,1,50,1,0
69850,-133.333333333333,4,2,1,50,0,0
74135,357.142857142857,3,2,1,50,1,0
74135,-133.333333333333,3,2,1,50,0,0
75742,357.142857142857,7,2,1,40,1,0
75742,-200,7,2,1,40,0,0
78242,357.142857142857,4,2,1,40,1,0
78242,-200,4,2,1,40,0,0
80206,-76.9230769230769,4,3,1,50,0,0
81099,357.142857142857,5,3,1,50,1,0
81099,-133.333333333333,5,3,1,50,0,0
81456,-62.5,5,3,1,50,0,0
82349,-200,5,3,1,50,0,0
82884,357.142857142857,4,3,1,50,1,0
84134,357.142857142857,6,3,1,50,1,0
84134,-100,6,3,1,50,0,0
85384,-76.9230769230769,6,3,1,50,0,0
85741,-133.333333333333,6,3,1,50,0,0
86276,-76.9230769230769,6,2,1,50,0,0
86455,-133.333333333333,6,2,1,20,0,0

[Colours]
Combo1 : 117,0,0
Combo2 : 255,111,255
Combo3 : 255,128,0
Combo4 : 112,0,159

[HitObjects]
86,168,210,6,0,L|109:229,1,50,2|2,0:0|0:0,0:0:0:0:
62,186,745,2,0,L|-3:175,1,50,2|2,0:0|0:0,0:0:0:0:
54,206,1281,2,0,L|95:155,1,50,2|2,0:0|0:0,0:0:0:0:
116,82,1638,5,2,0:0:0:0:
107,61,1817,1,2,0:0:0:0:
213,112,1995,5,2,0:0:0:0:
201,154,2174,1,2,0:0:0:0:
336,85,2352,5,2,0:0:0:0:
313,24,2531,1,2,0:0:0:0:
471,109,2709,6,0,L|459:174,1,50,2|2,0:0|0:0,0:0:0:0:
477,247,3066,1,2,0:0:0:0:
486,226,3244,1,2,0:0:0:0:
340,245,3423,2,0,P|350:296|383:341,1,100,2|2,0:0|0:0,0:0:0:0:
467,346,3958,5,2,0:0:0:0:
312,317,4137,1,2,0:0:0:0:
211,361,4316,5,2,0:0:0:0:
115,338,4494,1,2,0:0:0:0:
198,332,4673,5,2,0:0:0:0:
16,297,4851,6,0,P|7:343|21:395,1,75.0000028610231,4|4,3:1|3:1,0:0:0:0:
86,240,5208,2,0,B|95:246|95:246|117:210|100:151,1,75.0000028610231,0|0,0:0|0:0,0:0:0:0:
51,68,5565,2,0,P|55:118|141:102,1,150.000005722046,8|2,0:0|0:0,0:0:0:0:
41,35,6101,5,0,3:0:0:0:
25,68,6190,1,0,0:0:0:0:
23,105,6279,1,2,0:0:0:0:
18,0,6458,5,0,3:0:0:0:
0,192,6636,2,0,B|85:202|68:140|170:146,1,150.000005722046,2|8,3:2|0:0,0:0:0:0:
136,111,7350,6,0,P|175:119|232:117,1,75.0000028610231,0|0,3:0|3:0,0:0:0:0:
253,186,7707,2,0,P|240:148|210:99,1,75.0000028610231,0|0,0:0|0:0,0:0:0:0:
260,42,8064,2,0,P|233:71|206:122,1,75.0000028610231,8|0,0:0|0:0,0:0:0:0:
304,271,8421,6,0,B|271:289|271:289|145:271,1,129.999994049073,2|0,3:2|0:0,0:0:0:0:
284,313,8689,6,0,B|246:318|246:318|134:258,1,129.999994049073,2|0,3:2|0:0,0:0:0:0:
253,347,8957,6,0,B|216:339|216:339|131:244,1,129.999994049073,10|2,3:2|0:0,0:0:0:0:
215,379,9314,5,2,3:2:0:0:
252,383,9403,1,2,0:0:0:0:
286,369,9492,1,2,0:0:0:0:
187,356,9671,5,2,0:0:0:0:
432,323,9850,2,0,B|347:333|364:271|262:277,1,150.000005722046,10|2,0:0|0:0,0:0:0:0:
409,89,10385,2,0,P|392:171|423:245,1,150.000005722046,8|0,0:0|3:0,0:0:0:0:
512,351,10921,6,0,P|515:317|495:271,1,75.0000028610231,2|0,0:0|0:0,0:0:0:0:
399,239,11278,1,10,0:0:0:0:
348,384,11457,1,0,0:0:0:0:
371,219,11635,1,2,3:2:0:0:
486,97,11814,1,0,3:0:0:0:
473,69,11992,6,0,L|381:66,1,75.0000028610231,2|0,0:0|0:0,0:0:0:0:
243,22,12349,2,0,L|168:24,1,75.0000028610231,10|0,0:0|0:0,0:0:0:0:
252,39,12707,1,2,0:0:0:0:
261,56,12885,5,0,3:0:0:0:
374,97,13064,6,0,P|380:48|363:4,1,75.0000028610231,2|0,0:0|0:0,0:0:0:0:
224,62,13421,2,0,P|218:111|235:155,1,75.0000028610231,2|8,3:2|0:0,0:0:0:0:
297,291,13777,5,2,3:2:0:0:
190,214,13955,2,0,B|258:243|258:184|336:214,1,150.000005722046,0|0,3:0|0:0,0:0:0:0:
224,135,14491,5,10,0:0:0:0:
407,265,14669,2,0,L|389:352,1,75.0000028610231,0|2,0:0|0:0,0:0:0:0:
495,205,15027,2,0,L|479:131,1,75.0000028610231,0|2,3:0|0:0,0:0:0:0:
503,6,15384,5,0,3:0:0:0:
471,90,15562,1,2,3:2:0:0:
376,114,15741,1,0,0:0:0:0:
268,81,15919,2,0,P|261:127|281:177,1,75.0000028610231,10|0,0:0|0:0,0:0:0:0:
334,246,16277,5,0,0:0:0:0:
98,92,16458,1,8,0:0:0:0:
146,87,16547,1,0,0:0:0:0:
213,79,16636,1,8,0:0:0:0:
39,26,16815,6,0,P|10:105|161:150,1,259.999988098145,4|8,3:1|0:0,0:0:0:0:
98,92,17351,2,0,B|36:170|67:258|67:258|107:271|193:240,1,240,10|10,0:2|3:2,0:0:0:0:
232,221,17887,2,0,P|238:266|222:311,1,80,10|0,0:2|0:0,0:0:0:0:
150,178,18065,6,0,P|230:128|288:148,1,160,2|0,3:2|3:0,0:0:0:0:
363,298,18423,2,0,P|355:261|361:224,1,75.0000028610231,10|0,0:0|0:0,0:0:0:0:
446,340,18780,2,0,P|366:390|326:381,1,112.500004291535,10|0,0:0|0:0,0:0:0:0:
272,326,19137,5,2,3:2:0:0:
281,347,19316,1,0,3:0:0:0:
175,296,19494,5,2,0:0:0:0:
187,254,19673,1,8,0:0:0:0:
52,323,19851,5,0,0:0:0:0:
75,384,20030,1,0,0:0:0:0:
137,139,20208,5,0,3:0:0:0:
110,232,20387,1,0,0:0:0:0:
63,53,20566,6,0,P|94:32|130:25,1,75.0000028610231,2|0,3:2|3:0,0:0:0:0:
33,42,20923,1,2,0:0:0:0:
132,126,21101,1,0,3:0:0:0:
244,109,21280,1,10,0:0:0:0:
238,91,21637,5,2,0:0:0:0:
350,74,21816,1,0,3:0:0:0:
449,158,21994,1,2,0:0:0:0:
457,121,22173,5,0,0:0:0:0:
512,310,22351,1,10,0:0:0:0:
505,293,22530,1,0,3:0:0:0:
402,384,22708,6,0,L|307:375,1,75.0000028610231,2|0,3:2|3:0,0:0:0:0:
151,319,23065,2,0,L|246:310,1,75.0000028610231,10|0,0:0|0:0,0:0:0:0:
293,244,23333,5,0,0:0:0:0:
337,248,23422,2,0,L|411:255,1,75.0000028610231,2|8,0:0|0:0,0:0:0:0:
239,162,23779,2,0,P|206:195|195:224,1,75.0000028610231,0|0,0:0|3:0,0:0:0:0:
225,311,24136,5,2,0:0:0:0:
172,228,24315,1,0,3:0:0:0:
148,364,24493,5,10,0:0:0:0:
239,162,24672,1,0,0:0:0:0:
228,137,24850,5,10,0:0:0:0:
390,6,25208,6,0,B|369:68|300:75|300:75|271:44|231:42,1,194.999991073609,0|0,3:0|0:0,0:0:0:0:
159,90,25565,2,0,B|85:99|101:42|18:49,1,129.999994049073,8|4,3:0|3:0,0:0:0:0:
49,264,25922,6,0,P|66:197|1:136,1,129.999994049073,0|8,0:0|0:0,0:0:0:0:
15,141,26190,6,0,P|58:186|121:185,1,129.999994049073,0|0,0:0|0:0,0:0:0:0:
138,173,26458,6,0,P|76:187|45:242,1,129.999994049073,0|8,3:0|0:0,0:0:0:0:
110,384,26815,6,0,P|117:340|103:307,1,75.0000028610231,4|4,3:0|3:0,0:0:0:0:
29,357,27172,1,0,0:0:0:0:
244,322,27350,2,0,B|223:314|213:303|211:319|203:314|186:321|173:311|171:304|170:324|149:315|135:304|143:327|92:307,1,140,4|4,3:0|3:0,0:0:0:0:
29,357,28065,5,0,3:0:0:0:
29,357,28779,5,8,0:0:0:0:
29,357,29493,5,0,3:0:0:0:
29,357,30208,6,0,B|13:194|156:255|141:92,1,300,8|0,0:0|3:0,0:0:0:0:
290,109,31636,2,0,L|140:96,1,150,8|0,0:0|3:0,0:0:0:0:
384,115,32350,5,0,3:0:0:0:
384,115,33065,5,8,0:0:0:0:
384,115,33779,5,0,3:0:0:0:
358,208,34315,1,0,1:0:0:0:
384,115,34493,2,0,P|361:162|359:209,1,100,2|2,0:0|0:0,0:0:0:0:
358,208,35565,5,8,0:0:0:0:
358,208,35922,2,0,L|508:195,1,150,4|8,3:0|0:0,0:0:0:0:
298,293,36636,5,2,3:2:0:0:
248,295,36725,1,2,0:0:0:0:
206,320,36815,1,2,3:2:0:0:
179,358,36904,1,2,0:0:0:0:
131,371,36993,6,0,P|146:322|123:243,1,100,2|8,0:0|0:0,0:0:0:0:
75,197,37350,2,0,P|60:148|83:69,1,100,2|0,0:0|3:0,0:0:0:0:
116,13,37707,1,2,0:0:0:0:
18,140,37886,1,8,0:0:0:0:
16,300,38065,6,0,P|65:315|144:292,1,100,2|0,0:0|0:0,0:0:0:0:
190,244,38422,2,0,P|239:229|318:252,1,100,10|0,0:0|0:0,0:0:0:0:
379,273,38779,2,0,P|364:224|387:145,2,100,2|2|2,3:2|3:2|0:0,0:0:0:0:
461,216,39315,1,8,0:0:0:0:
436,361,39493,6,0,P|387:376|308:353,1,100,2|0,0:0|3:0,0:0:0:0:
259,309,39850,1,4,3:0:0:0:
179,369,40029,5,8,0:0:0:0:
154,325,40118,1,0,0:0:0:0:
163,276,40207,2,0,P|185:208|156:139,1,150,2|0,3:2|0:0,0:0:0:0:
123,99,40565,2,0,B|169:120|169:120|288:112,1,150,10|0,0:0|0:0,0:0:0:0:
379,56,40922,5,2,3:2:0:0:
355,106,41011,1,2,0:0:0:0:
364,162,41101,1,2,3:2:0:0:
405,197,41190,1,2,0:0:0:0:
459,206,41279,6,0,P|375:202|280:204,1,125,2|8,0:0|0:0,0:0:0:0:
281,284,41636,2,0,P|201:287|102:282,1,150.000005722046,6|0,3:2|3:0,0:0:0:0:
56,363,41993,2,0,P|18:280|45:209,1,150.000005722046,4|8,3:0|0:0,0:0:0:0:
130,136,42350,2,0,P|168:53|86:-18,1,200,8|4,0:0|3:0,0:0:0:0:
2,5,42886,1,8,3:0:0:0:
199,54,43065,6,0,L|258:50,1,50,4|0,0:1|0:0,0:0:0:0:
134,135,43422,1,8,0:0:0:0:
149,164,43600,2,0,L|208:160,1,50,4|0,0:0|0:0,0:0:0:0:
89,259,43958,1,4,3:0:0:0:
99,274,44136,2,0,B|263:263|263:263|110:313,1,300,4|0,0:0|0:0,0:0:0:0:
134,305,45743,5,0,0:0:0:0:
73,109,45923,2,0,P|70:189|65:258,1,150.000005722046,4|0,0:1|0:0,0:0:0:0:
47,29,46280,2,0,B|131:16|115:73|198:66,1,150.000005722046,0|4,0:0|0:0,0:0:0:0:
373,52,46637,2,0,P|304:49|297:117,1,150.000005722046,10|0,0:0|0:0,0:0:0:0:
389,148,46994,1,4,0:0:0:0:
386,136,47173,1,8,0:0:0:0:
450,195,47351,1,4,0:0:0:0:
438,296,47530,1,0,0:0:0:0:
328,348,47708,1,2,0:0:0:0:
246,271,47887,1,4,0:0:0:0:
261,146,48065,2,0,P|274:128|268:154,1,60,8|0,0:0|0:0,0:0:0:0:
271,142,48423,6,0,B|209:138|209:138|201:134|201:134|90:129,1,150,12|0,0:1|0:0,0:0:0:0:
93,112,48780,2,0,L|235:119,1,75.0000028610231,0|0,0:0|0:0,0:0:0:0:
314,45,48958,2,0,L|172:52,1,75.0000028610231,8|0,0:0|0:0,0:0:0:0:
38,43,49137,6,0,P|15:113|36:160,1,75.0000028610231,0|0,0:0|0:0,0:0:0:0:
76,242,49315,6,0,P|71:204|52:173,1,75.0000028610231,8|0,0:0|0:0,0:0:0:0:
73,40,49494,2,0,P|49:140|196:155,1,225.000008583069,0|0,1:0|0:0,0:0:0:0:
238,269,49851,2,0,P|260:227|302:199,1,75.0000028610231,2|0,0:0|0:0,0:0:0:0:
275,128,50030,2,0,P|323:127|367:148,1,75.0000028610231,8|0,0:0|0:0,0:0:0:0:
431,217,50208,2,0,P|388:124|493:155,1,225.000008583069,8|0,0:0|0:0,0:0:0:0:
427,381,50565,6,0,B|364:377|398:345|306:346,1,100,4|0,0:0|0:0,0:0:0:0:
328,326,50743,2,0,B|265:329|299:361|207:360,1,100,0|0,0:0|0:0,0:0:0:0:
124,330,50922,5,0,0:0:0:0:
62,278,51100,1,8,0:0:0:0:
55,185,51279,1,0,0:0:0:0:
129,116,51457,1,0,0:0:0:0:
219,126,51636,1,4,0:0:0:0:
272,188,51815,1,8,0:0:0:0:
300,256,51993,1,0,0:0:0:0:
358,296,52172,1,4,0:0:0:0:
404,294,52350,6,0,P|421:161|427:-39,1,300,8|0,0:0|0:0,0:0:0:0:
437,0,52707,2,0,P|429:149|408:298,1,300,8|0,0:0|0:0,0:0:0:0:
419,298,53065,6,0,P|355:332|314:376,1,100,4|0,0:1|0:0,0:0:0:0:
356,363,53422,1,8,0:0:0:0:
104,300,53600,2,0,P|206:269|254:363,1,225.000008583069,4|0,0:1|0:0,0:0:0:0:
171,349,53957,1,4,0:0:0:0:
412,234,54136,2,0,P|285:274|266:402,2,225.000008583069,8|4|4,0:0|0:0|0:0,0:0:0:0:
482,328,54850,2,0,P|439:220|410:68,1,225.000008583069,8|0,0:0|0:0,0:0:0:0:
487,8,55207,5,4,0:1:0:0:
474,18,55297,1,0,0:0:0:0:
459,30,55386,2,0,P|401:31|286:23,1,100,4|0,0:0|0:0,0:0:0:0:
218,111,55565,5,8,0:0:0:0:
231,121,55655,1,0,0:0:0:0:
246,133,55744,2,0,P|304:134|418:126,1,100,0|0,0:0|0:0,0:0:0:0:
512,193,55922,2,0,B|332:173|421:302|216:280,1,300,0|0,0:0|0:0,0:0:0:0:
130,210,56279,2,0,B|182:204|225:266|161:325|62:348|-16:255,1,300,8|0,0:0|0:0,0:0:0:0:
13,258,56636,5,0,0:0:0:0:
204,351,56815,1,2,0:2:0:0:
280,306,56993,2,0,P|350:312|553:348,2,200,8|4|2,0:0|0:0|0:2,0:0:0:0:
498,315,57529,1,8,0:0:0:0:
414,352,57708,2,0,P|424:258|512:224,1,200,0|4,0:0|0:0,0:0:0:0:
432,360,58065,5,4,0:0:0:0:
315,384,58243,1,4,0:0:0:0:
198,378,58422,6,0,P|183:230|178:181,1,150.000005722046,8|0,0:0|0:0,0:0:0:0:
81,93,58779,1,4,0:0:0:0:
168,281,58958,1,4,0:0:0:0:
219,143,59136,1,10,0:0:0:0:
172,144,59225,1,0,1:0:0:0:
134,169,59314,1,2,1:3:0:0:
96,194,59403,1,0,0:0:0:0:
54,194,59493,6,0,P|64:271|69:352,1,150,4|0,0:1|0:0,0:0:0:0:
248,233,59850,1,8,0:0:0:0:
31,173,60029,2,0,P|46:268|52:375,1,194.999991073609,4|0,0:2|0:0,0:0:0:0:
263,231,60386,1,4,0:0:0:0:
4,151,60565,1,12,0:1:0:0:
512,267,61100,6,0,P|478:265|450:259,1,50,8|8,0:0|0:0,0:0:0:0:
395,225,61279,1,8,0:0:0:0:
411,216,61458,1,4,0:0:0:0:
442,237,61636,5,8,0:0:0:0:
351,244,61755,5,8,0:0:0:0:
291,183,61874,5,8,0:0:0:0:
277,104,61993,5,4,0:0:0:0:
241,40,62112,5,12,0:0:0:0:
173,25,62231,5,8,0:0:0:0:
113,53,62350,5,4,0:1:0:0:
156,339,62707,1,8,0:0:0:0:
74,280,62885,2,0,B|133:241|133:241|294:274,1,200,4|0,0:1|0:0,0:0:0:0:
31,374,63421,6,0,P|43:225|29:117,1,225.000008583069,4|4,0:1|0:0,0:0:0:0:
0,0,64135,1,8,0:0:0:0:
0,0,64492,6,0,P|41:51|66:64,1,50,4|0,3:1|0:0,0:0:0:0:
116,87,64671,2,0,P|181:93|207:85,1,50,2|2,0:0|0:0,0:0:0:0:
258,79,64849,1,2,0:0:0:0:
255,64,65028,1,2,0:0:0:0:
345,11,65208,5,8,0:0:0:0:
334,44,65386,1,0,0:0:0:0:
341,99,65565,1,2,0:0:0:0:
385,167,65743,1,0,3:0:0:0:
425,261,65922,1,2,3:2:0:0:
367,348,66100,1,0,3:0:0:0:
276,360,66279,1,4,3:0:0:0:
215,313,66458,1,0,0:0:0:0:
410,264,66636,1,10,0:0:0:0:
182,319,66815,2,0,L|126:331,1,37.5000014305115,2|2,0:0|0:0,0:0:0:0:
40,216,66993,6,0,P|52:227|64:270,1,50,2|0,0:0|0:0,0:0:0:0:
54,209,67172,2,0,P|62:222|63:267,1,50,2|0,0:0|0:0,0:0:0:0:
5,375,67350,5,2,3:2:0:0:
2,356,67528,1,2,0:0:0:0:
67,342,67617,1,2,3:2:0:0:
112,334,67707,1,2,0:0:0:0:
132,330,67885,1,2,0:0:0:0:
447,291,68064,6,0,P|376:289|316:273,1,112.500004291535,8|0,0:0|0:0,0:0:0:0:
461,277,68421,1,2,0:0:0:0:
469,262,68600,1,0,3:0:0:0:
473,238,68778,1,2,3:2:0:0:
472,156,68957,1,0,3:0:0:0:
431,78,69135,1,4,3:0:0:0:
340,44,69314,1,0,0:0:0:0:
295,212,69492,1,8,0:0:0:0:
308,205,69671,1,0,0:0:0:0:
212,140,69850,6,0,P|200:161|195:198,1,37.5000014305115,2|0,3:2|0:0,0:0:0:0:
208,275,70028,2,0,P|220:295|249:318,1,37.5000014305115,2|2,0:0|0:0,0:0:0:0:
339,321,70207,1,2,0:0:0:0:
342,308,70385,1,2,3:2:0:0:
358,71,70564,5,8,0:0:0:0:
302,33,70742,1,0,0:0:0:0:
218,51,70921,1,2,0:0:0:0:
161,127,71100,1,0,3:0:0:0:
54,146,71278,1,2,3:2:0:0:
113,17,71457,1,0,3:0:0:0:
176,192,71635,1,4,3:0:0:0:
115,39,71814,1,0,0:0:0:0:
28,185,71992,6,0,P|17:206|16:285,1,75.0000028610231,10|2,0:0|0:0,0:0:0:0:
225,163,72350,2,0,P|207:146|131:125,1,75.0000028610231,2|2,0:0|3:2,0:0:0:0:
192,319,72707,1,2,3:2:0:0:
194,303,72885,1,2,0:0:0:0:
259,311,72974,1,2,3:2:0:0:
305,315,73064,1,2,0:0:0:0:
325,317,73242,1,2,3:2:0:0:
462,145,73421,2,0,P|418:162|373:158,1,75.0000028610231,10|0,0:0|0:0,0:0:0:0:
372,136,73689,2,0,L|418:145,1,37.5000014305115,8|0,0:0|0:0,0:0:0:0:
490,154,73957,1,0,0:0:0:0:
254,46,74135,6,0,P|262:65|273:102,1,37.5000014305115,2|0,3:2|0:0,0:0:0:0:
251,162,74313,2,0,P|238:178|212:206,1,37.5000014305115,2|0,0:0|3:0,0:0:0:0:
145,203,74492,1,0,0:0:0:0:
355,128,74670,1,8,0:0:0:0:
126,210,74819,2,0,L|74:228,3,37.5000014305115,0|0|0|0,0:0|0:0|0:0|0:0,0:0:0:0:
26,123,80206,6,0,P|65:123|108:106,1,64.9999970245363,12|0,0:2|0:0,0:0:0:0:
165,72,80384,1,8,0:0:0:0:
196,56,80473,1,8,0:0:0:0:
254,47,80562,1,8,0:0:0:0:
323,68,80742,1,8,0:0:0:0:
369,141,80920,1,8,0:0:0:0:
346,315,81099,1,4,0:0:0:0:
354,301,81456,5,8,0:0:0:0:
282,337,81634,1,4,0:0:0:0:
202,327,81813,1,8,0:0:0:0:
151,250,81991,1,2,0:2:0:0:
166,156,82170,1,4,0:0:0:0:
270,99,82349,2,0,P|317:105|387:106,1,116.666666666667,8|0,0:0|0:0,0:0:0:0:
252,70,82884,6,0,P|238:79|214:86,2,33.3333333333333,8|0|0,0:0|0:0|0:0,0:0:0:0:
261,45,83062,1,8,0:0:0:0:
233,183,83241,1,4,0:0:0:0:
277,314,83419,1,4,0:0:0:0:
326,312,83508,1,4,0:0:0:0:
376,308,83597,1,4,0:0:0:0:
207,185,83776,1,4,0:0:0:0:
376,52,83955,1,4,0:0:0:0:
326,48,84044,1,4,0:0:0:0:
277,46,84133,1,2,0:2:0:0:
63,35,84312,5,0,0:0:0:0:
75,61,84491,2,0,P|84:117|89:159,1,100,4|2,0:0|0:0,0:0:0:0:
165,347,84848,1,8,0:0:0:0:
215,170,85026,1,2,0:0:0:0:
44,227,85205,1,4,0:0:0:0:
201,345,85384,2,0,P|237:349|297:339,1,64.9999970245363,2|0,0:2|0:0,0:0:0:0:
368,224,85562,2,0,P|346:253|325:310,1,64.9999970245363,2|0,0:2|0:0,0:0:0:0:
446,373,85741,1,8,0:0:0:0:
496,200,85919,2,0,P|471:197|437:187,2,37.5000014305115,0|4|0,0:0|0:0|0:0,0:0:0:0:
374,15,86276,2,0,B|283:-4|322:83|200:64,1,129.999994049073,8|2,0:2|0:0,0:0:0:0:
