osu file format v14

[General]
AudioFilename: audio.mp3
AudioLeadIn: 0
PreviewTime: 45743
Countdown: 0
SampleSet: Soft
StackLeniency: 0.2
Mode: 0
LetterboxInBreaks: 0
WidescreenStoryboard: 0

[Editor]
DistanceSpacing: 0.2
BeatDivisor: 4
GridSize: 16
TimelineZoom: 4.799998

[Metadata]
Title:Munou (TV Size)
TitleUnicode:無能 (TV Size)
Artist:oesterreich
ArtistUnicode:österreich
Creator:Dementation
Version:Incompetence
Source:東京喰種√A
Tags:tokyo ghoul anime osterreich square root a sharu [_sharuresu_] japanese
BeatmapID:1864374
BeatmapSetID:891799

[Difficulty]
HPDrainRate:5
CircleSize:4.4
OverallDifficulty:8.3
ApproachRate:9.2
SliderMultiplier:2
SliderTickRate:1

[Events]
//Background and Video events
0,0,"munou.jpg",0,0
//Break Periods
//Storyboard Layer 0 (Background)
//Storyboard Layer 1 (Fail)
//Storyboard Layer 2 (Pass)
//Storyboard Layer 3 (Foreground)
//Storyboard Sound Samples

[TimingPoints]
210,357.142857142857,7,2,1,30,1,0
210,-200,4,2,1,30,0,0
2709,357.142857142857,6,2,1,30,1,0
2709,-200,6,2,1,30,0,0
4851,357.142857142857,7,2,1,50,1,0
4851,-133.333333333333,7,2,1,50,0,0
7350,357.142857142857,5,2,1,50,1,0
7350,-133.333333333333,5,2,1,50,0,0
8421,-76.9230769230769,5,2,1,50,0,0
9135,357.142857142857,7,2,1,50,1,0
9135,-133.333333333333,7,2,1,50,0,0
11635,357.142857142857,6,2,1,50,1,0
11635,-133.333333333333,7,2,1,50,0,0
13777,357.142857142857,7,2,1,50,1,0
13778,-133.333333333333,7,2,1,50,0,0
16280,357.142857142857,5,2,1,50,1,0
16280,-76.9230769230769,5,2,1,50,0,0
17351,-62.5,5,2,1,50,0,0
18066,357.142857142857,7,2,1,50,1,0
18066,-133.333333333333,7,2,1,50,0,0
20566,357.142857142857,6,2,1,50,1,0
20566,-133.333333333333,6,2,1,50,0,0
22708,357.142857142857,7,2,1,50,1,0
22708,-133.333333333333,7,2,1,50,0,0
24850,-200,7,2,1,50,0,0
25208,357.142857142857,6,2,1,50,1,0
25208,-76.9230769230769,6,2,1,50,0,0
25922,357.142857142857,2,2,1,50,1,0
25922,-76.9230769230769,6,2,1,50,0,0
26636,-133.333333333333,6,2,1,50,0,0
27350,-133.333333333333,6,2,1,80,0,0
28065,-200,6,2,1,50,0,0
36636,357.142857142857,6,2,1,50,1,0
36636,-100,6,2,1,50,0,0
41279,-80,6,2,1,50,0,0
41636,-66.6666666666667,6,2,1,50,0,0
42350,-100,6,2,1,50,0,0
43065,-200,6,2,1,50,0,0
43422,-66.6666666666667,6,2,1,50,0,0
43600,-200,6,2,1,50,0,0
43957,-66.6666666666667,6,2,1,50,0,0
45923,357.142857142857,7,3,1,70,1,1
45923,-50,7,3,1,70,0,1
48423,357.142857142857,6,3,1,70,1,1
48423,-200,6,3,1,70,0,1
48780,-66.6666666666667,6,3,1,70,0,1
50565,357.142857142857,7,3,1,70,1,1
50565,-50,7,3,1,70,0,1
53065,357.142857142857,6,3,1,70,1,1
53422,-50,6,3,1,70,0,1
54315,-66.6666666666667,6,3,1,70,0,1
55208,357.142857142857,4,3,1,70,1,1
55208,-50,4,3,1,70,0,1
58422,-66.6666666666667,4,3,1,70,0,1
59493,-50,4,3,1,70,0,1
60922,-76.9230769230769,4,3,1,70,0,1
62350,357.142857142857,3,3,1,70,1,1
62350,-50,3,3,1,70,0,1
63421,-50,5,3,1,70,0,1
64492,357.142857142857,4,2,1,50,1,1
64492,-100,4,2,1,50,0,1
65206,-133.333333333333,6,2,1,50,0,0
67350,357.142857142857,7,2,1,50,1,0
67350,-133.333333333333,7,2,1,50,0,0
69850,357.142857142857,4,2,1,50,1,0
69850,-133.333333333333,4,2,1,50,0,0
74135,357.142857142857,3,2,1,50,1,0
74135,-133.333333333333,3,2,1,50,0,0
75742,357.142857142857,7,2,1,40,1,0
75742,-200,7,2,1,40,0,0
78242,357.142857142857,3,2,1,40,1,0
78242,-200,3,2,1,40,0,0
79313,357.142857142857,5,2,1,40,1,0
80206,-76.9230769230769,3,3,1,50,0,0
81099,357.142857142857,5,3,1,50,1,0
81099,-133.333333333333,5,3,1,50,0,0
81456,-62.5,5,3,1,50,0,0
82349,-200,5,3,1,50,0,0
82884,357.142857142857,4,3,1,50,1,0
84134,357.142857142857,6,3,1,50,1,0
84134,-100,6,3,1,50,0,0
85384,-76.9230769230769,6,3,1,50,0,0
85741,-133.333333333333,6,3,1,50,0,0
86276,-133.333333333333,6,2,1,50,0,0

[Colours]
Combo1 : 151,0,0
Combo2 : 255,140,255
Combo3 : 255,145,34
Combo4 : 164,0,234

[HitObjects]
136,207,210,5,2,0:0:0:0:
141,220,388,1,2,0:0:0:0:
321,92,745,1,2,0:0:0:0:
316,105,923,1,2,0:0:0:0:
221,273,1281,5,2,0:0:0:0:
242,200,1459,1,2,0:0:0:0:
334,124,1638,2,0,L|394:118,1,50,2|2,0:0|0:0,0:0:0:0:
192,195,1995,2,0,L|241:199,1,50,2|2,0:0|0:0,0:0:0:0:
134,64,2352,1,2,0:0:0:0:
225,94,2531,1,2,0:0:0:0:
68,194,2709,6,0,L|62:131,1,50,2|2,0:0|0:0,0:0:0:0:
76,213,3066,2,0,L|71:262,1,50,2|2,0:0|0:0,0:0:0:0:
149,146,3423,1,2,0:0:0:0:
386,342,3780,5,2,0:0:0:0:
269,328,3958,1,2,0:0:0:0:
275,347,4137,1,2,0:0:0:0:
334,266,4315,1,2,0:0:0:0:
319,257,4494,1,2,0:0:0:0:
353,334,4672,1,2,0:0:0:0:
376,161,4851,6,0,L|283:168,1,75.0000028610231,4|4,3:1|3:1,0:0:0:0:
467,179,5208,2,0,L|392:173,1,75.0000028610231,0|0,0:0|0:0,0:0:0:0:
149,153,5565,1,8,0:0:0:0:
156,146,5922,5,2,0:0:0:0:
211,306,6101,1,2,3:2:0:0:
185,292,6190,1,2,0:0:0:0:
169,261,6279,1,2,0:0:0:0:
160,158,6458,1,0,3:0:0:0:
225,78,6636,1,2,3:2:0:0:
407,336,6993,2,0,B|375:281|375:281|383:232,1,112.500004291535,8|0,0:0|0:0,0:0:0:0:
277,266,7350,6,0,L|371:274,1,75.0000028610231,0|0,3:0|3:0,0:0:0:0:
194,288,7707,1,0,0:0:0:0:
156,357,7885,1,0,0:0:0:0:
382,232,8064,2,0,B|335:195|335:195|258:188,1,112.500004291535,8|0,0:0|0:0,0:0:0:0:
189,197,8421,6,0,P|254:183|265:109,1,129.999994049073,2|0,3:2|0:0,0:0:0:0:
128,293,8689,2,0,P|150:235|211:225,1,129.999994049073,2|0,3:2|0:0,0:0:0:0:
76,377,8957,1,10,3:2:0:0:
0,336,9135,5,2,0:0:0:0:
61,239,9314,1,2,3:2:0:0:
58,254,9403,1,2,0:0:0:0:
53,270,9492,2,0,L|45:184,1,75.0000028610231,2|2,0:0|0:0,0:0:0:0:
40,151,9760,1,0,0:0:0:0:
74,89,9850,2,0,B|58:261,1,150.000005722046,10|2,0:0|0:0,0:0:0:0:
303,0,10385,6,0,L|245:5,1,37.5000014305115,8|0,0:0|0:0,0:0:0:0:
242,11,10564,2,0,L|328:17,2,75.0000028610231,2|0|2,0:0|3:0|0:0,0:0:0:0:
387,55,11099,1,0,0:0:0:0:
473,212,11278,1,10,0:0:0:0:
379,291,11457,2,0,L|387:194,1,75.0000028610231,0|2,0:0|3:2,0:0:0:0:
422,135,11814,5,0,3:0:0:0:
473,212,11992,1,2,0:0:0:0:
467,323,12171,1,0,0:0:0:0:
170,384,12349,2,0,L|346:368,1,150.000005722046,10|2,0:0|0:0,0:0:0:0:
133,217,12885,2,0,L|124:317,1,75.0000028610231,0|2,3:0|0:0,0:0:0:0:
143,205,13242,2,0,L|136:130,1,75.0000028610231,0|2,0:0|3:2,0:0:0:0:
2,364,13599,1,8,0:0:0:0:
16,275,13777,5,2,3:2:0:0:
27,189,13955,2,0,L|18:283,2,75.0000028610231,0|2|0,3:0|0:0|0:0,0:0:0:0:
295,10,14491,2,0,L|137:23,1,150.000005722046,10|2,0:0|0:0,0:0:0:0:
218,131,15027,1,0,3:0:0:0:
224,52,15205,1,2,0:0:0:0:
200,151,15384,1,0,3:0:0:0:
298,265,15562,1,2,3:2:0:0:
278,187,15740,1,0,0:0:0:0:
142,332,15919,1,10,0:0:0:0:
54,6,16280,6,0,P|65:48|62:83,1,64.9999970245363,4|0,3:1|0:0,0:0:0:0:
15,241,16458,1,8,0:0:0:0:
58,172,16547,1,0,0:0:0:0:
136,156,16637,1,8,0:0:0:0:
125,138,16815,2,0,L|144:346,1,194.999991073609,4|0,3:1|0:0,0:0:0:0:
161,87,17172,2,0,P|141:127|100:142,1,64.9999970245363,8|0,0:0|0:0,0:0:0:0:
240,97,17351,6,0,P|213:26|138:13,1,160,10|0,0:2|0:0,0:0:0:0:
343,258,17619,2,0,P|267:246|240:175,1,160,10|0,3:2|0:0,0:0:0:0:
353,273,17887,2,0,L|344:367,1,80,10|0,0:2|0:0,0:0:0:0:
149,361,18066,6,0,L|238:353,1,75.0000028610231,2|0,3:2|3:0,0:0:0:0:
353,273,18423,2,0,L|263:265,1,75.0000028610231,10|0,0:0|0:0,0:0:0:0:
480,0,18780,2,0,L|494:171,1,150.000005722046,10|2,0:0|3:2,0:0:0:0:
309,90,19316,2,0,L|407:98,1,75.0000028610231,0|2,3:0|0:0,0:0:0:0:
435,358,19673,1,10,0:0:0:0:
350,373,19851,1,0,0:0:0:0:
232,325,20030,1,2,0:0:0:0:
218,170,20208,1,0,3:0:0:0:
309,90,20387,1,0,0:0:0:0:
410,227,20566,6,0,L|402:140,1,75.0000028610231,2|0,3:2|3:0,0:0:0:0:
218,170,20923,2,0,L|292:176,1,75.0000028610231,2|0,0:0|3:0,0:0:0:0:
139,384,21280,1,10,0:0:0:0:
127,372,21637,1,2,0:0:0:0:
119,289,21816,1,0,3:0:0:0:
180,190,21994,1,2,0:0:0:0:
190,82,22173,1,0,0:0:0:0:
25,287,22351,2,0,L|120:278,1,75.0000028610231,10|0,0:0|3:0,0:0:0:0:
193,296,22708,6,0,L|109:287,1,75.0000028610231,2|0,3:2|3:0,0:0:0:0:
365,1,23065,2,0,L|378:166,1,150.000005722046,10|2,0:0|0:0,0:0:0:0:
322,384,23600,2,0,L|330:287,1,75.0000028610231,8|0,0:0|0:0,0:0:0:0:
428,240,23958,5,0,3:0:0:0:
341,290,24136,1,2,0:0:0:0:
260,281,24315,1,0,3:0:0:0:
199,3,24493,1,10,0:0:0:0:
225,99,24671,1,0,0:0:0:0:
70,270,24850,1,10,0:0:0:0:
59,285,25208,6,0,P|98:277|125:287,1,64.9999970245363,0|0,3:0|0:0,0:0:0:0:
296,351,25386,5,8,3:0:0:0:
282,355,25446,5,8,3:0:0:0:
268,359,25505,5,8,3:0:0:0:
252,364,25565,6,0,P|250:316|261:287,1,64.9999970245363,8|0,3:0|0:0,0:0:0:0:
404,134,25743,2,0,P|334:164|274:143,1,129.999994049073,4|0,3:0|0:0,0:0:0:0:
177,322,26100,6,0,P|178:285|193:259,1,64.9999970245363,8|0,0:0|0:0,0:0:0:0:
121,23,26279,2,0,P|153:44|167:68,1,64.9999970245363,4|0,3:0|0:0,0:0:0:0:
479,118,26458,1,0,3:0:0:0:
403,133,26547,1,0,1:0:0:0:
337,96,26636,6,0,L|346:-3,2,75.0000028610231,8|4|4,0:0|3:0|3:0,0:0:0:0:
302,268,27350,5,4,3:0:0:0:
301,250,27440,1,4,3:0:0:0:
313,260,27529,5,4,3:0:0:0:
289,237,27619,1,4,3:0:0:0:
316,249,27708,5,4,3:0:0:0:
266,225,27798,1,4,3:0:0:0:
319,236,27886,5,4,3:0:0:0:
244,219,27976,1,4,3:0:0:0:
319,236,28065,6,0,P|324:291|319:347,1,100,0|0,3:0|0:0,0:0:0:0:
108,27,28779,2,0,P|152:49|193:78,1,100,8|0,0:0|0:0,0:0:0:0:
327,338,29493,1,0,3:0:0:0:
238,231,29850,1,0,0:0:0:0:
505,178,30208,2,0,P|463:205|417:226,1,100,8|2,0:0|0:0,0:0:0:0:
417,226,31279,1,0,3:0:0:0:
150,119,31636,2,0,P|194:141|235:170,1,100,8|2,0:0|0:0,0:0:0:0:
278,252,32172,1,0,3:0:0:0:
233,332,32350,6,0,P|191:359|145:380,1,100,0|0,3:0|0:0,0:0:0:0:
388,250,33065,2,0,P|432:272|473:301,1,100,8|2,0:0|0:0,0:0:0:0:
210,148,33779,2,0,P|206:98|211:48,1,100,0|0,3:0|0:0,0:0:0:0:
177,232,34315,1,0,1:0:0:0:
22,318,34493,2,0,L|129:308,1,100,2|2,0:0|0:0,0:0:0:0:
121,308,35565,1,8,0:0:0:0:
240,69,35922,1,4,3:0:0:0:
266,186,36100,1,0,0:0:0:0:
512,242,36457,5,8,0:0:0:0:
354,133,36636,5,2,3:2:0:0:
367,138,36725,1,2,0:0:0:0:
434,137,36815,1,2,3:2:0:0:
447,132,36904,1,2,0:0:0:0:
404,209,36993,2,0,L|396:109,1,100,2|8,0:0|0:0,0:0:0:0:
250,280,37350,2,0,L|259:149,1,100,2|0,0:0|3:0,0:0:0:0:
100,358,37618,1,0,0:0:0:0:
100,358,37707,2,0,L|131:230,1,100,2|8,0:0|0:0,0:0:0:0:
229,2,38065,2,0,L|239:119,1,100,2|0,0:0|0:0,0:0:0:0:
408,46,38333,1,0,0:0:0:0:
408,46,38422,2,0,L|354:166,1,100,10|0,0:0|0:0,0:0:0:0:
124,261,38779,6,0,L|251:271,1,100,2|2,3:2|3:2,0:0:0:0:
0,364,39047,1,2,0:0:0:0:
0,364,39136,2,0,L|99:356,1,100,2|8,0:0|0:0,0:0:0:0:
303,346,39493,1,2,0:0:0:0:
223,268,39672,1,0,3:0:0:0:
333,348,39850,1,4,3:0:0:0:
124,261,40029,1,8,0:0:0:0:
423,236,40207,2,0,L|300:246,1,100,2|0,3:2|3:0,0:0:0:0:
498,99,40475,1,0,0:0:0:0:
498,99,40565,2,0,L|379:130,1,100,10|0,0:0|0:0,0:0:0:0:
160,100,40922,5,2,3:2:0:0:
165,112,41011,1,2,0:0:0:0:
164,179,41101,1,2,3:2:0:0:
159,192,41190,1,2,0:0:0:0:
236,150,41279,2,0,P|161:143|83:161,1,125,2|8,0:0|0:0,0:0:0:0:
466,331,41636,2,0,P|417:273|347:222,1,150.000005722046,6|0,3:2|3:0,0:0:0:0:
112,151,41993,5,4,3:0:0:0:
250,230,42172,1,8,0:0:0:0:
95,116,42350,2,0,L|85:239,1,100,8|4,0:0|3:0,0:0:0:0:
214,50,42618,1,0,0:0:0:0:
214,50,42707,1,4,3:0:0:0:
265,244,42886,1,8,3:0:0:0:
23,129,43065,6,0,P|70:113|112:122,1,75,4|0,0:1|0:0,0:0:0:0:
259,169,43422,2,0,L|266:259,1,75.0000028610231,8|0,0:0|0:0,0:0:0:0:
14,123,43600,6,0,P|61:107|103:116,1,75,4|0,0:0|0:0,0:0:0:0:
253,175,43957,2,0,L|260:265,1,75.0000028610231,4|0,3:0|0:0,0:0:0:0:
5,118,44136,5,4,0:0:0:0:
344,194,45923,6,0,P|233:222|124:92,1,300,4|0,0:1|0:0,0:0:0:0:
337,213,46280,2,0,P|240:234|141:177,1,200,0|4,0:0|0:0,0:0:0:0:
253,120,46637,1,10,0:0:0:0:
257,108,46994,1,4,0:0:0:0:
298,325,47173,1,8,0:0:0:0:
33,258,47351,2,0,P|124:206|217:243,1,200,4|0,0:0|0:0,0:0:0:0:
108,120,47708,1,2,0:0:0:0:
128,303,47887,1,4,0:0:0:0:
108,120,48065,1,8,0:0:0:0:
116,135,48423,6,0,P|74:134|40:141,1,75,12|0,0:1|0:0,0:0:0:0:
209,134,48780,6,0,L|122:142,1,75.0000028610231,0|0,0:0|0:0,0:0:0:0:
296,152,48958,1,8,0:0:0:0:
194,224,49137,2,0,L|107:232,1,75.0000028610231
281,242,49315,1,8,0:0:0:0:
0,305,49494,2,0,P|82:320|120:396,1,150.000005722046,0|0,1:0|0:0,0:0:0:0:
310,157,49851,2,0,P|238:165|194:224,1,150.000005722046,2|8,0:0|0:0,0:0:0:0:
0,38,50208,1,8,0:0:0:0:
10,54,50565,6,0,L|217:72,1,200,4|0,0:0|0:0,0:0:0:0:
377,202,50922,1,0,0:0:0:0:
0,305,51100,2,0,L|211:286,1,200,8|0,0:0|0:0,0:0:0:0:
398,304,51457,1,0,0:0:0:0:
398,304,51636,2,0,L|179:284,1,200,4|8,0:0|0:0,0:0:0:0:
287,94,51993,1,0,0:0:0:0:
292,179,52172,1,4,0:0:0:0:
302,267,52350,6,0,P|202:217|304:95,1,300,8|0,0:0|0:0,0:0:0:0:
288,281,52707,2,0,P|186:218|194:130,1,200,8|0,0:0|0:0,0:0:0:0:
144,320,53065,5,4,0:1:0:0:
95,217,53243,1,0,0:0:0:0:
112,17,53422,1,8,0:0:0:0:
185,148,53600,1,4,0:1:0:0:
185,148,53957,5,4,0:0:0:0:
144,320,54136,1,8,0:0:0:0:
316,360,54315,1,0,0:0:0:0:
375,304,54404,2,0,P|291:291|232:340,1,150.000005722046,4|0,0:0|0:0,0:0:0:0:
510,283,54672,2,0,P|447:320|375:304,1,150.000005722046,4|8,0:0|0:0,0:0:0:0:
375,304,55207,6,0,L|388:136,1,150.000005722046,4|4,0:1|0:0,0:0:0:0:
387,23,55565,2,0,L|360:322,1,300,8|0,0:0|0:0,0:0:0:0:
395,42,55922,2,0,L|71:71,1,300,0|0,0:0|0:0,0:0:0:0:
252,199,56279,2,0,L|269:0,1,200,8|0,0:0|0:0,0:0:0:0:
146,79,56547,1,0,0:0:0:0:
146,79,56636,2,0,L|261:69,1,100,0|0,0:0|0:0,0:0:0:0:
51,80,56815,6,0,L|31:308,1,200,2|8,0:2|0:0,0:0:0:0:
165,171,57083,1,2,0:2:0:0:
110,215,57172,2,0,L|12:296,1,100,4|0,0:0|0:0,0:0:0:0:
232,296,57350,2,0,L|3:276,1,200,2|8,0:2|0:0,0:0:0:0:
324,243,57708,1,0,0:0:0:0:
444,332,57886,1,4,0:0:0:0:
364,319,58065,1,4,0:0:0:0:
324,243,58243,1,4,0:0:0:0:
427,29,58422,6,0,P|433:112|386:184,1,150.000005722046,8|0,0:0|0:0,0:0:0:0:
237,261,58779,2,0,L|150:253,1,75.0000028610231,4|0,0:0|0:0,0:0:0:0:
324,243,58957,2,0,L|250:250,1,75.0000028610231,4|0,0:0|0:0,0:0:0:0:
99,30,59136,5,10,0:0:0:0:
168,59,59225,1,0,1:0:0:0:
176,140,59314,1,2,1:3:0:0:
114,186,59403,1,0,0:0:0:0:
104,110,59493,6,0,L|503:75,1,400,4|8,0:1|0:0,0:0:0:0:
101,273,60029,2,0,L|499:307,1,400,4|4,0:2|0:0,0:0:0:0:
24,180,60565,1,12,0:1:0:0:
264,95,61100,5,8,0:0:0:0:
242,342,61279,2,0,P|197:282|202:215,1,129.999994049073,8|4,0:0|0:0,0:0:0:0:
364,113,61636,5,8,0:0:0:0:
300,185,61755,1,8,0:0:0:0:
264,95,61874,1,8,0:0:0:0:
350,117,61993,5,4,0:0:0:0:
302,171,62112,1,12,0:0:0:0:
275,103,62231,1,8,0:0:0:0:
381,192,62350,6,0,L|63:219,1,300,4|0,0:1|0:0,0:0:0:0:
370,183,62707,2,0,L|253:193,1,100,8|0,0:0|0:0,0:0:0:0:
0,233,62885,2,0,L|512:276,1,500,4|0,0:1|0:0,0:0:0:0:
8,246,63421,2,0,L|506:288,1,500,4|0,0:1|0:0,0:0:0:0:
393,310,63956,1,4,0:0:0:0:
298,139,64135,1,8,0:0:0:0:
308,130,64491,5,4,3:1:0:0:
196,244,64670,1,2,0:0:0:0:
189,218,64759,1,2,0:0:0:0:
192,189,64848,1,2,0:0:0:0:
259,297,65027,1,2,0:0:0:0:
5,66,65206,6,0,L|159:79,1,150.000005722046,8|2,0:0|0:0,0:0:0:0:
95,236,65742,2,0,L|86:138,1,75.0000028610231,0|2,3:0|3:2,0:0:0:0:
101,329,66099,2,0,L|109:231,2,75.0000028610231,0|4|0,3:0|3:0|0:0,0:0:0:0:
350,152,66634,2,0,L|251:160,1,75.0000028610231,10|2,0:0|0:0,0:0:0:0:
257,172,66902,1,2,0:0:0:0:
239,187,66993,2,0,L|231:270,1,75.0000028610231,2|2,0:0|0:0,0:0:0:0:
427,283,67350,5,2,3:2:0:0:
311,237,67528,1,2,0:0:0:0:
338,233,67617,1,2,3:2:0:0:
364,240,67706,1,2,0:0:0:0:
333,311,67885,1,2,0:0:0:0:
362,70,68064,2,0,L|529:84,1,150.000005722046,8|2,0:0|0:0,0:0:0:0:
289,94,68600,1,0,3:0:0:0:
230,235,68778,2,0,L|223:147,1,75.0000028610231,2|0,3:2|3:0,0:0:0:0:
207,337,69135,2,0,L|213:249,1,75.0000028610231,4|0,3:0|0:0,0:0:0:0:
157,18,69492,2,0,L|165:114,1,75.0000028610231,8|0,0:0|0:0,0:0:0:0:
64,269,69850,5,2,3:2:0:0:
154,171,70028,1,2,0:0:0:0:
150,196,70117,1,2,0:0:0:0:
140,220,70206,1,2,0:0:0:0:
74,168,70385,1,2,3:2:0:0:
379,221,70564,2,0,L|220:234,1,150.000005722046,8|2,0:0|0:0,0:0:0:0:
308,147,71100,1,0,3:0:0:0:
336,299,71278,2,0,L|327:386,1,75.0000028610231,2|0,3:2|3:0,0:0:0:0:
229,234,71635,2,0,L|237:321,1,75.0000028610231,4|0,3:0|0:0,0:0:0:0:
512,111,71992,2,0,L|415:119,1,75.0000028610231,10|2,0:0|0:0,0:0:0:0:
455,232,72350,2,0,L|360:223,1,75.0000028610231,2|2,0:0|3:2,0:0:0:0:
253,50,72707,5,2,3:2:0:0:
351,140,72885,1,2,0:0:0:0:
326,136,72974,1,2,3:2:0:0:
304,123,73063,1,2,0:0:0:0:
354,60,73242,1,2,3:2:0:0:
378,362,73421,2,0,P|322:341|303:314,1,75.0000028610231,10|0,0:0|0:0,0:0:0:0:
211,157,73689,2,0,P|220:215|206:245,1,75.0000028610231,8|0,0:0|0:0,0:0:0:0:
193,254,73957,1,0,0:0:0:0:
211,157,74135,6,0,L|311:165,2,75.0000028610231,2|2|0,3:2|0:0|0:0,0:0:0:0:
62,384,74670,2,0,P|102:347|106:313,1,75.0000028610231,8|2,0:0|0:0,0:0:0:0:
27,185,74938,1,2,0:0:0:0:
28,204,75027,1,2,0:0:0:0:
33,220,75117,1,2,0:0:0:0:
341,216,75742,5,2,0:0:0:0:
341,216,75831,1,2,0:0:0:0:
341,216,75920,1,2,0:0:0:0:
272,173,76099,1,2,0:0:0:0:
186,192,76277,1,2,0:0:0:0:
128,278,76456,1,2,0:0:0:0:
143,264,76813,5,2,0:0:0:0:
116,164,76992,1,2,0:0:0:0:
106,167,77349,1,2,0:0:0:0:
206,193,77528,1,2,0:0:0:0:
204,181,77884,1,2,0:0:0:0:
410,348,78242,5,2,0:0:0:0:
420,275,78420,1,2,0:0:0:0:
406,185,78599,1,2,0:0:0:0:
346,235,78777,1,2,0:0:0:0:
410,348,78956,1,2,0:0:0:0:
399,360,79313,5,2,0:0:0:0:
359,351,79492,1,2,0:0:0:0:
284,341,79670,1,2,0:0:0:0:
191,346,79849,1,2,0:0:0:0:
114,365,80027,1,2,0:0:0:0:
247,208,80206,6,0,P|243:252|224:293,1,64.9999970245363,12|0,0:2|0:0,0:0:0:0:
401,119,80384,1,8,0:0:0:0:
439,185,80474,1,8,0:0:0:0:
451,257,80563,1,8,0:0:0:0:
247,208,80742,1,8,0:0:0:0:
439,185,80920,1,8,0:0:0:0:
128,290,81099,6,0,L|120:202,1,75.0000028610231,4|0,0:0|0:0,0:0:0:0:
379,21,81456,2,0,L|363:197,2,160,8|4|8,0:0|0:0|0:0,0:0:0:0:
339,126,81991,1,2,0:2:0:0:
353,251,82170,1,4,0:0:0:0:
511,0,82349,6,0,P|486:27|475:87,1,100,8|4,0:0|0:0,0:0:0:0:
494,285,82884,5,8,0:0:0:0:
485,258,82973,1,8,0:0:0:0:
464,235,83062,1,8,0:0:0:0:
272,221,83241,1,4,0:0:0:0:
331,372,83419,1,4,0:0:0:0:
354,357,83508,1,4,0:0:0:0:
372,332,83597,1,4,0:0:0:0:
280,209,83776,1,4,0:0:0:0:
181,283,83955,1,4,0:0:0:0:
183,306,84044,1,4,0:0:0:0:
186,330,84134,6,0,L|197:192,1,100,2|0,0:2|0:0,0:0:0:0:
49,9,84491,2,0,L|56:108,1,100,4|2,0:0|0:0,0:0:0:0:
290,82,84848,1,8,0:0:0:0:
169,50,85026,1,2,0:0:0:0:
199,155,85205,1,4,0:0:0:0:
369,65,85384,6,0,P|341:24|311:8,1,64.9999970245363,2|0,0:2|0:0,0:0:0:0:
415,152,85562,2,0,P|390:131|374:102,1,64.9999970245363,2|0,0:2|0:0,0:0:0:0:
487,183,85741,2,0,P|463:211|430:229,1,75.0000028610231,8|0,0:0|0:0,0:0:0:0:
227,261,86009,2,0,L|282:256,1,37.5000014305115
293,269,86187,1,0,0:0:0:0:
166,311,86276,5,8,0:2:0:0:
