osu file format v14

[General]
AudioFilename: audio.mp3
AudioLeadIn: 0
PreviewTime: 45565
Countdown: 0
SampleSet: Soft
StackLeniency: 0.7
Mode: 1
LetterboxInBreaks: 0
WidescreenStoryboard: 0

[Editor]
DistanceSpacing: 1.3
BeatDivisor: 4
GridSize: 32
TimelineZoom: 1.5

[Metadata]
Title:Munou (TV Size)
TitleUnicode:無能 (TV Size)
Artist:oesterreich
ArtistUnicode:österreich
Creator:-GN Junior
Version:Ura Muzukashii
Source:東京喰種√A
Tags:Tokyo Ghoul osterreich root a square Nelliel opening op
BeatmapID:1848451
BeatmapSetID:884335

[Difficulty]
HPDrainRate:5.5
CircleSize:10
OverallDifficulty:4.5
ApproachRate:10
SliderMultiplier:1.4
SliderTickRate:1

[Events]
//Background and Video events
0,0,"munou.png",0,0
//Break Periods
//Storyboard Layer 0 (Background)
//Storyboard Layer 1 (Fail)
//Storyboard Layer 2 (Pass)
//Storyboard Layer 3 (Foreground)
//Storyboard Sound Samples

[TimingPoints]
210,357.142857142857,7,2,0,50,1,0
2709,357.142857142857,6,2,0,50,1,0
4761,-100,6,2,0,70,0,0
4851,357.142857142857,7,2,0,70,1,0
7350,357.142857142857,5,2,0,70,1,0
9135,357.142857142857,7,2,0,70,1,0
11635,357.142857142857,6,2,0,70,1,0
13777,357.142857142857,7,2,0,70,1,0
16277,357.142857142857,5,2,0,70,1,8
16280,357.142857142857,5,2,0,70,1,0
18065,357.142857142857,7,2,0,70,1,8
18066,357.142857142857,7,2,0,70,1,0
20566,357.142857142857,6,2,0,70,1,0
22708,357.142857142857,7,2,0,70,1,0
25208,357.142857142857,4,2,0,70,1,0
27350,-100,4,2,0,90,0,0
28065,357.142857142857,6,2,0,70,1,0
43064,357.142857142857,4,2,0,70,1,8
43065,357.142857142857,4,2,0,70,1,0
45922,357.142857142857,7,2,0,70,1,8
45923,357.142857142857,7,2,0,70,1,1
48423,357.142857142857,6,2,0,70,1,1
50565,357.142857142857,7,2,0,70,1,1
53065,357.142857142857,6,2,0,70,1,1
55207,357.142857142857,4,2,0,70,1,9
55208,357.142857142857,4,2,0,70,1,1
59493,357.142857142857,4,2,0,70,1,1
62350,357.142857142857,6,2,0,70,1,1
64492,357.142857142857,4,2,0,70,1,1
65206,-100,4,2,0,70,0,0
67349,357.142857142857,7,2,0,70,1,8
67350,357.142857142857,7,2,0,70,1,0
69850,357.142857142857,4,2,0,70,1,0
74135,357.142857142857,3,2,0,70,1,0
74820,363.636363636364,3,2,0,70,1,8
74820,-98.2142857142856,3,2,0,70,0,0
75183,372.670807453416,3,2,0,70,1,8
75183,-95.8333333333334,3,2,0,70,0,0
75742,357.142857142857,7,2,0,50,1,0
78242,357.142857142857,6,2,0,50,1,0
80206,357.142857142857,4,2,0,70,1,0
82884,357.142857142857,5,2,0,70,1,0
84491,357.142857142857,5,2,0,70,1,0

[HitObjects]
256,192,210,5,2,0:0:0:0:
256,192,388,1,0,0:0:0:0:
256,192,745,1,2,0:0:0:0:
256,192,924,1,0,0:0:0:0:
256,192,1281,1,0,0:0:0:0:
256,192,1459,1,2,0:0:0:0:
256,192,1638,1,2,0:0:0:0:
256,192,1817,1,0,0:0:0:0:
256,192,1995,1,2,0:0:0:0:
256,192,2174,1,0,0:0:0:0:
256,192,2352,1,2,0:0:0:0:
256,192,2709,1,2,0:0:0:0:
256,192,2887,1,2,0:0:0:0:
256,192,3066,1,0,0:0:0:0:
256,192,3244,1,2,0:0:0:0:
256,192,3423,1,0,0:0:0:0:
256,192,3780,1,2,0:0:0:0:
256,192,3958,1,0,0:0:0:0:
256,192,4137,1,2,0:0:0:0:
256,192,4316,1,0,0:0:0:0:
256,192,4494,1,2,0:0:0:0:
256,192,4851,1,4,0:0:0:0:
256,192,5029,1,4,0:0:0:0:
256,192,5565,1,2,0:0:0:0:
256,192,6101,1,0,0:0:0:0:
256,192,6190,1,0,0:0:0:0:
256,192,6279,1,0,0:0:0:0:
256,192,6458,1,2,0:0:0:0:
256,192,6636,1,0,0:0:0:0:
256,192,6993,1,2,0:0:0:0:
256,192,7350,1,0,0:0:0:0:
256,192,7528,1,0,0:0:0:0:
256,192,7707,1,2,0:0:0:0:
256,192,7885,1,2,0:0:0:0:
256,192,8064,1,0,0:0:0:0:
256,192,8421,1,2,0:0:0:0:
256,192,8689,1,2,0:0:0:0:
256,192,8957,1,0,0:0:0:0:
256,192,9135,1,2,0:0:0:0:
256,192,9313,1,0,0:0:0:0:
256,192,9402,1,0,0:0:0:0:
256,192,9492,1,0,0:0:0:0:
256,192,9670,1,2,0:0:0:0:
256,192,9849,1,0,0:0:0:0:
256,192,10206,1,2,0:0:0:0:
256,192,10742,1,2,0:0:0:0:
256,192,11099,1,2,0:0:0:0:
256,192,11277,1,0,0:0:0:0:
256,192,11456,1,0,0:0:0:0:
256,192,11635,1,2,0:0:0:0:
256,192,11813,1,0,0:0:0:0:
256,192,11992,1,0,0:0:0:0:
256,192,12170,1,2,0:0:0:0:
256,192,12349,1,0,0:0:0:0:
256,192,12527,1,2,0:0:0:0:
256,192,12885,1,0,0:0:0:0:
256,192,13063,1,2,0:0:0:0:
256,192,13242,1,2,0:0:0:0:
256,192,13420,1,0,0:0:0:0:
256,192,13599,1,2,0:0:0:0:
256,192,13777,1,0,0:0:0:0:
256,192,14312,1,2,0:0:0:0:
256,192,14491,1,0,0:0:0:0:
256,192,14848,1,2,0:0:0:0:
256,192,15027,1,0,0:0:0:0:
256,192,15205,1,2,0:0:0:0:
256,192,15384,1,0,0:0:0:0:
256,192,15562,1,2,0:0:0:0:
256,192,15919,1,0,0:0:0:0:
256,192,16098,1,0,0:0:0:0:
256,192,16280,1,2,0:0:0:0:
256,192,16458,1,0,0:0:0:0:
256,192,16547,1,0,0:0:0:0:
256,192,16637,1,0,0:0:0:0:
256,192,16815,1,6,0:0:0:0:
256,192,17172,1,0,0:0:0:0:
256,192,17351,1,4,0:0:0:0:
256,192,17619,1,4,0:0:0:0:
256,192,17887,1,4,0:0:0:0:
256,192,18066,1,2,0:0:0:0:
256,192,18423,1,0,0:0:0:0:
256,192,18780,1,2,0:0:0:0:
256,192,19137,1,2,0:0:0:0:
256,192,19316,1,2,0:0:0:0:
256,192,19494,1,0,0:0:0:0:
256,192,19673,1,2,0:0:0:0:
256,192,19851,1,0,0:0:0:0:
256,192,20030,1,2,0:0:0:0:
256,192,20208,1,2,0:0:0:0:
256,192,20566,1,2,0:0:0:0:
256,192,20744,1,0,0:0:0:0:
256,192,20923,1,2,0:0:0:0:
256,192,21101,1,2,0:0:0:0:
256,192,21280,1,0,0:0:0:0:
256,192,21637,1,0,0:0:0:0:
256,192,21816,1,2,0:0:0:0:
256,192,21994,1,2,0:0:0:0:
256,192,22173,1,0,0:0:0:0:
256,192,22351,1,2,0:0:0:0:
256,192,22708,1,2,0:0:0:0:
256,192,22886,1,0,0:0:0:0:
256,192,23065,1,0,0:0:0:0:
256,192,23243,1,2,0:0:0:0:
256,192,23600,1,2,0:0:0:0:
256,192,23779,1,0,0:0:0:0:
256,192,24315,1,0,0:0:0:0:
256,192,24493,1,2,0:0:0:0:
256,192,24850,1,2,0:0:0:0:
256,192,25029,1,0,0:0:0:0:
256,192,25118,1,0,0:0:0:0:
256,192,25208,1,0,0:0:0:0:
256,192,25386,1,2,0:0:0:0:
256,192,25475,1,2,0:0:0:0:
256,192,25565,1,2,0:0:0:0:
256,192,25743,1,0,0:0:0:0:
256,192,26100,1,2,0:0:0:0:
256,192,26279,1,0,0:0:0:0:
256,192,26458,1,2,0:0:0:0:
256,192,26547,1,2,0:0:0:0:
256,192,26636,1,2,0:0:0:0:
256,192,26815,1,0,0:0:0:0:
256,192,26993,1,0,0:0:0:0:
256,192,27350,1,2,0:0:0:0:
256,192,27440,1,2,0:0:0:0:
256,192,27529,1,2,0:0:0:0:
256,192,27708,1,2,0:0:0:0:
256,192,27797,1,2,0:0:0:0:
256,192,27886,1,2,0:0:0:0:
256,192,28065,1,4,0:0:0:0:
256,192,28422,1,0,0:0:0:0:
256,192,28779,1,2,0:0:0:0:
256,192,29136,1,0,0:0:0:0:
256,192,29493,1,2,0:0:0:0:
256,192,29850,1,2,0:0:0:0:
256,192,30207,1,0,0:0:0:0:
256,192,30565,1,0,0:0:0:0:
256,192,30922,1,2,0:0:0:0:
256,192,31636,1,2,0:0:0:0:
256,192,31993,1,0,0:0:0:0:
256,192,32172,1,0,0:0:0:0:
256,192,32350,1,2,0:0:0:0:
256,192,32707,1,0,0:0:0:0:
256,192,33065,1,2,0:0:0:0:
256,192,33422,1,2,0:0:0:0:
256,192,33779,1,0,0:0:0:0:
256,192,34315,1,2,0:0:0:0:
256,192,34493,1,0,0:0:0:0:
256,192,34582,1,0,0:0:0:0:
256,192,34672,1,0,0:0:0:0:
256,192,34850,1,0,0:0:0:0:
256,192,34940,1,0,0:0:0:0:
256,192,35029,1,0,0:0:0:0:
256,192,35565,1,2,0:0:0:0:
256,192,35922,1,0,0:0:0:0:
256,192,36100,1,2,0:0:0:0:
256,192,36279,1,0,0:0:0:0:
256,192,36636,1,4,0:0:0:0:
256,192,36993,1,2,0:0:0:0:
256,192,37172,1,0,0:0:0:0:
256,192,37350,1,2,0:0:0:0:
256,192,37529,1,0,0:0:0:0:
256,192,37707,1,0,0:0:0:0:
256,192,37886,1,2,0:0:0:0:
256,192,38065,1,0,0:0:0:0:
256,192,38422,1,2,0:0:0:0:
256,192,38779,1,0,0:0:0:0:
256,192,38957,1,0,0:0:0:0:
256,192,39136,1,2,0:0:0:0:
256,192,39314,1,0,0:0:0:0:
256,192,39493,1,2,0:0:0:0:
256,192,40029,1,0,0:0:0:0:
256,192,40207,1,2,0:0:0:0:
256,192,40564,1,0,0:0:0:0:
256,192,40922,1,2,0:0:0:0:
256,192,41279,1,0,0:0:0:0:
256,192,41636,1,2,0:0:0:0:
256,192,41993,1,2,0:0:0:0:
256,192,42172,1,0,0:0:0:0:
256,192,42350,1,2,0:0:0:0:
256,192,42707,1,2,0:0:0:0:
256,192,43065,1,6,0:0:0:0:
256,192,43422,1,0,0:0:0:0:
256,192,43600,1,6,0:0:0:0:
256,192,43957,1,0,0:0:0:0:
256,192,44136,1,6,0:0:0:0:
256,192,44493,1,2,0:0:0:0:
256,192,44672,1,0,0:0:0:0:
256,192,44761,1,0,0:0:0:0:
256,192,44850,1,0,0:0:0:0:
256,192,45029,1,2,0:0:0:0:
256,192,45207,1,0,0:0:0:0:
256,192,45386,1,2,0:0:0:0:
256,192,45475,1,2,0:0:0:0:
256,192,45565,1,2,0:0:0:0:
256,192,45923,1,4,0:0:0:0:
256,192,46458,1,0,0:0:0:0:
256,192,46637,1,2,0:0:0:0:
256,192,46994,1,0,0:0:0:0:
256,192,47351,1,2,0:0:0:0:
256,192,47708,1,0,0:0:0:0:
256,192,47887,1,2,0:0:0:0:
256,192,48065,1,2,0:0:0:0:
256,192,48423,1,4,0:0:0:0:
256,192,48690,1,0,0:0:0:0:
256,192,48958,1,2,0:0:0:0:
256,192,49137,1,0,0:0:0:0:
256,192,49315,1,2,0:0:0:0:
256,192,49494,1,0,0:0:0:0:
256,192,49851,1,2,0:0:0:0:
256,192,50208,1,0,0:0:0:0:
256,192,50565,1,6,0:0:0:0:
256,192,50743,1,0,0:0:0:0:
256,192,51100,1,2,0:0:0:0:
256,192,51457,1,0,0:0:0:0:
256,192,51636,1,2,0:0:0:0:
256,192,51815,1,0,0:0:0:0:
256,192,52172,1,0,0:0:0:0:
256,192,52350,1,2,0:0:0:0:
256,192,52707,1,2,0:0:0:0:
256,192,53065,1,4,0:0:0:0:
256,192,53422,1,2,0:0:0:0:
256,192,53600,1,4,0:0:0:0:
256,192,53957,1,2,0:0:0:0:
256,192,54136,1,4,0:0:0:0:
256,192,54493,1,2,0:0:0:0:
256,192,54672,1,0,0:0:0:0:
256,192,54850,1,2,0:0:0:0:
256,192,55208,1,6,0:0:0:0:
256,192,55386,1,0,0:0:0:0:
256,192,55565,1,2,0:0:0:0:
256,192,55922,1,2,0:0:0:0:
256,192,56279,1,0,0:0:0:0:
256,192,56458,1,2,0:0:0:0:
256,192,56815,1,2,0:0:0:0:
256,192,56993,1,0,0:0:0:0:
256,192,57172,1,2,0:0:0:0:
256,192,57529,1,2,0:0:0:0:
256,192,57886,1,0,0:0:0:0:
256,192,58065,1,0,0:0:0:0:
256,192,58243,1,2,0:0:0:0:
256,192,58422,1,2,0:0:0:0:
256,192,58779,1,0,0:0:0:0:
256,192,58958,1,2,0:0:0:0:
256,192,59136,1,0,0:0:0:0:
256,192,59225,1,0,0:0:0:0:
256,192,59315,1,0,0:0:0:0:
256,192,59493,1,6,0:0:0:0:
256,192,59850,1,0,0:0:0:0:
256,192,60028,1,6,0:0:0:0:
256,192,60385,1,0,0:0:0:0:
256,192,60564,1,6,0:0:0:0:
256,192,61100,1,2,0:0:0:0:
256,192,61189,1,2,0:0:0:0:
256,192,61278,1,2,0:0:0:0:
256,192,61457,1,0,0:0:0:0:
256,192,61635,1,2,0:0:0:0:
256,192,61993,1,0,0:0:0:0:
256,192,62112,1,0,0:0:0:0:
256,192,62231,1,0,0:0:0:0:
256,192,62350,1,6,0:0:0:0:
256,192,62707,1,0,0:0:0:0:
256,192,62885,1,6,0:0:0:0:
256,192,63421,1,6,0:0:0:0:
256,192,63957,1,0,0:0:0:0:
256,192,64135,1,2,0:0:0:0:
256,192,64492,1,4,0:0:0:0:
256,192,65206,1,2,0:0:0:0:
256,192,65563,1,0,0:0:0:0:
256,192,65742,1,0,0:0:0:0:
256,192,65920,1,2,0:0:0:0:
256,192,66277,1,2,0:0:0:0:
256,192,66634,1,0,0:0:0:0:
256,192,66992,1,2,0:0:0:0:
256,192,67170,1,0,0:0:0:0:
256,192,67350,1,2,0:0:0:0:
256,192,67617,1,2,0:0:0:0:
256,192,67885,1,2,0:0:0:0:
256,192,68064,1,0,0:0:0:0:
256,192,68421,1,2,0:0:0:0:
256,192,68600,1,0,0:0:0:0:
256,192,68778,1,2,0:0:0:0:
256,192,69135,1,2,0:0:0:0:
256,192,69492,1,0,0:0:0:0:
256,192,69671,1,2,0:0:0:0:
256,192,69850,1,0,0:0:0:0:
256,192,70028,1,2,0:0:0:0:
256,192,70207,1,0,0:0:0:0:
256,192,70564,1,2,0:0:0:0:
256,192,71100,1,2,0:0:0:0:
256,192,71278,1,0,0:0:0:0:
256,192,71635,1,0,0:0:0:0:
256,192,71992,1,2,0:0:0:0:
256,192,72260,1,0,0:0:0:0:
256,192,72528,1,2,0:0:0:0:
256,192,72707,1,0,0:0:0:0:
256,192,72885,1,2,0:0:0:0:
256,192,72975,1,2,0:0:0:0:
256,192,73064,1,2,0:0:0:0:
256,192,73242,1,0,0:0:0:0:
256,192,73421,1,2,0:0:0:0:
256,192,73897,1,0,0:0:0:0:
256,192,74135,1,2,0:0:0:0:
256,192,74313,1,0,0:0:0:0:
256,192,74402,1,0,0:0:0:0:
256,192,74492,1,0,0:0:0:0:
256,192,74670,1,2,0:0:0:0:
256,192,74819,1,0,0:0:0:0:
256,192,75001,1,0,0:0:0:0:
256,192,75092,1,0,0:0:0:0:
256,192,75742,1,0,0:0:0:0:
256,192,75831,1,0,0:0:0:0:
256,192,75920,1,0,0:0:0:0:
256,192,76099,1,2,0:0:0:0:
256,192,76277,1,0,0:0:0:0:
256,192,76456,1,2,0:0:0:0:
256,192,76813,1,2,0:0:0:0:
256,192,76992,1,0,0:0:0:0:
256,192,77349,1,0,0:0:0:0:
256,192,77527,1,2,0:0:0:0:
256,192,77884,1,0,0:0:0:0:
256,192,78242,1,0,0:0:0:0:
256,192,78599,1,2,0:0:0:0:
256,192,78777,1,0,0:0:0:0:
256,192,78956,1,2,0:0:0:0:
256,192,79313,1,2,0:0:0:0:
256,192,79492,1,0,0:0:0:0:
256,192,79670,1,2,0:0:0:0:
256,192,79849,1,2,0:0:0:0:
256,192,80027,1,0,0:0:0:0:
256,192,80206,1,4,0:0:0:0:
256,192,80384,1,2,0:0:0:0:
256,192,80473,1,2,0:0:0:0:
256,192,80563,1,2,0:0:0:0:
256,192,80741,1,0,0:0:0:0:
256,192,80920,1,2,0:0:0:0:
256,192,81098,1,0,0:0:0:0:
256,192,81456,1,2,0:0:0:0:
256,192,81634,1,0,0:0:0:0:
256,192,81813,1,2,0:0:0:0:
256,192,82170,1,0,0:0:0:0:
256,192,82348,1,2,0:0:0:0:
256,192,82706,1,0,0:0:0:0:
256,192,82884,1,2,0:0:0:0:
256,192,82973,1,2,0:0:0:0:
256,192,83062,1,2,0:0:0:0:
256,192,83241,1,0,0:0:0:0:
256,192,83419,1,2,0:0:0:0:
256,192,83509,1,2,0:0:0:0:
256,192,83598,1,2,0:0:0:0:
256,192,83776,1,0,0:0:0:0:
256,192,83955,1,2,0:0:0:0:
256,192,84044,1,2,0:0:0:0:
256,192,84134,1,2,0:0:0:0:
256,192,84491,1,2,0:0:0:0:
256,192,84669,1,0,0:0:0:0:
256,192,84848,1,0,0:0:0:0:
256,192,85026,1,2,0:0:0:0:
256,192,85383,1,0,0:0:0:0:
256,192,85562,1,0,0:0:0:0:
256,192,85741,1,6,0:0:0:0:
256,192,86008,1,4,0:0:0:0:
256,192,86276,1,6,0:0:0:0:
