osu file format v14

[General]
AudioFilename: audio.mp3
AudioLeadIn: 0
PreviewTime: 45923
Countdown: 1
SampleSet: Soft
StackLeniency: 0.2
Mode: 0
LetterboxInBreaks: 0
WidescreenStoryboard: 0

[Editor]
DistanceSpacing: 1.3
BeatDivisor: 4
GridSize: 8
TimelineZoom: 1.5

[Metadata]
Title:Munou (TV Edit)
TitleUnicode:無能 (TV Edit)
Artist:oesterreich
ArtistUnicode:österreich
Creator:Swell
Version:Incompetence
Source:東京喰種√A
Tags:Tokyo Ghoul Root A osterreich anime TV Size
BeatmapID:1379325
BeatmapSetID:650991

[Difficulty]
HPDrainRate:6
CircleSize:5
OverallDifficulty:6
ApproachRate:8
SliderMultiplier:1.4
SliderTickRate:1

[Events]
//Background and Video events
0,0,"munou_waifu2x_art_noise3_scale_tta_1.png",0,0
//Break Periods
//Storyboard Layer 0 (Background)
//Storyboard Layer 1 (Fail)
//Storyboard Layer 2 (Pass)
//Storyboard Layer 3 (Foreground)
//Storyboard Sound Samples

[TimingPoints]
210,357.142857142857,7,2,1,50,1,0
210,-125,7,2,1,50,0,0
2709,357.142857142857,6,2,1,50,1,0
2709,-125,6,2,1,50,0,0
4851,357.142857142857,7,2,1,50,1,0
6636,-125,7,2,1,50,0,0
7350,357.142857142857,5,2,1,50,1,0
9135,357.142857142857,4,2,1,50,1,0
9135,-125,4,2,1,50,0,0
11992,357.142857142857,5,2,1,50,1,0
13777,357.142857142857,7,2,1,50,1,0
13777,-125,7,2,1,50,0,0
16280,357.142857142857,5,2,1,50,1,0
16280,-125,5,2,1,50,0,0
18066,357.142857142857,7,2,1,50,1,0
18066,-125,7,2,1,50,0,0
20566,357.142857142857,6,2,1,50,1,0
20566,-125,6,2,1,50,0,0
22708,357.142857142857,7,2,1,50,1,0
22708,-125,7,2,1,50,0,0
25208,357.142857142857,4,2,1,50,1,0
28065,357.142857142857,4,2,1,50,1,0
28065,-166.666666666667,4,2,1,50,0,0
36636,-125,4,2,1,50,0,0
40922,357.142857142857,6,2,1,50,1,0
43065,357.142857142857,4,2,1,50,1,0
45923,357.142857142857,7,2,1,50,1,1
48423,357.142857142857,6,2,1,50,1,1
49137,-83.3333333333333,6,2,1,50,0,1
50565,357.142857142857,7,2,1,50,1,1
52350,-83.3333333333333,7,2,1,50,0,1
53065,357.142857142857,6,2,1,50,1,1
55208,357.142857142857,4,2,1,50,1,1
55208,-83.3333333333333,4,2,1,50,0,1
64493,-100,4,2,1,50,0,1
65208,357.142857142857,6,2,1,50,1,1
67350,357.142857142857,7,2,1,50,1,1
69850,357.142857142857,4,2,1,50,1,1
74135,357.142857142857,3,2,1,50,1,1
75206,-100,4,2,1,60,0,0
75742,357.142857142857,7,2,1,50,1,0
75742,-166.666666666667,7,2,1,50,0,0
78242,357.142857142857,4,2,1,50,1,0
78242,-166.666666666667,4,2,1,50,0,0
81099,357.142857142857,5,2,1,50,1,0
82884,357.142857142857,4,2,1,40,1,0
84134,357.142857142857,6,2,1,50,1,0

[Colours]
Combo1 : 255,94,55
Combo2 : 173,255,95
Combo3 : 17,254,176
Combo4 : 255,88,100

[HitObjects]
37,140,210,6,0,P|66:145|104:152,1,56,2|0,0:0|0:0,0:0:0:0:
113,180,745,6,0,P|148:176|180:173,1,56,2|0,0:0|0:0,0:0:0:0:
191,198,1281,6,0,P|226:199|258:201,1,56,2|0,0:0|0:0,0:0:0:0:
341,201,1638,1,2,0:0:0:0:
290,278,1817,1,0,0:0:0:0:
189,277,1995,1,2,0:0:0:0:
247,201,2174,1,0,0:0:0:0:
341,201,2352,1,2,0:0:0:0:
189,277,2531,1,0,0:0:0:0:
347,291,2709,6,0,P|374:293|402:294,1,56,4|0,0:0|0:0,0:0:0:0:
442,155,3066,2,0,P|455:180|469:205,1,56,2|0,0:0|0:0,0:0:0:0:
339,179,3423,1,4,0:0:0:0:
339,179,3780,6,0,P|314:159|268:148,1,56,2|0,0:0|0:0,0:0:0:0:
165,211,4137,2,0,P|187:203|212:173,1,56,2|0,0:0|0:0,0:0:0:0:
224,100,4494,2,0,P|215:69|187:50,1,56,2|0,0:0|0:0,0:0:0:0:
34,155,4851,5,4,3:0:0:0:
34,155,5029,1,4,3:0:0:0:
110,206,5208,1,0,0:0:0:0:
207,201,5386,1,2,2:0:0:0:
378,259,5565,5,0,1:0:0:0:
311,218,5743,1,0,0:0:0:0:
370,170,5922,1,2,2:0:0:0:
462,211,6101,5,2,1:2:0:0:
455,209,6190,1,2,2:0:0:0:
449,207,6279,1,2,2:0:0:0:
370,302,6458,1,0,1:0:0:0:
455,341,6636,2,0,P|481:312|454:312,1,84,2|0,1:2|0:0,0:0:0:0:
375,338,6993,2,0,P|388:314|363:242,1,84,4|0,1:2|0:0,0:0:0:0:
248,209,7350,6,0,L|331:245,1,70,2|0,1:2|0:0,0:0:0:0:
268,335,7707,5,2,2:0:0:0:
192,285,7885,1,0,0:0:0:0:
114,312,8064,1,2,1:2:0:0:
98,312,8421,6,0,P|132:334|161:363,1,70,4|0,1:0|1:0,1:0:0:0:
87,220,8689,6,0,P|54:201|22:170,1,70,4|0,1:2|1:0,1:0:0:0:
180,163,8957,5,4,1:2:0:0:
339,148,9135,5,4,3:0:0:0:
286,193,9313,1,6,3:2:0:0:
268,198,9402,1,2,2:0:0:0:
246,197,9492,1,2,2:0:0:0:
180,163,9670,1,0,0:0:0:0:
124,107,9849,5,2,1:2:0:0:
124,18,10027,1,2,2:0:0:0:
147,32,10385,5,2,1:2:0:0:
21,65,10563,2,0,P|79:79|135:117,1,112,2|2,2:0|2:0,2:0:0:0:
174,176,11099,1,0,0:0:0:0:
97,214,11277,1,2,1:2:0:0:
140,286,11456,5,2,2:0:0:0:
142,298,11813,5,2,2:0:0:0:
228,302,11992,1,0,0:0:0:0:
196,220,12170,1,2,2:0:0:0:
59,207,12349,6,0,P|74:251|67:298,1,70,4|2,2:0|2:0,0:0:0:0:
75,290,12884,5,4,3:0:0:0:
9,332,13063,1,4,3:0:0:0:
76,369,13242,1,2,0:2:0:0:
142,328,13420,1,0,1:2:0:0:
9,332,13599,1,2,1:2:0:0:
142,328,13777,6,0,L|89:383,1,56
195,275,14134,1,2,2:0:0:0:
247,213,14312,1,2,1:2:0:0:
200,122,14491,6,4,P|175:149|154:186,1,56,4|2,2:0|2:0,1:2:0:0:
162,180,15027,5,4,3:0:0:0:
162,180,15205,1,4,3:0:0:0:
242,137,15384,1,2,1:2:0:0:
328,133,15563,1,0,1:2:0:0:
420,147,15741,1,2,2:0:0:0:
501,272,15919,2,0,P|494:243|461:237,1,56,0|2,1:0|2:2,2:0:0:0:
333,220,16280,6,0,P|366:209|407:208,1,56,4|0,1:2|1:0,0:0:0:0:
413,207,16547,1,0,1:0:0:0:
437,213,16637,1,0,1:0:0:0:
262,348,16815,6,4,P|272:310|265:229,1,112,4|2,1:2|1:2,1:2:0:0:
263,93,17351,5,4,3:0:0:0:
195,127,17619,1,4,3:0:0:0:
124,158,17887,1,8,3:0:0:0:
194,114,18066,5,4,1:2:0:0:
103,80,18244,1,2,2:0:0:0:
117,75,18601,5,2,2:0:0:0:
42,166,18780,1,2,1:2:0:0:
100,332,19137,5,4,3:0:0:0:
90,319,19316,1,4,3:0:0:0:
93,300,19494,1,2,2:3:0:0:
66,269,19673,1,0,1:0:0:0:
87,229,19851,1,2,2:0:0:0:
146,215,20030,1,2,2:3:0:0:
196,264,20208,1,4,3:0:0:0:
165,337,20387,1,2,2:0:0:0:
277,185,20566,5,4,1:2:0:0:
213,249,20744,1,0,0:0:0:0:
301,276,20923,1,2,2:0:0:0:
393,255,21101,1,0,0:0:0:0:
478,269,21280,1,2,1:2:0:0:
486,255,21637,6,0,P|477:215|448:196,1,56,2|0,2:0|0:0,0:0:0:0:
401,151,21994,1,2,2:0:0:0:
323,138,22173,1,2,1:2:0:0:
397,75,22351,1,0,0:0:0:0:
324,65,22530,1,0,0:0:0:0:
208,104,22708,6,4,P|238:90|238:58,1,56,4|0,1:2|1:0,1:2:0:0:
145,75,23065,1,0,0:0:0:0:
127,146,23243,2,0,P|106:163|80:157,1,56,4|0,1:2|0:0,0:0:0:0:
145,75,23600,2,0,P|132:102|59:92,1,112,4|2,1:2|2:0,0:0:0:0:
0,124,24136,5,0,0:0:0:0:
52,168,24315,1,2,2:0:0:0:
16,224,24493,1,2,1:2:0:0:
68,264,24672,1,2,2:0:0:0:
195,336,24850,6,2,L|216:349,6,14,2|2|2|2|2|2|2,2:0|2:0|2:0|2:0|2:0|2:0|2:0,2:0:0:0:
177,314,25208,6,0,P|217:321|289:311,1,105,0|2,1:2|2:0,0:0:0:0:
302,300,25565,2,0,P|269:304|254:275,1,70,0|2,1:2|2:0,0:0:0:0:
460,227,25922,6,0,P|414:237|342:233,1,105,2|2,1:2|2:0,0:0:0:0:
333,233,26279,2,0,P|365:226|369:193,1,70,2|2,1:2|2:0,0:0:0:0:
266,95,26636,6,0,P|310:115|379:120,1,105,2|2,1:2|2:0,0:0:0:0:
385,124,26993,2,0,P|360:102|376:73,1,70,2|2,1:2|2:0,0:0:0:0:
480,140,27350,5,4,3:0:0:0:
477,160,27440,1,8,3:0:0:0:
473,182,27529,1,4,3:0:0:0:
471,201,27618,1,8,3:0:0:0:
467,225,27708,1,4,3:0:0:0:
464,246,27797,1,8,3:0:0:0:
461,266,27886,1,4,3:0:0:0:
459,284,27975,1,8,3:0:0:0:
447,332,28065,6,4,L|405:255,1,83.9999974365235,4|0,3:0|2:0,2:0:0:0:
314,291,28779,2,0,L|322:198,1,83.9999974365235,0|0,1:0|2:0,2:0:0:0:
210,226,29493,2,0,L|245:143,1,83.9999974365235,4|0,3:0|2:0,3:0:0:0:
203,45,30207,1,0,1:0:0:0:
203,45,30565,2,0,P|164:52|132:6,2,83.9999974365235,2|0|0,2:0|2:0|2:0,2:0:0:0:
203,45,31636,1,0,1:0:0:0:
144,132,31993,6,0,L|185:120,1,41.9999987182618,0|0,1:0|1:0,1:0:0:0:
287,174,32350,6,2,L|185:188,1,83.9999974365235,4|2,3:0|2:0,2:0:0:0:
347,278,33065,2,0,L|250:242,1,83.9999974365235,0|2,1:0|2:0,0:0:0:0:
387,344,33779,1,4,3:0:0:0:
243,341,34136,2,0,L|290:342,1,41.9999987182618,0|0,1:0|1:0,1:0:0:0:
152,318,34493,6,2,L|146:335,6,10.4999996795654,2|2|2|2|2|2|2,2:0|2:0|2:0|2:0|2:0|2:0|2:0,2:0:0:0:
131,229,34850,2,2,L|134:219,6,10.4999996795654,2|2|2|2|2|2|2,2:0|2:0|2:0|2:0|2:0|2:0|2:0,2:0:0:0:
191,174,35207,6,0,P|156:195|131:229,1,83.9999974365235,4|0,2:0|1:0,0:0:0:0:
427,186,35922,6,0,P|408:175|388:171,1,41.9999987182618,4|8,3:0|3:0,0:0:0:0:
297,150,36279,1,0,1:0:0:0:
379,106,36457,1,0,1:0:0:0:
487,301,36636,5,2,2:0:0:0:
449,305,36725,1,2,2:0:0:0:
420,291,36814,1,2,2:0:0:0:
406,270,36903,1,2,2:0:0:0:
422,260,36993,6,0,P|437:279|428:318,1,56,2|0,2:0|1:0,0:0:0:0:
309,314,37350,2,0,P|272:314|197:295,1,112,2|0,2:0|0:0,0:0:0:0:
118,248,37886,1,0,1:0:0:0:
126,156,38065,2,2,P|167:170|205:227,2,112,2|2|2,2:0|2:0|2:0,2:0:0:0:
126,156,38957,5,4,3:0:0:0:
126,156,39136,1,4,3:0:0:0:
62,103,39314,1,0,1:0:0:0:
116,64,39493,2,0,P|85:94|48:105,1,56,0|8,1:0|3:0,0:0:0:0:
33,170,39850,1,0,1:0:0:0:
98,205,40029,1,0,1:0:0:0:
94,336,40207,5,4,1:2:0:0:
87,344,40564,6,0,P|34:343|20:293,1,112,2|0,1:2|2:0,0:0:0:0:
60,276,41011,5,2,2:0:0:0:
89,273,41100,1,2,2:0:0:0:
120,261,41189,1,2,2:0:0:0:
155,247,41279,2,0,P|154:289|184:284,1,70
260,205,41636,2,0,P|248:238|242:290,1,70
329,271,41993,5,4,3:0:0:0:
315,283,42172,1,4,3:0:0:0:
315,312,42350,1,0,1:0:0:0:
370,352,42529,1,0,1:0:0:0:
410,266,42707,1,8,3:0:0:0:
307,183,42886,1,12,3:0:0:0:
155,128,43064,6,4,P|114:72|115:3,1,140,4|2,1:2|2:0,1:2:0:0:
123,202,43600,6,0,P|89:247|13:278,1,140,4|2,1:2|2:0,0:0:0:0:
209,184,44136,6,0,P|252:188|331:262,1,140,4|2,1:2|2:0,0:0:0:0:
325,280,44672,1,0,0:0:0:0:
289,265,44850,1,2,2:0:0:0:
242,218,45029,1,0,0:0:0:0:
195,134,45207,1,4,0:0:0:0:
86,65,45386,1,2,2:0:0:0:
109,78,45475,1,2,2:0:0:0:
126,106,45565,1,2,2:0:0:0:
1,23,45743,1,0,0:0:0:0:
154,205,45922,6,0,P|143:257|92:255,1,105,4|2,1:2|2:0,0:0:0:0:
117,307,46280,2,0,P|153:304|187:316,1,70,0|0,1:0|1:0,0:0:0:0:
303,297,46637,6,0,P|253:257|289:205,1,140,4|0,1:2|1:0,0:0:0:0:
362,317,47173,1,0,1:0:0:0:
424,74,47351,6,4,L|402:163,2,70,4|4|4,3:0|3:0|3:0,3:0:0:0:
245,157,47887,1,8,3:0:0:0:
102,267,48065,1,4,1:2:0:0:
94,273,48423,6,0,P|105:239|40:173,2,105,4|0|0,1:2|1:0|1:0,0:0:0:0:
236,89,49137,2,0,P|224:131|189:175,1,83.9999974365235,0|0,1:0|1:0,1:0:0:0:
94,273,49494,2,2,P|123:261|175:275,1,83.9999974365235,2|2,2:0|2:0,2:0:0:0:
303,330,49851,1,2,2:0:0:0:
238,226,50030,1,6,3:0:0:0:
147,154,50208,2,0,P|127:122|181:81,1,83.9999974365235
231,58,50565,6,4,P|272:71|247:0,1,140,4|2,1:2|2:0,1:2:0:0:
63,109,51100,6,0,P|25:156|80:180,1,140,4|2,1:2|2:0,0:0:0:0:
239,146,51636,5,4,3:0:0:0:
355,124,51815,1,8,3:0:0:0:
320,234,51993,1,0,1:0:0:0:
196,261,52172,1,0,1:0:0:0:
362,118,52350,6,0,P|371:158|320:219,1,125.999996154785,4|0,1:2|0:0,0:0:0:0:
210,92,52707,2,0,P|246:93|306:157,1,125.999996154785,4|0,1:2|0:0,0:0:0:0:
360,240,53065,6,0,P|415:265|428:205,1,140,4|2,1:2|2:0,0:0:0:0:
305,154,53600,6,0,P|243:161|257:221,1,140,4|0,1:2|2:0,0:0:0:0:
328,301,54136,6,0,P|373:332|448:349,2,105,0|0|0,1:0|1:0|1:0,1:0:0:0:
277,255,54850,1,4,1:2:0:0:
141,353,55207,6,0,L|234:316,1,70,2|0,1:2|0:0,0:0:0:0:
354,221,55565,2,0,L|275:256,1,83.9999974365235,2|0,1:2|0:0,0:0:0:0:
107,327,55922,2,0,L|186:297,1,83.9999974365235,2|0,1:2|0:0,0:0:0:0:
353,178,56279,2,0,L|271:214,1,83.9999974365235,2|0,1:2|0:0,0:0:0:0:
79,295,56636,2,0,L|158:265,1,83.9999974365235,2|0,1:2|0:0,0:0:0:0:
276,211,56993,1,4,3:0:0:0:
221,327,57172,1,8,3:0:0:0:
134,174,57529,5,0,1:0:0:0:
359,357,57886,6,4,P|377:317|274:284,1,167.999994873047,4|2,1:2|2:0,1:2:0:0:
357,201,58422,1,0,1:0:0:0:
413,175,58600,1,0,2:0:0:0:
442,118,58779,1,0,1:0:0:0:
385,36,58958,1,2,2:0:0:0:
279,81,59136,1,0,1:0:0:0:
190,177,59315,1,0,1:0:0:0:
198,160,59404,1,0,1:0:0:0:
195,143,59493,6,0,P|176:111|129:180,1,167.999994873047,4|2,1:2|2:0,0:0:0:0:
100,307,60029,6,0,P|109:246|34:269,1,167.999994873047,4|2,1:2|2:0,0:0:0:0:
332,243,60565,6,0,P|274:221|281:297,1,167.999994873047,4|0,3:2|0:0,0:0:0:0:
277,322,61100,5,2,1:2:0:0:
294,333,61190,1,2,1:2:0:0:
313,334,61279,1,2,1:2:0:0:
395,311,61458,1,0,0:0:0:0:
470,196,61636,6,0,P|450:216|438:241,2,55.9999982910157,0|0|0,1:0|1:0|1:0,1:0:0:0:
366,134,61993,5,0,1:0:0:0:
366,175,62112,1,0,1:0:0:0:
353,214,62231,1,0,1:0:0:0:
262,140,62350,6,0,P|291:88|406:52,1,167.999994873047,4|2,1:2|2:0,0:0:0:0:
173,110,62886,6,0,P|153:143|40:209,1,167.999994873047,4|2,1:2|2:0,0:0:0:0:
178,253,63422,6,0,P|202:227|324:238,1,167.999994873047,4|2,1:2|2:0,0:0:0:0:
240,313,63958,1,8,3:0:0:0:
144,146,64136,1,4,1:2:0:0:
160,145,64493,6,0,P|200:143|283:82,2,139.999995727539,2|2|0,2:0|2:0|1:0,0:0:0:0:
155,145,65565,1,2,2:0:0:0:
149,144,65922,1,0,1:0:0:0:
93,183,66100,1,0,2:0:0:0:
85,117,66279,1,0,1:0:0:0:
269,258,66636,6,0,P|231:252|122:279,1,140,0|2,1:0|2:0,0:0:0:0:
119,283,67172,1,2,2:0:0:0:
74,123,67350,2,0,P|71:160|32:248,2,105,0|0|0,1:0|1:0|1:0,1:0:0:0:
74,115,68064,1,4,1:2:0:0:
74,107,68421,5,4,3:0:0:0:
100,41,68600,1,4,3:0:0:0:
145,92,68778,1,4,1:2:0:0:
193,155,68957,1,4,3:0:0:0:
164,222,69135,1,4,3:0:0:0:
198,283,69314,1,2,2:0:0:0:
265,306,69492,2,0,P|240:331|222:361,2,70,4|2|0,1:2|2:0|1:0,0:0:0:0:
363,296,70028,5,2,2:0:0:0:
374,320,70117,1,2,2:0:0:0:
377,349,70207,1,2,2:0:0:0:
299,225,70385,1,0,1:0:0:0:
264,147,70564,6,0,B|304:215|388:199,1,140,2|0,1:2|0:0,0:0:0:0:
451,55,71100,1,2,2:0:0:0:
440,61,71278,2,0,P|420:91|491:134,1,140,0|0,1:0|1:0,1:0:0:0:
289,249,71992,2,0,P|324:206|313:153,2,105,0|0|0,1:0|1:0|1:0,1:0:0:0:
232,184,72707,6,4,P|198:214|195:286,2,105,4|4|4,3:0|3:0|3:0,3:0:0:0:
265,194,73421,1,2,1:2:0:0:
265,194,73689,1,2,1:2:0:0:
213,114,73957,1,8,3:0:0:0:
170,195,74135,1,2,3:2:0:0:
170,195,74402,1,2,3:2:0:0:
25,318,74670,2,0,B|58:338|68:363|68:363|77:274|127:266|155:314|136:336,1,210
250,291,75742,5,2,2:0:0:0:
237,306,75831,1,2,2:0:0:0:
221,311,75920,1,2,2:0:0:0:
294,228,76099,1,0,0:0:0:0:
185,212,76277,1,2,2:0:0:0:
257,135,76456,1,0,0:0:0:0:
254,119,76813,5,2,2:0:0:0:
142,157,76992,1,0,0:0:0:0:
150,132,77349,5,0,2:0:0:0:
263,96,77527,2,0,P|296:73|357:67,1,83.9999974365235,4|0,2:0|0:0,0:0:0:0:
338,64,78242,5,2,2:0:0:0:
265,49,78420,1,0,0:0:0:0:
200,79,78599,1,2,2:0:0:0:
131,63,78777,1,0,0:0:0:0:
151,135,78956,2,0,P|108:127|64:88,1,83.9999974365235,4|0,2:0|0:0,0:0:0:0:
79,28,79492,5,0,2:0:0:0:
13,61,79670,1,0,0:0:0:0:
4,134,79849,1,2,2:0:0:0:
76,104,80027,1,0,0:0:0:0:
64,240,80206,5,4,1:2:0:0:
186,206,80384,1,0,1:0:0:0:
186,206,80474,1,0,1:0:0:0:
186,206,80563,1,0,1:0:0:0:
156,317,80742,1,0,1:0:0:0:
275,280,80920,1,0,1:0:0:0:
287,148,81099,1,4,1:2:0:0:
284,127,81456,5,4,1:2:0:0:
320,224,81635,1,8,3:0:0:0:
356,328,81813,1,4,3:0:0:0:
355,343,82170,5,0,1:0:0:0:
400,191,82349,1,4,2:0:0:0:
405,183,82706,1,4,2:0:0:0:
389,95,82884,5,0,1:0:0:0:
362,119,82973,1,0,1:0:0:0:
329,140,83062,1,0,1:0:0:0:
234,151,83241,1,4,1:2:0:0:
388,202,83419,1,8,3:0:0:0:
366,207,83509,1,8,3:0:0:0:
341,209,83598,1,8,3:0:0:0:
247,231,83776,5,4,1:2:0:0:
149,329,83955,1,4,3:0:0:0:
165,310,84044,1,4,3:0:0:0:
187,299,84134,2,0,P|238:299|264:311,1,70,4|0,3:2|0:0,0:0:0:0:
357,336,84491,5,6,2:0:0:0:
368,261,84669,1,0,0:0:0:0:
306,215,84848,1,2,2:0:0:0:
236,225,85026,1,0,0:0:0:0:
111,305,85205,5,6,2:0:0:0:
152,324,85384,1,0,0:0:0:0:
192,300,85562,1,2,2:0:0:0:
163,199,85741,5,4,3:0:0:0:
149,218,85919,1,8,3:0:0:0:
167,231,86098,1,2,1:3:0:0:
328,169,86276,5,4,1:2:0:0:
