osu file format v14

[General]
AudioFilename: audio.mp3
AudioLeadIn: 0
PreviewTime: 0
Countdown: 0
SampleSet: Soft
StackLeniency: 0.2
Mode: 0
LetterboxInBreaks: 0
WidescreenStoryboard: 1

[Editor]
Bookmarks: 9135,18065,24493,27350,52707,55208,65208,75742,80206,86276
DistanceSpacing: 1.1
BeatDivisor: 4
GridSize: 32
TimelineZoom: 2.1

[Metadata]
Title:Munou (TV Edit)
TitleUnicode:無能 (TV Edit)
Artist:oesterreich
ArtistUnicode:österreich
Creator:Suissie
Version:Hard
Source:東京喰種√A
Tags:Tokyo Ghoul osterreich anime TV Size Suissie
BeatmapID:1662124
BeatmapSetID:769024

[Difficulty]
HPDrainRate:4
CircleSize:4
OverallDifficulty:6
ApproachRate:7
SliderMultiplier:1.4
SliderTickRate:1

[Events]
//Background and Video events
0,0,"edge2edge.jpg",0,0
//Break Periods
//Storyboard Layer 0 (Background)
//Storyboard Layer 1 (Fail)
//Storyboard Layer 2 (Pass)
//Storyboard Layer 3 (Foreground)
//Storyboard Sound Samples

[TimingPoints]
210,357.142857142857,7,2,2,50,1,0
210,-125,7,2,2,50,0,0
2709,357.142857142857,6,2,2,50,1,0
2709,-125,6,2,2,50,0,0
4851,357.142857142857,7,2,2,50,1,0
7350,357.142857142857,5,2,2,50,1,0
8421,-100,5,2,3,60,0,0
9135,357.142857142857,4,2,1,50,1,0
9135,-125,4,2,2,50,0,0
11992,357.142857142857,5,2,2,50,1,0
13777,357.142857142857,7,2,2,50,1,0
16280,357.142857142857,5,2,2,50,1,0
16280,-125,5,2,2,50,0,0
18066,357.142857142857,7,2,2,50,1,0
18066,-125,7,2,2,50,0,0
20566,357.142857142857,6,2,2,50,1,0
20566,-125,6,2,2,50,0,0
22708,357.142857142857,7,2,2,50,1,0
22708,-125,7,2,2,50,0,0
25208,357.142857142857,4,2,2,50,1,0
27350,-100,4,2,3,80,0,0
28065,357.142857142857,4,2,2,50,1,0
28065,-166.666666666667,4,2,3,50,0,0
30922,-500,4,2,2,50,0,0
31636,-166.666666666667,4,2,2,50,0,0
33779,-200,4,2,2,50,0,0
35207,-125,4,2,2,50,0,0
35922,-125,4,2,2,80,0,0
36100,-125,4,2,2,50,0,0
36636,-125,4,2,2,50,0,0
40922,357.142857142857,6,2,2,50,1,0
42529,-100,6,2,2,80,0,0
42707,-100,6,2,3,80,0,0
42886,-100,6,2,3,50,0,0
43065,357.142857142857,4,2,2,60,1,0
43600,-100,4,2,3,60,0,0
43957,-100,4,2,2,30,0,0
44136,-100,4,2,4,50,0,0
44493,-100,4,2,4,10,0,0
45743,-100,4,2,2,10,0,0
45922,-100,7,2,2,50,0,1
45923,357.142857142857,7,2,4,50,1,1
46101,-100,7,2,2,50,0,1
48423,357.142857142857,6,2,3,50,1,1
49137,-100,6,2,2,50,0,1
50565,357.142857142857,7,2,2,50,1,1
52350,-83.3333333333333,7,2,2,50,0,1
53065,357.142857142857,6,2,3,50,1,1
53600,-100,6,2,2,50,0,1
54374,-100,6,2,2,80,0,1
54612,-100,6,2,3,80,0,1
54850,-100,6,2,2,50,0,1
55208,357.142857142857,4,2,2,50,1,1
55208,-83.3333333333333,4,2,4,50,0,1
55297,-83.3333333333333,4,2,2,50,0,1
59493,-83.3333333333333,4,2,3,50,0,1
60029,-83.3333333333333,4,2,2,50,0,1
60565,-83.3333333333333,4,2,3,50,0,1
61993,-83.3333333333333,4,2,2,80,0,1
62231,-83.3333333333333,4,2,3,80,0,1
62350,-83.3333333333333,4,2,2,50,0,1
62886,-83.3333333333333,4,2,3,50,0,1
63422,-83.3333333333333,4,2,4,50,0,1
64136,-83.3333333333333,4,2,2,50,0,1
64493,-100,4,2,2,50,0,0
65208,357.142857142857,6,2,2,50,1,0
67350,357.142857142857,7,2,2,50,1,0
69850,357.142857142857,4,2,2,50,1,0
74135,357.142857142857,3,2,2,50,1,0
74670,310.880829015544,7,2,2,50,1,0
74670,-109.289617486339,7,2,2,50,0,0
74825,368.098159509202,7,2,2,50,1,0
75206,-100,4,2,2,60,0,0
75742,357.142857142857,7,2,2,50,1,0
75742,-166.666666666667,7,2,2,50,0,0
78242,357.142857142857,4,2,2,50,1,0
78242,-166.666666666667,4,2,2,50,0,0
81099,357.142857142857,5,2,2,50,1,0
81099,-66.6666666666667,5,2,3,50,0,0
81456,-100,5,2,2,50,0,0
81634,-66.6666666666667,5,2,3,50,0,0
82349,-100,5,2,2,50,0,0
82884,357.142857142857,4,2,2,40,1,0
83241,-100,4,2,2,80,0,0
84134,357.142857142857,6,2,2,50,1,0
84134,-66.6666666666667,6,2,3,50,0,0
84491,-100,6,2,2,50,0,0
85384,-100,6,2,3,50,0,0
85741,-100,6,2,3,50,0,0

[Colours]
Combo1 : 255,94,55
Combo2 : 173,255,95
Combo3 : 17,254,176
Combo4 : 255,88,100

[HitObjects]
68,236,210,6,0,L|145:214,1,56
227,295,745,2,0,L|284:289,1,56
427,192,1281,1,0,0:0:0:0:
427,192,1459,1,0,0:0:0:0:
351,110,1638,2,0,L|338:181,2,56
272,48,2174,1,0,0:0:0:0:
180,92,2352,2,0,L|121:99,1,56
47,177,2709,6,0,L|109:187,1,56
181,262,3066,2,0,L|188:335,2,56
326,328,3780,2,0,L|380:314,1,56
410,193,4137,2,0,L|359:231,1,56
276,193,4494,2,0,L|301:130,1,56
172,167,4851,5,0,0:0:0:0:
172,167,5029,1,0,0:0:0:0:
111,234,5208,2,0,P|54:227|19:212,1,70
0,327,5565,2,0,L|147:316,1,140
238,310,6101,2,0,P|271:357|281:394,1,70
313,269,6458,1,0,0:0:0:0:
391,251,6636,2,0,P|376:195|379:157,1,70
457,91,6993,2,0,L|304:109,1,140
280,32,7528,5,0,0:0:0:0:
234,148,7707,2,0,P|190:146|147:130,1,70
87,224,8064,2,0,L|90:309,1,70
255,320,8421,6,0,L|135:353,2,93.3333333333333
383,347,9135,6,0,P|370:302|377:271,1,56
400,215,9492,1,0,0:0:0:0:
320,43,9849,2,0,L|331:120,1,56
311,177,10206,1,0,0:0:0:0:
223,257,10385,2,0,L|235:124,2,112
136,344,11277,6,0,L|59:350,1,56
3,254,11635,2,0,L|73:261,1,56
145,264,11992,5,0,0:0:0:0:
31,144,12349,2,0,L|6:-7,1,140
107,66,12884,1,0,0:0:0:0:
193,43,13063,1,0,0:0:0:0:
354,141,13420,1,0,0:0:0:0:
266,157,13599,2,0,L|254:259,1,70
348,290,13955,6,0,L|336:188,2,70
428,324,14491,2,0,L|284:342,1,140
199,313,15027,1,0,0:0:0:0:
73,351,15205,2,0,P|77:299|71:267,1,70
21,206,15562,2,0,P|23:156|36:127,1,70
152,206,15919,2,0,L|293:191,1,140
353,122,16458,6,0,L|344:79,2,28
439,163,16815,1,0,0:0:0:0:
377,294,17172,1,0,0:0:0:0:
286,304,17351,2,0,L|205:310,2,74.6666666666667
210,220,18066,1,0,0:0:0:0:
210,220,18244,1,0,0:0:0:0:
113,233,18423,2,0,P|81:223|53:197,1,56
138,90,18780,2,0,L|148:145,1,56
247,140,19137,2,0,P|298:146|319:153,2,56
332,51,19673,6,0,P|364:85|387:98,1,56
371,89,20030,1,0,0:0:0:0:
463,142,20208,2,0,P|435:178|424:200,1,56
464,327,20566,5,0,0:0:0:0:
402,270,20744,1,0,0:0:0:0:
317,275,20923,1,0,0:0:0:0:
256,332,21101,1,0,0:0:0:0:
145,266,21280,2,0,L|226:275,1,56
250,175,21637,2,0,L|169:184,1,56
100,161,21994,1,0,0:0:0:0:
100,161,22173,1,0,0:0:0:0:
56,32,22351,2,0,L|43:102,1,56
158,30,22708,5,0,0:0:0:0:
158,30,22886,1,0,0:0:0:0:
279,80,23065,2,0,L|198:93,1,56
203,168,23422,1,0,0:0:0:0:
362,180,23600,2,0,L|443:193,1,56
470,305,23958,5,0,0:0:0:0:
384,310,24136,2,0,P|351:320|325:337,1,56
195,287,24493,2,0,L|255:261,1,56
75,242,24850,2,0,L|57:297,1,56
157,212,25208,6,2,P|139:169|35:145,1,140
46,51,25743,2,0,P|85:48|116:40,1,70
262,81,26100,2,0,L|184:90,1,70
231,166,26458,1,0,0:0:0:0:
231,166,26547,1,0,0:0:0:0:
231,166,26636,1,0,0:0:0:0:
322,161,26815,1,0,0:0:0:0:
368,242,26993,1,0,0:0:0:0:
468,46,27350,2,0,L|446:84,7,35
451,26,28065,5,0,0:0:0:0:
214,83,28779,1,0,0:0:0:0:
332,132,29493,5,0,0:0:0:0:
88,170,30207,1,0,0:0:0:0:
146,250,30565,2,0,L|153:352,1,83.9999974365235
245,298,31279,5,0,0:0:0:0:
57,174,31636,1,0,0:0:0:0:
218,133,31993,1,0,0:0:0:0:
260,137,32172,1,0,0:0:0:0:
298,116,32350,5,0,0:0:0:0:
133,337,33065,1,0,0:0:0:0:
259,277,33422,2,0,L|251:228,1,41.9999987182618
297,169,33779,5,0,0:0:0:0:
117,115,34136,1,0,0:0:0:0:
261,52,34315,1,0,0:0:0:0:
336,95,34493,2,0,L|411:100,1,70
334,319,35565,5,0,0:0:0:0:
159,306,35922,2,0,L|172:243,2,56
98,204,36457,1,0,0:0:0:0:
182,125,36636,6,0,P|220:129|258:141,1,56
313,167,36993,1,0,0:0:0:0:
380,317,37172,2,0,L|381:188,1,112
305,246,37707,1,0,0:0:0:0:
194,306,37886,2,0,L|190:248,2,56
73,355,38422,6,0,L|86:226,1,112
53,97,39136,1,0,0:0:0:0:
154,122,39314,2,0,L|135:56,2,56
217,179,39850,1,0,0:0:0:0:
338,84,40029,2,0,L|355:146,1,56
420,340,40564,2,0,L|429:263,1,56
332,341,40922,6,0,P|298:350|258:349,1,70
171,344,41279,1,0,0:0:0:0:
112,223,41457,2,0,L|92:304,1,70
29,202,41814,1,0,0:0:0:0:
84,142,41993,1,0,0:0:0:0:
196,166,42172,1,0,0:0:0:0:
120,66,42350,1,0,0:0:0:0:
207,68,42529,2,0,L|277:75,1,70
411,28,42886,1,0,0:0:0:0:
382,123,43065,6,0,P|377:167|476:314,2,210
270,320,45923,5,0,0:0:0:0:
87,347,46280,1,0,0:0:0:0:
87,347,46458,1,0,0:0:0:0:
160,262,46637,2,0,L|152:182,1,70
217,105,46994,1,0,0:0:0:0:
109,107,47173,2,0,L|28:120,1,70
73,10,47530,2,0,L|148:19,1,70
227,30,47887,1,0,0:0:0:0:
337,99,48065,2,0,L|331:22,1,70
428,93,48423,6,0,P|415:139|425:243,1,140
467,305,48958,1,0,0:0:0:0:
364,320,49137,2,0,P|317:337|281:357,1,70
206,297,49494,2,0,P|256:270|288:242,1,70
201,199,49851,1,0,0:0:0:0:
88,287,50030,1,0,0:0:0:0:
90,160,50208,2,0,L|98:76,1,70
