osu file format v14

[General]
AudioFilename: audio.mp3
AudioLeadIn: 0
PreviewTime: 0
Countdown: 0
SampleSet: Soft
StackLeniency: 0.2
Mode: 0
LetterboxInBreaks: 0
WidescreenStoryboard: 1

[Editor]
Bookmarks: 9135,18065,24493,27350,52707,55208,65208,75742,80206,86276
DistanceSpacing: 1
BeatDivisor: 4
GridSize: 32
TimelineZoom: 2.1

[Metadata]
Title:Munou (TV Edit)
TitleUnicode:無能 (TV Edit)
Artist:oesterreich
ArtistUnicode:österreich
Creator:Suissie
Version:Another
Source:東京喰種√A
Tags:Tokyo Ghoul osterreich anime TV Size Suissie
BeatmapID:1617108
BeatmapSetID:769024

[Difficulty]
HPDrainRate:6
CircleSize:4.5
OverallDifficulty:8
ApproachRate:9
SliderMultiplier:1.4
SliderTickRate:1

[Events]
//Background and Video events
0,0,"edge2edge.jpg",0,0
//Break Periods
//Storyboard Layer 0 (Background)
//Storyboard Layer 1 (Fail)
//Storyboard Layer 2 (Pass)
//Storyboard Layer 3 (Foreground)
//Storyboard Layer 4 (Overlay)
//Storyboard Sound Samples

[TimingPoints]
210,357.142857142857,7,2,2,50,1,0
210,-125,7,2,2,50,0,0
2709,357.142857142857,6,2,2,50,1,0
2709,-125,6,2,2,50,0,0
4851,357.142857142857,7,2,2,50,1,0
7350,357.142857142857,5,2,2,50,1,0
8421,-100,5,2,3,60,0,0
9135,357.142857142857,4,2,1,50,1,0
9135,-125,4,2,2,50,0,0
11992,357.142857142857,5,2,2,50,1,0
13777,357.142857142857,7,2,2,50,1,0
16280,357.142857142857,5,2,2,50,1,0
16280,-125,5,2,2,50,0,0
18066,357.142857142857,7,2,2,50,1,0
18066,-125,7,2,2,50,0,0
20566,357.142857142857,6,2,2,50,1,0
20566,-125,6,2,2,50,0,0
22708,357.142857142857,7,2,2,50,1,0
22708,-125,7,2,2,50,0,0
25208,357.142857142857,4,2,2,50,1,0
27350,-100,4,2,3,80,0,0
28065,357.142857142857,4,2,2,50,1,0
28065,-166.666666666667,4,2,3,50,0,0
30922,-500,4,2,2,50,0,0
31636,-166.666666666667,4,2,2,50,0,0
33779,-200,4,2,2,50,0,0
35207,-125,4,2,2,50,0,0
35922,-125,4,2,2,80,0,0
36100,-125,4,2,2,50,0,0
36636,-125,4,2,2,50,0,0
40922,357.142857142857,6,2,2,50,1,0
42529,-100,6,2,2,80,0,0
42707,-100,6,2,3,80,0,0
42886,-100,6,2,3,50,0,0
43065,357.142857142857,4,2,2,60,1,0
43600,-100,4,2,3,60,0,0
43957,-100,4,2,2,30,0,0
44136,-100,4,2,4,50,0,0
44493,-100,4,2,4,10,0,0
45743,-100,4,2,2,10,0,0
45922,-100,7,2,2,50,0,1
45923,357.142857142857,7,2,4,50,1,1
46101,-100,7,2,2,50,0,1
48423,357.142857142857,6,2,3,50,1,1
49137,-83.3333333333333,6,2,2,50,0,1
50565,357.142857142857,7,2,2,50,1,1
52350,-83.3333333333333,7,2,2,50,0,1
53065,357.142857142857,6,2,3,50,1,1
53600,-100,6,2,2,50,0,1
54374,-100,6,2,2,80,0,1
54612,-100,6,2,3,80,0,1
54850,-100,6,2,2,50,0,1
55208,357.142857142857,4,2,2,50,1,1
55208,-83.3333333333333,4,2,4,50,0,1
55297,-83.3333333333333,4,2,2,50,0,1
59493,-83.3333333333333,4,2,3,50,0,1
60029,-83.3333333333333,4,2,2,50,0,1
60565,-83.3333333333333,4,2,3,50,0,1
61993,-83.3333333333333,4,2,2,80,0,1
62231,-83.3333333333333,4,2,3,80,0,1
62350,-83.3333333333333,4,2,2,50,0,1
62886,-83.3333333333333,4,2,3,50,0,1
63422,-83.3333333333333,4,2,4,50,0,1
64136,-83.3333333333333,4,2,2,50,0,1
64493,-100,4,2,2,50,0,0
65208,357.142857142857,6,2,2,50,1,0
67350,357.142857142857,7,2,2,50,1,0
69850,357.142857142857,4,2,2,50,1,0
74135,357.142857142857,3,2,2,50,1,0
74670,310.880829015544,7,2,2,50,1,0
74670,-109.289617486339,7,2,2,50,0,0
74825,368.098159509202,7,2,2,50,1,0
75206,-100,4,2,2,60,0,0
75742,357.142857142857,7,2,2,50,1,0
75742,-166.666666666667,7,2,2,50,0,0
78242,357.142857142857,4,2,2,50,1,0
78242,-166.666666666667,4,2,2,50,0,0
81099,357.142857142857,5,2,2,50,1,0
81099,-66.6666666666667,5,2,3,50,0,0
81456,-100,5,2,2,50,0,0
81634,-66.6666666666667,5,2,3,50,0,0
82349,-100,5,2,2,50,0,0
82884,357.142857142857,4,2,2,40,1,0
83241,-100,4,2,2,80,0,0
84134,357.142857142857,6,2,2,50,1,0
84134,-66.6666666666667,6,2,3,50,0,0
84491,-100,6,2,2,50,0,0
85384,-100,6,2,3,50,0,0
85741,-100,6,2,3,50,0,0

[Colours]
Combo1 : 255,94,55
Combo2 : 173,255,95
Combo3 : 17,254,176
Combo4 : 255,88,100

[HitObjects]
185,194,210,5,0,0:0:0:0:
269,169,388,1,2,0:0:0:0:
269,169,745,1,0,0:0:0:0:
357,188,924,1,2,0:0:0:0:
357,188,1281,1,0,0:0:0:0:
442,162,1459,1,2,0:0:0:0:
437,308,1638,5,2,0:0:0:0:
360,268,1817,1,0,0:0:0:0:
274,280,1995,1,2,0:0:0:0:
213,340,2174,1,0,0:0:0:0:
282,292,2352,6,0,P|272:246|252:220,1,56,2|0,0:0|0:0,0:0:0:0:
317,98,2709,2,0,P|302:142|306:175,1,56,2|0,0:0|0:0,0:0:0:0:
170,177,3066,2,0,P|197:173|222:161,1,56,2|0,0:0|0:0,0:0:0:0:
48,225,3423,1,2,0:0:0:0:
48,225,3780,5,2,0:0:0:0:
85,139,3958,1,0,0:0:0:0:
63,220,4137,1,0,0:0:0:0:
65,301,4316,1,0,0:0:0:0:
98,372,4494,1,2,0:0:0:0:
53,308,4673,1,0,0:0:0:0:
63,198,4851,6,0,L|48:122,1,70,12|0,3:1|3:0,3:0:0:0:
149,263,5208,2,0,L|162:194,1,70,4|0,0:1|0:0,0:0:0:0:
353,249,5565,6,0,L|254:260,1,70,12|0,0:1|0:0,0:0:0:0:
221,309,5922,1,4,0:1:0:0:
403,312,6101,2,0,P|431:270|431:226,1,70,2|4,3:2|0:1,0:0:0:0:
394,179,6458,1,0,3:0:0:0:
426,42,6636,6,0,P|398:84|396:120,1,70,4|0,3:1|0:0,0:0:0:0:
306,191,6993,2,0,L|376:184,1,70,12|0,0:1|0:0,0:0:0:0:
233,245,7350,2,0,L|146:235,1,70,4|0,3:1|3:0,3:0:0:0:
50,127,7707,5,6,0:1:0:0:
123,90,7885,1,0,0:0:0:0:
262,127,8064,2,0,L|192:134,1,70,12|0,0:1|0:0,0:0:0:0:
71,311,8421,6,0,L|94:201,2,105,2|2|10,3:2|3:2|0:2,0:0:0:0:
200,368,9135,6,0,P|253:377|270:373,1,56
268,376,9402,1,0,0:0:0:0:
279,373,9492,2,0,L|287:320,1,28
321,323,9670,2,0,L|332:349,1,28
377,350,9849,6,0,L|358:223,1,112,8|0,0:0|0:0,0:0:0:0:
479,109,10385,2,0,L|460:236,1,112,8|0,0:0|0:0,0:0:0:0:
375,233,10920,5,0,0:0:0:0:
289,218,11099,1,0,0:0:0:0:
203,78,11277,2,0,L|222:205,1,112,8|0,0:0|0:0,0:0:0:0:
239,291,11813,2,0,L|162:298,1,56,0|0,3:0|0:0,0:0:0:0:
104,305,12170,5,0,0:0:0:0:
46,176,12349,2,0,L|24:324,1,140,8|0,0:0|0:0,0:0:0:0:
104,305,12884,1,0,3:0:0:0:
117,227,13063,2,0,L|129:146,1,70,2|0,0:0|0:0,0:0:0:0:
293,205,13420,1,0,3:0:0:0:
262,47,13599,2,0,L|291:193,1,140,8|0,0:0|0:0,0:0:0:0:
377,204,14134,5,0,0:0:0:0:
362,130,14312,1,0,0:0:0:0:
196,143,14491,2,0,L|33:159,1,140,8|0,0:0|0:0,0:0:0:0:
27,238,15027,1,0,3:0:0:0:
111,248,15205,2,0,L|204:255,2,70,0|0|0,0:0|3:0|3:0,0:0:0:0:
56,324,15741,1,0,0:0:0:0:
249,337,15919,6,0,L|269:235,1,70,8|0,0:0|0:0,0:0:0:0:
349,168,16280,5,4,3:1:0:0:
437,160,16458,2,8,L|432:128,2,18.6666666666667
452,240,16815,1,4,3:1:0:0:
452,240,17172,1,8,0:0:0:0:
384,288,17351,1,8,0:0:0:0:
240,256,17619,1,8,0:0:0:0:
110,324,17887,1,8,0:0:0:0:
4,253,18066,5,2,3:2:0:0:
68,208,18244,1,0,3:0:0:0:
140,238,18423,1,8,0:0:0:0:
321,192,18601,5,2,0:0:0:0:
231,176,18780,1,8,0:0:0:0:
291,107,18958,1,0,0:0:0:0:
369,261,19137,5,2,0:0:0:0:
334,189,19316,1,0,0:0:0:0:
322,346,19494,5,2,0:0:0:0:
364,277,19673,1,8,0:0:0:0:
405,349,19851,1,0,0:0:0:0:
252,261,20030,5,2,0:0:0:0:
87,308,20208,1,0,3:0:0:0:
187,352,20387,1,0,0:0:0:0:
301,344,20566,6,0,L|360:337,1,56,2|0,3:2|0:0,0:0:0:0:
266,271,20923,1,2,0:0:0:0:
194,303,21101,1,0,0:0:0:0:
56,288,21280,2,0,L|115:295,1,56,8|0,0:0|0:0,0:0:0:0:
183,325,21637,5,2,0:0:0:0:
278,238,21816,1,0,0:0:0:0:
439,261,21994,5,2,0:0:0:0:
484,182,22173,1,0,0:0:0:0:
386,74,22351,6,0,L|395:142,1,56,8|0,0:0|0:0,0:0:0:0:
231,136,22708,6,0,P|262:123|301:124,1,56,0|0,3:0|0:0,0:0:0:0:
274,291,23065,6,0,L|283:223,1,56,8|0,0:0|0:0,0:0:0:0:
358,285,23422,1,0,0:0:0:0:
123,316,23600,6,0,L|205:312,1,56,8|0,0:0|0:0,0:0:0:0:
265,299,23958,1,2,0:0:0:0:
291,216,24136,1,0,0:0:0:0:
207,235,24315,1,2,0:0:0:0:
191,79,24493,6,0,L|182:133,1,56,8|0,0:0|0:0,0:0:0:0:
289,0,24850,2,0,L|300:55,1,56,8|0,0:0|0:0,0:0:0:0:
330,229,25208,6,0,P|398:228|427:202,1,93.3333333333333,2|0,0:0|0:0,0:0:0:0:
360,146,25684,1,0,0:0:0:0:
182,229,25922,6,0,P|114:228|85:202,1,93.3333333333333,2|0,0:0|0:0,0:0:0:0:
152,146,26398,1,0,0:0:0:0:
255,0,26636,5,2,0:0:0:0:
255,127,26874,1,0,0:0:0:0:
256,260,27112,1,0,0:0:0:0:
256,365,27350,5,2,0:3:0:0:
256,347,27439,1,2,0:3:0:0:
256,330,27528,1,2,0:3:0:0:
256,312,27617,1,2,0:3:0:0:
256,295,27707,1,2,0:3:0:0:
256,277,27797,1,2,0:3:0:0:
256,260,27885,1,2,0:3:0:0:
256,242,27974,1,2,0:3:0:0:
256,227,28065,6,0,P|245:187|211:152,1,83.9999974365235,2|0,0:3|0:0,0:0:0:0:
116,22,28779,2,0,L|106:112,1,83.9999974365235,8|0,0:0|0:0,0:0:0:0:
0,247,29493,2,0,P|50:254|96:251,1,83.9999974365235,0|0,3:0|0:0,0:0:0:0:
217,371,30207,2,0,L|227:281,1,83.9999974365235,8|0,0:0|0:0,0:0:0:0:
237,193,30922,6,0,P|245:177|252:168,1,28
394,20,31636,2,0,L|384:110,1,83.9999974365235,8|0,0:0|0:0,0:0:0:0:
384,103,32172,1,0,0:0:0:0:
365,240,32350,5,0,0:0:0:0:
214,254,32707,1,0,0:0:0:0:
102,358,33065,2,0,L|92:264,1,83.9999974365235,8|0,0:0|0:0,0:0:0:0:
0,65,33779,6,0,P|43:76|77:75,1,70,0|0,3:0|0:0,0:0:0:0:
148,41,34315,1,0,0:0:0:0:
238,39,34493,1,0,0:0:0:0:
241,39,34582,1,0,0:0:0:0:
244,40,34671,1,0,0:0:0:0:
248,40,34760,1,0,0:0:0:0:
261,57,34850,1,0,0:0:0:0:
258,58,34939,1,0,0:0:0:0:
255,59,35028,1,0,0:0:0:0:
251,59,35117,1,0,0:0:0:0:
242,77,35207,6,0,B|295:69|329:106|329:106|325:75,1,112,0|8,0:0|0:0,0:0:0:0:
326,89,35922,1,4,0:3:0:0:
411,117,36100,1,0,0:0:0:0:
284,165,36457,1,8,0:0:0:0:
319,307,36636,6,0,P|357:288|389:227,1,112
209,330,37172,2,0,L|216:256,1,56,8|0,0:0|0:0,0:0:0:0:
214,274,37707,1,0,0:0:0:0:
54,135,37886,1,8,0:0:0:0:
54,135,38243,5,0,0:0:0:0:
255,45,38422,2,0,L|237:162,1,112,8|0,0:0|0:0,0:0:0:0:
237,155,39136,1,0,0:0:0:0:
459,32,39314,2,0,L|451:110,1,56,8|0,0:0|0:0,0:0:0:0:
453,87,39850,5,0,0:0:0:0:
326,218,40029,2,8,L|441:208,1,112,8|0,0:0|0:0,0:0:0:0:
253,296,40564,2,0,L|309:302,1,56,8|0,0:0|0:0,0:0:0:0:
132,326,40922,6,0,P|100:297|87:250,1,70,2|0,0:0|0:0,0:0:0:0:
284,210,41279,2,0,P|327:208|366:181,1,70,2|0,0:0|0:0,0:0:0:0:
86,163,41636,2,0,P|90:120|121:81,1,70,2|0,0:0|0:0,0:0:0:0:
300,130,41993,5,8,0:0:0:0:
181,18,42172,1,8,0:0:0:0:
110,174,42350,1,8,0:0:0:0:
167,230,42529,5,2,0:3:0:0:
243,208,42707,1,2,0:3:0:0:
87,255,42886,5,8,0:0:0:0:
278,309,43065,6,0,L|420:346,1,140,4|0,3:2|0:0,0:0:0:0:
223,188,43600,6,0,L|81:151,1,140,4|0,3:2|3:2,3:2:0:0:
329,89,44136,6,0,L|464:125,1,140,4|0,3:2|0:0,0:0:0:0:
143,149,45923,5,4,0:0:0:0:
84,84,46101,1,0,0:0:0:0:
252,194,46280,5,2,0:0:0:0:
239,105,46458,1,0,0:0:0:0:
135,324,46637,5,10,0:0:0:0:
163,231,46815,1,0,0:0:0:0:
252,350,46994,5,10,0:0:0:0:
75,244,47173,5,8,0:0:0:0:
108,333,47351,1,0,0:0:0:0:
229,127,47530,5,8,0:0:0:0:
182,224,47708,1,0,0:0:0:0:
258,258,47887,6,0,P|281:309|277:332,1,70,2|8,0:0|0:0,0:0:0:0:
271,334,48423,6,0,P|352:293|366:227,1,140,4|0,3:2|0:0,0:0:0:0:
303,18,48958,5,8,0:0:0:0:
279,108,49137,1,0,0:0:0:0:
48,34,49315,5,8,0:0:0:0:
75,128,49494,1,0,0:0:0:0:
44,236,49673,1,0,0:0:0:0:
47,220,49762,1,0,0:0:0:0:
51,204,49851,1,0,0:0:0:0:
245,144,50030,5,8,0:0:0:0:
303,327,50208,5,8,0:0:0:0:
303,327,50387,1,0,0:0:0:0:
100,328,50565,5,10,0:0:0:0:
166,261,50743,1,0,0:0:0:0:
140,171,50922,1,0,0:0:0:0:
317,61,51100,5,10,0:0:0:0:
251,128,51278,1,0,0:0:0:0:
277,218,51457,1,0,0:0:0:0:
223,33,51636,5,2,0:0:0:0:
430,115,51815,5,8,0:0:0:0:
382,177,51993,1,0,0:0:0:0:
393,255,52172,1,0,0:0:0:0:
140,345,52350,6,0,P|198:317|211:279,1,83.9999974365235,10|0,0:0|0:0,0:0:0:0:
190,25,52707,2,0,P|234:71|234:111,1,83.9999974365235,8|0,2:0|0:0,0:0:0:0:
417,222,53065,6,0,L|265:202,1,140,4|8,0:0|0:0,0:0:0:0:
120,384,53600,2,0,L|178:243,1,140,4|0,0:0|0:0,0:0:0:0:
202,179,54136,5,8,0:0:0:0:
381,100,54374,1,4,0:3:0:0:
210,9,54612,1,2,0:3:0:0:
35,67,54850,5,8,0:0:0:0:
38,81,55029,1,0,0:0:0:0:
136,255,55208,5,6,0:0:0:0:
116,350,55387,1,0,0:0:0:0:
321,193,55565,5,10,0:0:0:0:
392,258,55744,1,0,0:0:0:0:
236,248,55922,5,2,0:0:0:0:
266,341,56101,1,0,0:0:0:0:
365,102,56279,5,10,0:0:0:0:
459,123,56458,1,0,0:0:0:0:
321,193,56636,5,0,0:0:0:0:
392,257,56815,1,0,0:0:0:0:
281,22,56993,5,8,0:0:0:0:
236,132,57172,2,0,L|195:233,1,83.9999974365235,2|0,0:0|0:0,0:0:0:0:
80,128,57529,2,0,L|56:212,1,83.9999974365235,2|0,0:0|0:0,0:0:0:0:
60,312,57886,5,0,0:0:0:0:
70,204,58065,1,0,0:0:0:0:
0,255,58243,1,0,0:0:0:0:
218,173,58422,5,8,0:0:0:0:
179,258,58600,1,0,0:0:0:0:
272,295,58779,1,0,0:0:0:0:
309,384,58958,1,0,0:0:0:0:
490,357,59136,5,8,0:0:0:0:
477,342,59225,1,8,0:0:0:0:
464,327,59314,1,8,0:0:0:0:
451,312,59403,1,8,0:0:0:0:
435,296,59493,6,0,B|404:262|345:245,1,83.9999974365235,12|0,3:2|0:0,0:0:0:0:
187,200,59850,1,8,0:0:0:0:
427,123,60029,2,0,B|362:183|259:113,1,167.999994873047,4|0,3:2|0:0,0:0:0:0:
11,171,60565,2,0,B|31:81|120:36|224:68,1,251.999992309571,12|0,0:0|0:0,0:0:0:0:
209,65,61190,1,8,0:0:0:0:
209,65,61279,1,8,0:0:0:0:
288,0,61458,1,0,0:0:0:0:
443,41,61636,5,8,0:0:0:0:
463,93,61755,1,8,0:0:0:0:
447,146,61874,1,8,0:0:0:0:
425,197,61993,5,2,0:3:0:0:
417,253,62112,1,4,0:3:0:0:
433,306,62231,1,2,0:3:0:0:
464,352,62350,6,0,B|451:323|451:323|426:295|383:296,1,83.9999974365235,4|0,3:2|0:0,0:0:0:0:
240,336,62708,1,8,0:0:0:0:
145,186,62886,2,0,B|182:222|265:228|325:173,1,167.999994873047,4|0,3:2|0:0,0:0:0:0:
169,109,63422,1,4,0:0:0:0:
158,207,63600,1,0,0:0:0:0:
156,222,63690,1,0,0:0:0:0:
154,238,63779,1,0,0:0:0:0:
220,314,63958,1,0,0:0:0:0:
414,258,64136,1,8,0:0:0:0:
438,248,64493,6,0,P|438:213|429:179,1,70
374,73,64850,2,0,P|379:32|400:-13,1,70
313,142,65208,2,0,P|253:156|167:143,1,140,8|0,0:0|0:0,0:0:0:0:
32,241,65922,1,0,0:0:0:0:
162,276,66279,1,0,0:0:0:0:
356,261,66636,2,0,L|264:254,1,70,8|0,0:0|0:0,0:0:0:0:
464,318,66993,1,0,0:0:0:0:
446,213,67172,1,0,0:0:0:0:
446,213,67528,5,0,0:0:0:0:
451,192,67617,1,0,0:0:0:0:
456,171,67706,1,0,0:0:0:0:
479,73,67885,1,0,0:0:0:0:
365,2,68064,2,0,L|385:72,1,70,8|0,0:0|0:0,0:0:0:0:
384,69,68421,1,0,0:0:0:0:
246,28,68600,5,0,0:0:0:0:
140,41,68778,1,0,0:0:0:0:
80,130,68957,1,0,0:0:0:0:
106,238,69135,6,0,P|147:208|159:181,1,70
311,126,69492,2,0,L|230:143,1,70,8|0,0:0|0:0,0:0:0:0:
120,252,69850,6,0,P|190:253|260:281,1,140
326,311,70385,1,0,0:0:0:0:
388,194,70564,2,0,P|405:252|485:263,1,140,8|0,0:0|0:0,0:0:0:0:
509,199,71100,1,0,0:0:0:0:
458,74,71278,5,0,3:0:0:0:
301,73,71635,1,0,3:0:0:0:
170,219,71992,2,0,P|214:208|258:149,2,105,8|0|0,0:0|0:0|0:0,0:0:0:0:
70,163,72707,1,0,0:0:0:0:
170,111,72885,5,0,0:0:0:0:
175,90,72974,1,0,0:0:0:0:
180,69,73063,1,0,0:0:0:0:
288,31,73242,1,0,0:0:0:0:
403,38,73421,6,0,L|448:45,1,46.6666666666667,8|0,0:0|0:0,0:0:0:0:
511,137,73659,2,0,L|466:149,1,46.6666666666667,8|0,0:0|0:0,0:0:0:0:
443,158,73897,1,0,0:0:0:0:
297,172,74135,6,0,P|249:167|230:171,1,46.6666666666667,0|0,3:0|0:0,0:0:0:0:
177,185,74373,2,0,P|151:199|131:216,1,46.6666666666667,0|0,3:0|0:0,0:0:0:0:
89,352,74670,2,0,P|134:264|130:194,1,140,8|0,0:0|0:0,0:0:0:0:
52,100,75193,1,0,0:0:0:0:
52,100,75742,5,2,0:0:0:0:
63,104,75831,1,0,0:0:0:0:
74,108,75920,1,0,0:0:0:0:
158,144,76099,1,0,0:0:0:0:
242,103,76277,1,0,0:0:0:0:
259,11,76456,1,2,0:0:0:0:
259,11,76813,1,0,0:0:0:0:
312,159,76992,5,2,0:0:0:0:
312,159,77349,1,0,0:0:0:0:
407,35,77527,5,2,0:0:0:0:
456,243,77884,5,2,0:0:0:0:
456,243,78242,5,2,0:0:0:0:
398,307,78420,1,0,0:0:0:0:
314,288,78599,1,0,0:0:0:0:
251,346,78777,1,0,0:0:0:0:
161,235,78956,5,2,0:0:0:0:
161,235,79313,5,2,0:0:0:0:
106,298,79492,1,0,0:0:0:0:
78,218,79670,1,0,0:0:0:0:
134,155,79849,1,0,0:0:0:0:
217,172,80027,1,0,0:0:0:0:
0,125,80206,5,0,0:0:0:0:
118,81,80384,1,8,0:0:0:0:
161,65,80474,1,8,0:0:0:0:
205,50,80563,1,8,0:0:0:0:
250,36,80742,5,8,0:0:0:0:
293,21,80920,1,8,0:0:0:0:
512,131,81099,6,0,L|375:116,1,105.000004005432,0|0,3:0|0:0,0:0:0:0:
332,111,81456,1,8,0:0:0:0:
185,307,81634,2,0,L|292:296,2,105.000004005432,0|8|0,3:0|0:0|0:0,0:0:0:0:
289,296,82170,1,0,3:0:0:0:
260,147,82349,6,0,L|277:234,1,70,12|0,0:1|0:0,0:0:0:0:
102,317,82706,6,0,L|87:233,1,70,4|8,0:1|0:0,0:0:0:0:
82,211,82973,1,8,0:0:0:0:
75,173,83062,1,8,0:0:0:0:
61,97,83241,5,2,0:3:0:0:
140,154,83420,1,2,0:3:0:0:
136,130,83509,1,2,0:3:0:0:
131,106,83598,1,2,0:3:0:0:
121,34,83777,5,4,0:3:0:0:
197,70,83955,1,4,0:3:0:0:
194,54,84044,1,4,0:3:0:0:
190,38,84134,2,0,L|333:52,1,105.000004005432,0|0,3:0|0:0,0:0:0:0:
368,68,84491,2,0,L|299:62,1,70,12|0,0:1|0:0,0:0:0:0:
256,216,84848,5,8,0:0:0:0:
356,138,85026,1,0,0:0:0:0:
464,192,85205,1,0,0:0:0:0:
247,77,85384,5,2,0:0:0:0:
464,192,85562,5,2,0:0:0:0:
367,270,85741,5,8,0:0:0:0:
471,199,85919,1,0,0:0:0:0:
471,199,86009,1,0,0:0:0:0:
471,199,86098,1,0,0:0:0:0:
507,325,86276,5,8,3:2:0:0:
