osu file format v14

[General]
AudioFilename: op.mp3
AudioLeadIn: 0
PreviewTime: 45922
Countdown: 0
SampleSet: Soft
StackLeniency: 0.7
Mode: 3
LetterboxInBreaks: 0
SpecialStyle: 1
WidescreenStoryboard: 0

[Editor]
DistanceSpacing: 1.3
BeatDivisor: 4
GridSize: 4
TimelineZoom: 2.3

[Metadata]
Title:Munou
TitleUnicode:Munou
Artist:oesterreich
ArtistUnicode:oesterreich
Creator:One Miss
Version:NM
Source:東京喰種トーキョーグール√A
Tags:Tokyo Ghoul √A root 鎌野愛
BeatmapID:765156
BeatmapSetID:345832

[Difficulty]
HPDrainRate:7
CircleSize:4
OverallDifficulty:7.5
ApproachRate:5
SliderMultiplier:1.4
SliderTickRate:1

[Events]
//Background and Video events
0,0,"ok here it is boiz.jpg",0,0
//Break Periods
//Storyboard Layer 0 (Background)
//Storyboard Layer 1 (Fail)
//Storyboard Layer 2 (Pass)
//Storyboard Layer 3 (Foreground)
//Storyboard Sound Samples

[TimingPoints]
210,357.142857142857,7,2,1,50,1,0
2709,357.142857142857,6,2,1,50,1,0
4851,357.142857142857,7,2,1,50,1,0
7350,357.142857142857,3,2,1,50,1,0
9492,357.142857142857,4,2,1,50,1,0
13777,357.142857142857,7,2,1,50,1,0
16280,357.142857142857,5,2,1,50,1,0
18066,357.142857142857,7,2,1,50,1,0
20566,357.142857142857,6,2,1,50,1,0
22708,357.142857142857,7,2,1,50,1,0
25208,357.142857142857,4,2,1,50,1,0
43065,357.142857142857,6,2,1,50,1,0
45923,357.142857142857,7,2,1,50,1,1
48423,357.142857142857,6,2,1,50,1,1
50565,357.142857142857,7,2,1,50,1,1
53065,357.142857142857,6,2,1,50,1,1
55208,357.142857142857,4,2,1,50,1,1
62350,357.142857142857,3,2,1,50,1,1
63421,357.142857142857,5,2,1,50,1,1
65208,357.142857142857,6,2,1,50,1,1
67350,357.142857142857,7,2,1,50,1,1
69850,357.142857142857,4,2,1,50,1,1
74135,357.142857142857,3,2,1,50,1,1
75742,357.142857142857,7,2,1,50,1,0
78242,357.142857142857,4,2,1,50,1,0
81099,357.142857142857,5,2,1,50,1,0
82884,357.142857142857,4,2,1,50,1,0
84134,357.142857142857,6,2,1,50,1,0

[HitObjects]
320,192,210,5,0,0:0:0:0:
64,192,388,1,0,0:0:0:0:
448,192,745,1,0,0:0:0:0:
192,192,924,1,0,0:0:0:0:
64,192,1281,1,0,0:0:0:0:
192,192,1459,1,0,0:0:0:0:
320,192,1638,1,0,0:0:0:0:
64,192,1817,1,0,0:0:0:0:
320,192,1995,1,0,0:0:0:0:
192,192,2174,1,0,0:0:0:0:
448,192,2352,1,0,0:0:0:0:
320,192,2531,1,0,0:0:0:0:
64,192,2709,1,0,0:0:0:0:
192,192,2887,1,0,0:0:0:0:
320,192,3066,1,0,0:0:0:0:
448,192,3244,1,0,0:0:0:0:
192,192,3423,1,0,0:0:0:0:
448,192,3780,1,0,0:0:0:0:
192,192,3958,1,0,0:0:0:0:
320,192,4137,1,0,0:0:0:0:
64,192,4316,1,0,0:0:0:0:
448,192,4494,1,0,0:0:0:0:
320,192,4673,1,0,0:0:0:0:
192,192,4851,1,0,0:0:0:0:
448,192,4851,1,0,0:0:0:0:
320,192,5029,1,0,0:0:0:0:
64,192,5208,1,0,0:0:0:0:
320,192,5386,128,0,5743:0:0:0:0:
192,192,5743,1,0,0:0:0:0:
448,192,5922,1,0,0:0:0:0:
320,192,6101,1,0,0:0:0:0:
192,192,6190,1,0,0:0:0:0:
64,192,6279,1,0,0:0:0:0:
320,192,6458,1,0,0:0:0:0:
64,192,6636,128,0,6993:0:0:0:0:
192,192,6993,1,0,0:0:0:0:
320,192,7350,1,0,0:0:0:0:
448,192,7350,1,0,0:0:0:0:
64,192,7528,1,0,0:0:0:0:
320,192,7707,1,0,0:0:0:0:
192,192,7885,1,0,0:0:0:0:
64,192,8064,1,0,0:0:0:0:
320,192,8064,1,0,0:0:0:0:
320,192,8421,1,0,0:0:0:0:
448,192,8421,1,0,0:0:0:0:
64,192,8689,1,0,0:0:0:0:
192,192,8689,1,0,0:0:0:0:
320,192,8957,1,0,0:0:0:0:
448,192,8957,1,0,0:0:0:0:
192,192,9135,1,0,0:0:0:0:
64,192,9314,1,0,0:0:0:0:
192,192,9403,1,0,0:0:0:0:
320,192,9492,1,0,0:0:0:0:
448,192,9670,1,0,0:0:0:0:
192,192,9849,1,0,0:0:0:0:
448,192,10027,128,0,10384:0:0:0:0:
320,192,10384,1,0,0:0:0:0:
64,192,10563,1,0,0:0:0:0:
192,192,10920,1,0,0:0:0:0:
320,192,11099,1,0,0:0:0:0:
192,192,11277,1,0,0:0:0:0:
64,192,11456,1,0,0:0:0:0:
192,192,11813,1,0,0:0:0:0:
320,192,11992,1,0,0:0:0:0:
448,192,12170,1,0,0:0:0:0:
192,192,12349,1,0,0:0:0:0:
448,192,12527,128,0,12884:0:0:0:0:
320,192,12884,1,0,0:0:0:0:
64,192,13063,1,0,0:0:0:0:
192,192,13241,1,0,0:0:0:0:
448,192,13420,1,0,0:0:0:0:
320,192,13599,1,0,0:0:0:0:
64,192,13777,128,0,14134:0:0:0:0:
192,192,14134,1,0,0:0:0:0:
320,192,14312,1,0,0:0:0:0:
192,192,14491,1,0,0:0:0:0:
448,192,14669,128,0,15027:0:0:0:0:
320,192,15027,1,0,0:0:0:0:
64,192,15205,1,0,0:0:0:0:
192,192,15384,1,0,0:0:0:0:
448,192,15562,1,0,0:0:0:0:
320,192,15741,128,0,16098:0:0:0:0:
192,192,16098,1,0,0:0:0:0:
64,192,16277,128,0,16815:0:0:0:0:
448,192,16280,128,0,16815:0:0:0:0:
192,192,16815,128,0,16994:0:0:0:0:
320,192,16815,128,0,16994:0:0:0:0:
448,192,17172,1,0,0:0:0:0:
64,192,17351,1,0,0:0:0:0:
192,192,17530,1,0,0:0:0:0:
320,192,17708,1,0,0:0:0:0:
448,192,17887,1,0,0:0:0:0:
192,192,18065,1,0,0:0:0:0:
64,192,18244,1,0,0:0:0:0:
320,192,18601,1,0,0:0:0:0:
64,192,18780,1,0,0:0:0:0:
448,192,19137,1,0,0:0:0:0:
320,192,19316,1,0,0:0:0:0:
192,192,19494,1,0,0:0:0:0:
64,192,19673,1,0,0:0:0:0:
192,192,19851,1,0,0:0:0:0:
320,192,20030,1,0,0:0:0:0:
448,192,20208,1,0,0:0:0:0:
320,192,20387,1,0,0:0:0:0:
64,192,20566,1,0,0:0:0:0:
192,192,20566,1,0,0:0:0:0:
320,192,20744,1,0,0:0:0:0:
448,192,20923,1,0,0:0:0:0:
320,192,21101,1,0,0:0:0:0:
64,192,21280,128,0,21637:0:0:0:0:
192,192,21637,1,0,0:0:0:0:
320,192,21816,1,0,0:0:0:0:
448,192,21994,1,0,0:0:0:0:
192,192,22173,1,0,0:0:0:0:
320,192,22351,1,0,0:0:0:0:
192,192,22530,1,0,0:0:0:0:
64,192,22708,1,0,0:0:0:0:
192,192,22886,1,0,0:0:0:0:
320,192,23065,1,0,0:0:0:0:
192,192,23243,1,0,0:0:0:0:
320,192,23422,1,0,0:0:0:0:
448,192,23600,1,0,0:0:0:0:
192,192,23600,1,0,0:0:0:0:
192,192,23958,1,0,0:0:0:0:
64,192,24136,1,0,0:0:0:0:
192,192,24315,1,0,0:0:0:0:
320,192,24493,1,0,0:0:0:0:
448,192,24672,1,0,0:0:0:0:
320,192,24850,128,0,25208:0:0:0:0:
64,192,25208,1,0,0:0:0:0:
192,192,25386,1,0,0:0:0:0:
320,192,25475,1,0,0:0:0:0:
448,192,25565,1,0,0:0:0:0:
64,192,25743,1,0,0:0:0:0:
448,192,25922,1,0,0:0:0:0:
320,192,26100,1,0,0:0:0:0:
64,192,26279,1,0,0:0:0:0:
320,192,26458,1,0,0:0:0:0:
192,192,26547,1,0,0:0:0:0:
64,192,26636,1,0,0:0:0:0:
320,192,26815,1,0,0:0:0:0:
192,192,26993,1,0,0:0:0:0:
64,192,27350,128,0,28065:0:0:0:0:
320,192,27350,128,0,28065:0:0:0:0:
192,192,28065,128,0,28422:0:0:0:0:
64,192,28422,1,0,0:0:0:0:
448,192,28779,128,0,29136:0:0:0:0:
320,192,29136,1,0,0:0:0:0:
320,192,29493,128,0,29850:0:0:0:0:
192,192,29850,1,0,0:0:0:0:
448,192,30208,128,0,30565:0:0:0:0:
192,192,30565,128,0,31279:0:0:0:0:
448,192,30922,1,0,0:0:0:0:
320,192,31279,1,0,0:0:0:0:
192,192,31636,1,0,0:0:0:0:
320,192,31993,1,0,0:0:0:0:
448,192,32350,128,0,32707:0:0:0:0:
64,192,32707,1,0,0:0:0:0:
192,192,33065,128,0,33422:0:0:0:0:
448,192,33422,1,0,0:0:0:0:
320,192,33779,128,0,34136:0:0:0:0:
64,192,34136,1,0,0:0:0:0:
448,192,34493,128,0,35208:0:0:0:0:
320,192,34850,128,0,35208:0:0:0:0:
192,192,35565,1,0,0:0:0:0:
64,192,35922,1,0,0:0:0:0:
320,192,36100,1,0,0:0:0:0:
192,192,36457,1,0,0:0:0:0:
64,192,36636,1,0,0:0:0:0:
192,192,36725,1,0,0:0:0:0:
320,192,36815,1,0,0:0:0:0:
448,192,36904,1,0,0:0:0:0:
320,192,36993,1,0,0:0:0:0:
64,192,37172,1,0,0:0:0:0:
192,192,37350,1,0,0:0:0:0:
320,192,37618,1,0,0:0:0:0:
64,192,37886,1,0,0:0:0:0:
192,192,38065,1,0,0:0:0:0:
320,192,38332,1,0,0:0:0:0:
448,192,38600,1,0,0:0:0:0:
64,192,38779,1,0,0:0:0:0:
448,192,39047,1,0,0:0:0:0:
320,192,39315,1,0,0:0:0:0:
192,192,39493,1,0,0:0:0:0:
64,192,39761,1,0,0:0:0:0:
192,192,40029,1,0,0:0:0:0:
448,192,40207,1,0,0:0:0:0:
320,192,40475,1,0,0:0:0:0:
192,192,40743,1,0,0:0:0:0:
64,192,40922,1,0,0:0:0:0:
192,192,41100,1,0,0:0:0:0:
320,192,41279,1,0,0:0:0:0:
192,192,41457,1,0,0:0:0:0:
448,192,41636,1,0,0:0:0:0:
320,192,41815,1,0,0:0:0:0:
192,192,41993,1,0,0:0:0:0:
320,192,42172,1,0,0:0:0:0:
64,192,42350,1,0,0:0:0:0:
320,192,42529,1,0,0:0:0:0:
192,192,42707,1,0,0:0:0:0:
64,192,42886,1,0,0:0:0:0:
192,192,43065,1,0,0:0:0:0:
320,192,43065,1,0,0:0:0:0:
448,192,43422,1,0,0:0:0:0:
192,192,43600,1,0,0:0:0:0:
320,192,43600,1,0,0:0:0:0:
64,192,43957,1,0,0:0:0:0:
192,192,44136,128,0,44761:0:0:0:0:
320,192,44136,128,0,44761:0:0:0:0:
448,192,44761,128,0,45207:0:0:0:0:
320,192,45207,1,0,0:0:0:0:
64,192,45386,1,0,0:0:0:0:
192,192,45475,1,0,0:0:0:0:
320,192,45565,1,0,0:0:0:0:
448,192,45743,1,0,0:0:0:0:
64,192,45922,1,0,0:0:0:0:
320,192,46101,1,0,0:0:0:0:
192,192,46280,1,0,0:0:0:0:
320,192,46458,1,0,0:0:0:0:
448,192,46637,1,0,0:0:0:0:
320,192,46815,1,0,0:0:0:0:
192,192,46994,1,0,0:0:0:0:
64,192,47173,1,0,0:0:0:0:
320,192,47351,1,0,0:0:0:0:
192,192,47530,1,0,0:0:0:0:
64,192,47708,1,0,0:0:0:0:
448,192,47887,128,0,48423:0:0:0:0:
192,192,48065,1,0,0:0:0:0:
192,192,48423,1,0,0:0:0:0:
320,192,48690,1,0,0:0:0:0:
192,192,48958,1,0,0:0:0:0:
64,192,49137,1,0,0:0:0:0:
192,192,49315,1,0,0:0:0:0:
320,192,49494,1,0,0:0:0:0:
192,192,49673,1,0,0:0:0:0:
320,192,49851,1,0,0:0:0:0:
448,192,50030,1,0,0:0:0:0:
64,192,50208,128,0,50565:0:0:0:0:
192,192,50565,1,0,0:0:0:0:
320,192,50743,1,0,0:0:0:0:
448,192,50922,1,0,0:0:0:0:
64,192,51100,1,0,0:0:0:0:
192,192,51279,1,0,0:0:0:0:
320,192,51457,1,0,0:0:0:0:
448,192,51636,1,0,0:0:0:0:
320,192,51815,1,0,0:0:0:0:
192,192,51993,1,0,0:0:0:0:
320,192,52172,1,0,0:0:0:0:
448,192,52350,1,0,0:0:0:0:
64,192,52707,1,0,0:0:0:0:
192,192,52707,1,0,0:0:0:0:
192,192,53065,1,0,0:0:0:0:
320,192,53065,1,0,0:0:0:0:
320,192,53422,1,0,0:0:0:0:
448,192,53422,1,0,0:0:0:0:
64,192,53600,1,0,0:0:0:0:
192,192,53600,1,0,0:0:0:0:
64,192,53957,1,0,0:0:0:0:
192,192,53957,1,0,0:0:0:0:
320,192,54136,1,0,0:0:0:0:
448,192,54136,1,0,0:0:0:0:
448,192,54493,1,0,0:0:0:0:
320,192,54672,1,0,0:0:0:0:
64,192,54850,1,0,0:0:0:0:
64,192,55207,1,0,0:0:0:0:
320,192,55386,1,0,0:0:0:0:
192,192,55565,1,0,0:0:0:0:
448,192,55743,1,0,0:0:0:0:
64,192,55922,1,0,0:0:0:0:
320,192,56100,1,0,0:0:0:0:
192,192,56279,1,0,0:0:0:0:
448,192,56458,1,0,0:0:0:0:
64,192,56636,1,0,0:0:0:0:
192,192,56815,1,0,0:0:0:0:
448,192,56993,1,0,0:0:0:0:
320,192,57172,128,0,57529:0:0:0:0:
64,192,57529,1,0,0:0:0:0:
320,192,57886,1,0,0:0:0:0:
448,192,58065,1,0,0:0:0:0:
192,192,58243,1,0,0:0:0:0:
64,192,58422,1,0,0:0:0:0:
320,192,58422,1,0,0:0:0:0:
192,192,58779,1,0,0:0:0:0:
448,192,58958,1,0,0:0:0:0:
320,192,59136,1,0,0:0:0:0:
192,192,59225,1,0,0:0:0:0:
64,192,59315,1,0,0:0:0:0:
192,192,59404,1,0,0:0:0:0:
320,192,59493,128,0,59850:0:0:0:0:
192,192,59850,1,0,0:0:0:0:
448,192,60029,128,0,60386:0:0:0:0:
192,192,60386,1,0,0:0:0:0:
320,192,60565,128,0,60833:0:0:0:0:
64,192,61100,1,0,0:0:0:0:
448,192,61279,128,0,61636:0:0:0:0:
320,192,61636,128,0,61993:0:0:0:0:
192,192,61993,128,0,62350:0:0:0:0:
64,192,62350,1,0,0:0:0:0:
448,192,62350,1,0,0:0:0:0:
320,192,62528,1,0,0:0:0:0:
192,192,62707,1,0,0:0:0:0:
320,192,62885,1,0,0:0:0:0:
448,192,62885,1,0,0:0:0:0:
64,192,63064,1,0,0:0:0:0:
192,192,63421,1,0,0:0:0:0:
320,192,63421,1,0,0:0:0:0:
448,192,63956,1,0,0:0:0:0:
64,192,64135,1,0,0:0:0:0:
320,192,64492,1,0,0:0:0:0:
448,192,64671,1,0,0:0:0:0:
320,192,64760,1,0,0:0:0:0:
192,192,64849,1,0,0:0:0:0:
64,192,65028,1,0,0:0:0:0:
192,192,65208,1,0,0:0:0:0:
320,192,65386,1,0,0:0:0:0:
192,192,65565,1,0,0:0:0:0:
448,192,65743,1,0,0:0:0:0:
320,192,65922,1,0,0:0:0:0:
192,192,66100,1,0,0:0:0:0:
64,192,66279,1,0,0:0:0:0:
192,192,66458,1,0,0:0:0:0:
320,192,66636,1,0,0:0:0:0:
192,192,66815,1,0,0:0:0:0:
448,192,66993,128,0,67350:0:0:0:0:
192,192,67350,1,0,0:0:0:0:
320,192,67528,1,0,0:0:0:0:
192,192,67617,1,0,0:0:0:0:
64,192,67707,1,0,0:0:0:0:
320,192,67885,1,0,0:0:0:0:
64,192,68064,128,0,68421:0:0:0:0:
192,192,68421,1,0,0:0:0:0:
320,192,68600,1,0,0:0:0:0:
448,192,68778,1,0,0:0:0:0:
64,192,68957,1,0,0:0:0:0:
192,192,69135,1,0,0:0:0:0:
320,192,69314,1,0,0:0:0:0:
448,192,69492,1,0,0:0:0:0:
192,192,69671,1,0,0:0:0:0:
320,192,69850,1,0,0:0:0:0:
448,192,70028,1,0,0:0:0:0:
320,192,70117,1,0,0:0:0:0:
192,192,70207,1,0,0:0:0:0:
64,192,70385,1,0,0:0:0:0:
320,192,70564,1,0,0:0:0:0:
192,192,70742,1,0,0:0:0:0:
320,192,70921,1,0,0:0:0:0:
64,192,71100,1,0,0:0:0:0:
448,192,71278,1,0,0:0:0:0:
192,192,71457,1,0,0:0:0:0:
320,192,71635,1,0,0:0:0:0:
64,192,71814,1,0,0:0:0:0:
192,192,71992,1,0,0:0:0:0:
320,192,72171,1,0,0:0:0:0:
448,192,72350,1,0,0:0:0:0:
320,192,72528,1,0,0:0:0:0:
64,192,72707,1,0,0:0:0:0:
192,192,72885,1,0,0:0:0:0:
320,192,72975,1,0,0:0:0:0:
448,192,73064,1,0,0:0:0:0:
192,192,73242,1,0,0:0:0:0:
64,192,73421,128,0,73778:0:0:0:0:
192,192,73778,1,0,0:0:0:0:
320,192,73957,1,0,0:0:0:0:
64,192,74135,1,0,0:0:0:0:
192,192,74313,1,0,0:0:0:0:
320,192,74492,1,0,0:0:0:0:
192,192,74670,1,0,0:0:0:0:
448,192,74849,128,0,75206:0:0:0:0:
64,192,75742,1,0,0:0:0:0:
192,192,75831,1,0,0:0:0:0:
320,192,75920,1,0,0:0:0:0:
448,192,76099,1,0,0:0:0:0:
192,192,76277,1,0,0:0:0:0:
448,192,76456,128,0,76813:0:0:0:0:
320,192,76813,1,0,0:0:0:0:
64,192,76992,128,0,77349:0:0:0:0:
192,192,77349,1,0,0:0:0:0:
320,192,77527,128,0,77884:0:0:0:0:
192,192,77884,1,0,0:0:0:0:
64,192,78242,1,0,0:0:0:0:
320,192,78420,1,0,0:0:0:0:
448,192,78599,1,0,0:0:0:0:
192,192,78777,1,0,0:0:0:0:
448,192,78956,128,0,79313:0:0:0:0:
192,192,79313,1,0,0:0:0:0:
64,192,79492,1,0,0:0:0:0:
192,192,79670,1,0,0:0:0:0:
320,192,79849,1,0,0:0:0:0:
192,192,80027,1,0,0:0:0:0:
320,192,80206,1,0,0:0:0:0:
448,192,80206,1,0,0:0:0:0:
64,192,80384,1,0,0:0:0:0:
192,192,80474,1,0,0:0:0:0:
320,192,80563,1,0,0:0:0:0:
64,192,80742,1,0,0:0:0:0:
320,192,80920,1,0,0:0:0:0:
448,192,81099,1,0,0:0:0:0:
64,192,81456,1,0,0:0:0:0:
192,192,81634,1,0,0:0:0:0:
448,192,81813,1,0,0:0:0:0:
192,192,82170,1,0,0:0:0:0:
448,192,82349,1,0,0:0:0:0:
320,192,82706,1,0,0:0:0:0:
64,192,82884,1,0,0:0:0:0:
192,192,82973,1,0,0:0:0:0:
320,192,83062,1,0,0:0:0:0:
448,192,83241,1,0,0:0:0:0:
192,192,83419,1,0,0:0:0:0:
320,192,83509,1,0,0:0:0:0:
448,192,83598,1,0,0:0:0:0:
320,192,83776,1,0,0:0:0:0:
448,192,83955,1,0,0:0:0:0:
320,192,84044,1,0,0:0:0:0:
192,192,84134,1,0,0:0:0:0:
320,192,84491,1,0,0:0:0:0:
64,192,84669,1,0,0:0:0:0:
192,192,84848,1,0,0:0:0:0:
320,192,85026,1,0,0:0:0:0:
192,192,85205,1,0,0:0:0:0:
448,192,85384,1,0,0:0:0:0:
448,192,85562,1,0,0:0:0:0:
320,192,85741,1,0,0:0:0:0:
192,192,86009,1,0,0:0:0:0:
64,192,86276,1,0,0:0:0:0:
