osu file format v14

[General]
AudioFilename: audio.mp3
AudioLeadIn: 0
PreviewTime: 7860
Countdown: 0
SampleSet: Normal
StackLeniency: 0.7
Mode: 0
LetterboxInBreaks: 0
WidescreenStoryboard: 1

[Editor]
Bookmarks: 150,390,4005,7860,8101,15571,17499,19427,21354,23282,26656,28583,30029,30511
DistanceSpacing: 2.6
BeatDivisor: 4
GridSize: 16
TimelineZoom: 7.400001

[Metadata]
Title:The Shortest Mashcore Ever
TitleUnicode:The Shortest Mashcore Ever
Artist:odaxelagnia
ArtistUnicode:odaxelagnia
Creator:deadpon3
Version:Shmik's Extra
Source:
Tags:breakcore dancecorps dance corps skrd Jason Derulo Whatcha Say Caramell Dansen CaramellDansen Super Mario Bros Chalwa Silverboxer ReFaller XVoIR shmiklak Alphabet marvollo m_a_r_v_o_l_l_o
BeatmapID:1510710
BeatmapSetID:713123

[Difficulty]
HPDrainRate:4.5
CircleSize:4
OverallDifficulty:8.5
ApproachRate:9.7
SliderMultiplier:1.60000000596046
SliderTickRate:1

[Events]
//Background and Video events
0,0,"can I use it thanks.jpg",0,0
//Break Periods
//Storyboard Layer 0 (Background)
//Storyboard Layer 1 (Fail)
//Storyboard Layer 2 (Pass)
//Storyboard Layer 3 (Foreground)
//Storyboard Sound Samples

[TimingPoints]
150,240.963855421687,4,2,0,70,1,0
150,-133.333333333333,4,1,1,70,0,0
631,-166.666666666667,4,1,1,70,0,0
1595,-200,4,1,1,70,0,0
2077,-111.111111111111,4,1,1,70,0,0
2559,-100,4,1,1,70,0,0
3041,-153.846153846154,4,1,1,70,0,0
3523,-100,4,1,1,70,0,0
7860,-76.9230769230769,4,1,1,100,0,1
15571,-133.333333333333,4,1,1,83,0,0
17258,-200,4,1,1,50,0,0
17499,-200,4,1,1,83,0,0
17680,-200,4,1,1,5,0,0
17740,-200,4,1,1,83,0,0
17921,-200,4,1,1,5,0,0
17981,-200,4,1,1,83,0,0
18162,-200,4,1,1,5,0,0
18222,-200,4,1,1,83,0,0
18403,-200,4,1,1,5,0,0
18463,-200,4,1,1,83,0,0
18643,-200,4,1,1,5,0,0
18704,-200,4,1,1,83,0,0
18884,-200,4,1,1,5,0,0
18945,-200,4,1,1,83,0,0
19125,-200,4,1,1,5,0,0
19186,-200,4,1,1,83,0,0
19366,-200,4,1,1,5,0,0
19427,-133.333333333333,4,1,1,83,0,0
21113,-200,4,1,1,50,0,0
21354,-133.333333333333,4,1,1,83,0,0
23282,-90.9090909090909,4,1,1,83,0,0
26174,-76.9230769230769,4,1,1,83,0,0
27137,-90.9090909090909,4,1,1,83,0,0
30511,-50,4,1,1,83,0,0

[Colours]
Combo1 : 6,134,210
Combo2 : 0,202,202
Combo3 : 187,0,0
Combo4 : 0,202,51
Combo5 : 225,225,0

[HitObjects]
20,148,150,6,0,P|14:181|15:211,1,60.0000025123357,4|0,2:0|0:0,0:0:0:0:
185,110,390,2,0,P|184:80|181:32,1,60.0000025123357,0|0,2:0|0:0,0:0:0:0:
146,208,631,22,0,B|195:229|257:219|217:186|281:179|336:205,1,191.99999485588,2|0,2:0|2:0,0:0:0:0:
329,202,1595,6,0,P|351:202|377:196,1,40.0000001490115,2|0,2:0|0:0,0:0:0:0:
489,262,1836,2,0,P|469:258|449:258,1,40.0000001490115,0|0,2:0|2:0,0:0:0:0:
311,358,2077,6,0,P|309:316|316:282,1,71.9999980709551,4|0,2:0|2:0,0:0:0:0:
453,120,2318,1,10,2:0:0:0:
426,269,2439,1,8,2:0:0:0:
294,101,2559,2,0,P|248:97|205:93,1,80.000000298023,4|0,2:0|2:0,0:0:0:0:
69,209,2800,2,0,P|114:205|158:201,1,80.000000298023,10|0,2:0|2:0,0:0:0:0:
426,269,3041,22,0,B|381:288|324:279|360:248|302:242|251:266,1,181.999992346704,2|0,2:0|0:0,0:0:0:0:
220,293,3523,6,0,L|214:324,14,20.0000000745057,0|0|0|0|0|0|0|0|0|0|0|0|0|0|0,2:0|2:0|2:0|2:0|2:0|2:0|2:0|2:0|2:0|2:0|2:0|2:0|2:0|2:0|2:0,0:0:0:0:
179,272,4005,6,0,P|173:222|180:187,1,80.000000298023,4|0,2:0|2:0,0:0:0:0:
385,191,4246,5,8,2:0:0:0:
218,126,4366,1,0,2:0:0:0:
385,191,4487,5,2,2:0:0:0:
218,126,4607,1,0,2:0:0:0:
330,353,4728,5,8,2:0:0:0:
305,49,4848,1,8,2:0:0:0:
229,311,4969,5,0,2:0:0:0:
494,196,5089,1,0,2:0:0:0:
307,141,5210,2,0,P|294:183|300:232,1,80.000000298023,8|0,2:0|2:0,0:0:0:0:
95,74,5451,2,0,P|137:63|177:34,1,80.000000298023,4|0,2:0|2:0,0:0:0:0:
143,290,5692,2,0,P|112:258|67:238,1,80.000000298023,12|0,2:0|2:0,0:0:0:0:
249,188,5933,5,2,2:0:0:0:
281,349,6053,1,0,2:0:0:0:
256,186,6174,5,8,2:0:0:0:
273,350,6294,1,0,2:0:0:0:
318,98,6415,5,0,2:0:0:0:
189,276,6535,1,0,2:0:0:0:
226,51,6656,5,8,2:0:0:0:
335,295,6776,1,0,2:0:0:0:
417,166,6896,6,0,L|420:186,6,20.0000000745057,2|0|0|0|0|0|0,2:0|2:0|2:0|2:0|2:0|2:0|2:0,0:0:0:0:
484,81,7137,6,0,L|490:41,2,40.0000001490115,4|0|0,2:0|2:0|2:0,0:0:0:0:
432,268,7378,5,10,2:0:0:0:
402,64,7499,1,8,2:0:0:0:
344,306,7619,5,8,2:0:0:0:
512,203,7740,1,0,2:0:0:0:
233,141,7860,6,0,B|124:133,1,103.999995626688,2|0,2:0|2:0,0:0:0:0:
156,344,8101,2,0,B|265:336,1,103.999995626688,8|0,2:0|2:0,0:0:0:0:
376,201,8342,5,0,2:0:0:0:
191,246,8463,1,0,2:0:0:0:
385,339,8583,2,0,P|376:285|371:226,1,103.999995626688,8|8,2:0|2:0,0:0:0:0:
388,14,8824,5,4,2:0:0:0:
388,14,8945,1,0,2:0:0:0:
489,158,9065,5,8,2:0:0:0:
489,158,9186,1,0,2:0:0:0:
266,87,9306,5,0,2:0:0:0:
510,54,9427,1,0,2:0:0:0:
352,252,9547,2,0,L|360:140,1,103.999995626688,10|0,2:0|2:0,0:0:0:0:
102,305,9788,6,0,B|211:300,1,103.999995626688,2|0,2:0|2:0,0:0:0:0:
200,112,10029,2,0,B|83:104,1,103.999995626688,8|0,2:0|2:0,0:0:0:0:
316,270,10270,5,0,2:0:0:0:
150,216,10390,1,0,2:0:0:0:
297,102,10511,2,0,P|339:96|411:99,1,103.999995626688,8|8,2:0|2:0,0:0:0:0:
431,122,10692,1,0,0:0:0:0:
431,122,10752,6,0,L|435:239,1,103.999995626688,4|0,2:0|2:0,0:0:0:0:
312,373,10993,2,0,L|315:269,1,103.999995626688,8|4,2:0|2:0,0:0:0:0:
267,83,11234,5,0,2:0:0:0:
447,124,11354,1,8,2:0:0:0:
265,90,11475,5,4,2:0:0:0:
448,116,11595,1,8,2:0:0:0:
167,241,11716,6,0,B|114:251|114:251|48:232,1,103.999995626688,4|0,2:0|2:0,0:0:0:0:
265,90,11957,2,0,B|275:143|275:143|256:209,1,103.999995626688,8|0,2:0|2:0,0:0:0:0:
165,27,12198,5,0,2:0:0:0:
356,76,12318,1,0,2:0:0:0:
125,150,12439,2,0,P|77:149|20:140,1,103.999995626688,8|0,2:0|2:0,0:0:0:0:
247,223,12680,5,2,2:0:0:0:
247,223,12800,1,0,2:0:0:0:
187,62,12921,5,8,2:0:0:0:
187,62,13041,1,0,2:0:0:0:
140,251,13162,5,2,2:0:0:0:
372,173,13282,1,0,2:0:0:0:
218,349,13403,2,0,L|226:242,1,103.999995626688,8|8,2:0|2:0,0:0:0:0:
326,64,13643,6,0,B|379:54|379:54|445:73,1,103.999995626688,4|0,2:0|2:0,0:0:0:0:
228,215,13884,2,0,B|218:162|218:162|237:96,1,103.999995626688,8|0,2:0|2:0,0:0:0:0:
331,306,14125,5,0,2:0:0:0:
129,250,14246,1,0,2:0:0:0:
413,232,14366,5,8,2:0:0:0:
203,358,14487,1,0,2:0:0:0:
13,187,14607,6,0,L|24:77,1,103.999995626688,4|0,2:0|2:0,0:0:0:0:
45,61,14788,1,0,2:0:0:0:
66,39,14848,2,0,L|178:33,1,103.999995626688,8|0,2:0|2:0,0:0:0:0:
192,55,15029,1,0,2:0:0:0:
213,76,15089,2,0,L|325:70,1,103.999995626688,8|0,2:0|2:0,0:0:0:0:
339,92,15270,1,0,2:0:0:0:
360,121,15330,1,8,2:0:0:0:
370,156,15390,1,0,2:0:0:0:
367,192,15450,1,10,2:0:0:0:
353,225,15510,1,0,2:0:0:0:
328,252,15571,6,0,L|256:256,1,60.0000025123357,2|0,2:0|2:0,0:0:0:0:
202,317,15812,1,8,2:0:0:0:
202,317,15933,1,0,2:0:0:0:
67,239,16053,2,0,L|70:166,1,60.0000025123357,2|0,2:0|2:0,0:0:0:0:
197,34,16535,6,0,L|201:106,1,60.0000025123357,2|0,2:0|2:0,0:0:0:0:
259,162,16776,1,8,2:0:0:0:
259,162,16897,1,0,2:0:0:0:
126,241,17017,2,0,L|53:238,1,60.0000025123357,2|0,2:0|2:0,0:0:0:0:
42,344,17258,6,0,L|63:341,3,20.0000000745057,0|0|0|0,2:0|0:0|2:0|0:0,0:0:0:0:
94,352,17499,6,0,P|126:349|171:354,1,60.0000002235172,2|0,2:0|0:0,0:0:0:0:
289,297,17740,2,0,P|257:302|212:301,1,60.0000002235172,8|0,2:0|0:0,0:0:0:0:
96,360,17981,2,0,P|128:354|173:355,1,60.0000002235172,2|0,2:0|0:0,0:0:0:0:
286,288,18222,2,0,P|255:297|210:300,1,60.0000002235172,8|0,2:0|0:0,0:0:0:0:
102,212,18463,6,0,P|105:182|114:153,1,60.0000002235172,2|0,2:0|0:0,0:0:0:0:
48,284,18704,2,0,P|47:313|41:343,1,60.0000002235172,8|0,2:0|0:0,0:0:0:0:
99,210,18945,2,0,P|99:180|104:150,1,60.0000002235172,2|0,2:0|0:0,0:0:0:0:
51,285,19186,2,0,P|52:314|49:344,1,60.0000002235172,8|0,2:0|0:0,0:0:0:0:
174,342,19427,6,0,L|170:270,1,60.0000025123357,2|0,2:0|2:0,0:0:0:0:
99,210,19668,1,8,2:0:0:0:
99,210,19789,1,0,2:0:0:0:
210,102,19909,2,0,L|283:105,1,60.0000025123357,2|0,2:0|2:0,0:0:0:0:
489,239,20390,6,0,L|417:243,1,60.0000025123357,2|0,2:0|2:0,0:0:0:0:
369,302,20631,1,8,2:0:0:0:
369,302,20752,1,0,2:0:0:0:
244,209,20872,2,0,L|247:136,1,60.0000025123357,2|0,2:0|2:0,0:0:0:0:
127,44,21113,6,0,L|131:80,3,20.0000000745057,0|0|0|0,2:0|0:0|2:0|0:0,0:0:0:0:
96,96,21354,6,0,L|91:169,1,60.0000025123357,4|0,2:0|2:0,0:0:0:0:
188,259,21595,2,0,L|127:218,1,60.0000025123357,8|0,2:0|2:0,0:0:0:0:
0,258,21836,2,0,L|65:225,1,60.0000025123357,2|8,2:0|2:0,0:0:0:0:
198,97,22077,5,8,2:0:0:0:
12,97,22198,1,8,2:0:0:0:
138,225,22318,5,4,2:0:0:0:
138,225,22439,1,0,2:0:0:0:
90,62,22559,1,8,2:0:0:0:
31,194,22680,5,0,2:0:0:0:
31,194,22800,1,2,2:0:0:0:
241,127,22921,1,8,2:0:0:0:
69,294,23041,5,8,2:0:0:0:
129,35,23162,1,8,2:0:0:0:
117,202,23282,6,0,L|210:211,2,88.0000030133723,4|0|8,2:0|2:0|2:0,0:0:0:0:
274,315,23643,2,0,L|361:306,2,88.0000030133723,0|0|0,2:0|2:0|2:0,0:0:0:0:
400,128,24005,2,0,L|493:137,1,88.0000030133723,8|0,2:0|2:0,0:0:0:0:
248,56,24246,5,2,2:0:0:0:
280,227,24366,2,0,P|282:273|272:331,2,88.0000030133723,0|8|0,2:0|2:0|2:0,0:0:0:0:
92,79,24728,2,0,P|89:122|95:166,1,88.0000030133723,0|0,2:0|2:0,0:0:0:0:
268,342,24969,5,8,2:0:0:0:
266,116,25089,1,8,2:0:0:0:
444,264,25210,6,0,P|403:268|351:255,2,88.0000030133723,2|0|8,2:0|2:0|2:0,0:0:0:0:
277,111,25571,2,0,P|228:108|190:120,2,88.0000030133723,0|0|0,2:0|2:0|2:0,0:0:0:0:
102,253,25933,1,8,2:0:0:0:
46,100,26053,1,0,2:0:0:0:
256,288,26174,5,4,2:0:0:0:
256,288,26415,1,4,2:0:0:0:
256,288,26656,1,2,2:0:0:0:
380,163,26776,1,8,2:0:0:0:
255,38,26896,1,0,2:0:0:0:
129,163,27017,1,8,2:0:0:0:
343,353,27137,6,0,L|334:260,2,88.0000030133723,2|0|8,2:0|2:0|2:0,0:0:0:0:
180,190,27499,2,0,L|189:100,2,88.0000030133723,0|0|0,2:0|2:0|2:0,0:0:0:0:
343,26,27860,2,0,L|436:17,1,88.0000030133723,8|0,2:0|2:0,0:0:0:0:
497,244,28101,5,2,2:0:0:0:
267,186,28222,2,0,P|221:184|163:194,2,88.0000030133723,0|8|0,2:0|2:0|2:0,0:0:0:0:
430,356,28583,2,0,P|387:359|343:353,1,88.0000030133723,0|0,2:0|2:0,0:0:0:0:
113,268,28824,5,8,2:0:0:0:
378,154,28944,1,8,2:0:0:0:
179,189,29065,5,2,2:0:0:0:
384,259,29186,2,0,P|434:256|495:249,1,88.0000030133723,0|8,2:0|2:0,0:0:0:0:
243,355,29427,2,0,P|199:350|155:348,1,88.0000030133723,0|2,2:0|2:0,0:0:0:0:
288,237,29668,1,0,2:0:0:0:
171,68,29788,2,0,P|166:111|164:155,1,88.0000030133723,8|0,2:0|2:0,0:0:0:0:
32,336,30029,5,4,2:0:0:0:
69,203,30150,6,0,P|67:182|64:161,4,22.0000007533431,0|0|0|0|8,2:0|2:0|2:0|2:0|2:0,0:0:0:0:
202,299,30390,2,0,P|200:309|199:320,2,22.0000007533431,0|0|0,2:0|2:0|2:0,0:0:0:0:
259,230,30511,5,12,1:0:0:0:
