osu file format v14

[General]
AudioFilename: audio.mp3
AudioLeadIn: 0
PreviewTime: 7860
Countdown: 0
SampleSet: Soft
StackLeniency: 0.7
Mode: 0
LetterboxInBreaks: 0
WidescreenStoryboard: 1

[Editor]
Bookmarks: 14607,30511
DistanceSpacing: 1.44
BeatDivisor: 8
GridSize: 4
TimelineZoom: 5.799996

[Metadata]
Title:The Shortest Mashcore Ever
TitleUnicode:The Shortest Mashcore Ever
Artist:odaxelagnia
ArtistUnicode:odaxelagnia
Creator:deadpon3
Version:Alphabet's Light Insane
Source:
Tags:breakcore dancecorps dance corps skrd Jason Derulo Whatcha Say Caramell Dansen CaramellDansen Super Mario Bros Chalwa Silverboxer ReFaller XVoIR shmiklak Alphabet marvollo m_a_r_v_o_l_l_o
BeatmapID:1520967
BeatmapSetID:713123

[Difficulty]
HPDrainRate:5
CircleSize:4
OverallDifficulty:7.3
ApproachRate:8.5
SliderMultiplier:0.90000000596046
SliderTickRate:1

[Events]
//Background and Video events
0,0,"can I use it thanks.jpg",0,0
//Break Periods
//Storyboard Layer 0 (Background)
//Storyboard Layer 1 (Fail)
//Storyboard Layer 2 (Pass)
//Storyboard Layer 3 (Foreground)
//Storyboard Sound Samples

[TimingPoints]
150,240.963855421687,4,2,0,70,1,0
150,-100,4,2,0,70,0,0
2077,-76.9230769230769,4,2,0,70,0,0
4005,-90.9090909090909,4,2,0,70,0,0
5451,-66.6666666666667,4,2,0,70,0,0
5933,-90.9090909090909,4,2,0,70,0,0
7860,-76.9230769230769,4,2,0,100,0,1
8824,-66.6666666666667,4,2,0,100,0,1
9788,-76.9230769230769,4,2,0,100,0,1
12680,-66.6666666666667,4,2,0,100,0,1
13643,-76.9230769230769,4,2,0,100,0,1
14607,-66.6666666666667,4,2,0,100,0,1
15571,-90.9090909090909,4,2,0,83,0,0
26174,-76.9230769230769,4,2,0,83,0,0
27137,-100,4,2,0,83,0,0
30511,-66.6666666666667,4,2,0,83,0,0

[Colours]
Combo1 : 6,134,210
Combo2 : 0,202,202
Combo3 : 187,0,0
Combo4 : 0,202,51
Combo5 : 225,225,0

[HitObjects]
59,127,150,6,0,L|166:134,1,90.000000596046,4|0,2:0|2:0,0:0:0:0:
237,143,511,1,0,0:0:0:0:
311,70,631,2,0,P|337:136|281:239,1,180.000001192092,2|0,2:0|2:0,0:0:0:0:
294,230,1595,2,0,L|403:236,1,90.000000596046,2|0,2:0|2:0,0:0:0:0:
460,184,1957,1,0,2:0:0:0:
393,124,2077,6,0,B|370:177|370:177|389:258,1,116.999995419025,4|10,2:0|2:0,0:0:0:0:
460,184,2439,1,8,2:0:0:0:
302,124,2559,2,0,B|272:113|242:122|242:122|211:135|163:116,1,116.999995419025,4|10,2:0|2:0,0:0:0:0:
187,124,3041,2,0,B|191:188|191:188|179:225|179:225|185:319,1,175.499993128538,2|0,2:0|2:0,0:0:0:0:
258,243,3523,2,0,L|282:245,12,14.6249994273781,0|0|0|0|0|0|0|0|0|0|0|0|0,2:0|2:0|2:0|2:0|2:0|2:0|2:0|2:0|0:0|0:0|0:0|0:0|0:0,0:0:0:0:
306,321,4005,6,0,L|369:317,1,49.5000018384455,4|0,2:0|2:0,0:0:0:0:
449,246,4246,2,0,L|381:241,1,49.5000018384455,8|0,2:0|2:0,0:0:0:0:
323,179,4487,1,2,2:0:0:0:
323,179,4607,1,0,2:0:0:0:
395,119,4728,1,8,2:0:0:0:
395,119,4848,1,8,2:0:0:0:
317,60,4969,6,0,P|284:57|247:66,1,49.5000018384455,0|0,2:0|2:0,0:0:0:0:
198,26,5210,2,0,P|173:47|153:81,1,49.5000018384455,8|0,2:0|2:0,0:0:0:0:
85,75,5451,6,0,B|78:114|78:114|92:152,1,67.5000030219553,4|0,2:0|2:0,0:0:0:0:
166,186,5692,2,0,B|173:225|173:225|158:263,1,67.5000030219553,12|0,2:0|2:0,0:0:0:0:
97,302,5933,6,0,L|35:296,2,49.5000018384455,2|0|8,2:0|2:0|2:0,0:0:0:0:
163,252,6294,1,0,2:0:0:0:
230,305,6415,1,0,2:0:0:0:
230,305,6535,1,0,2:0:0:0:
305,263,6656,2,0,L|362:268,1,49.5000018384455,8|0,2:0|2:0,0:0:0:0:
435,224,6896,6,0,L|453:227,4,12.3750004596114,2|0|0|0|0,2:0|2:0|2:0|2:0|0:0,0:0:0:0:
365,164,7137,2,0,L|331:167,2,24.7500009192227
431,101,7378,2,0,L|499:105,1,49.5000018384455,10|8,2:0|2:0,0:0:0:0:
373,35,7619,2,0,L|305:39,1,49.5000018384455,8|0,2:0|2:0,0:0:0:0:
232,110,7860,6,0,B|190:105|190:105|152:114|152:114|96:110,1,116.999995419025,2|8,2:0|2:0,0:0:0:0:
50,170,8222,1,0,2:0:0:0:
50,170,8342,2,0,L|45:247,1,58.4999977095125,0|0,2:0|2:0,0:0:0:0:
114,316,8583,2,0,L|118:248,1,58.4999977095125,8|8,2:0|2:0,0:0:0:0:
191,193,8824,6,0,B|182:154|182:154|195:107,2,67.5000030219553,4|0|8,2:0|2:0|2:0,0:0:0:0:
261,227,9186,1,0,2:0:0:0:
333,263,9306,2,0,B|342:301|342:301|334:340,2,67.5000030219553,0|0|10,2:0|2:0|2:0,0:0:0:0:
333,263,9788,6,0,P|380:281|462:261,1,116.999995419025,2|8,2:0|2:0,0:0:0:0:
503,205,10150,1,0,2:0:0:0:
503,205,10270,2,0,P|506:165|501:126,1,58.4999977095125,0|0,2:0|2:0,0:0:0:0:
429,91,10511,2,0,P|395:94|361:90,1,58.4999977095125,8|8,2:0|2:0,0:0:0:0:
285,59,10752,6,0,L|289:-17,2,58.4999977095125,4|0|8,2:0|2:0|2:0,0:0:0:0:
214,114,11113,1,4,2:0:0:0:
214,114,11234,2,0,L|217:181,2,58.4999977095125,0|8|4,2:0|2:0|2:0,0:0:0:0:
143,52,11595,1,8,2:0:0:0:
74,109,11716,6,0,B|72:169|72:169|76:173|76:173|74:240,1,116.999995419025,4|8,2:0|2:0,0:0:0:0:
79,314,12077,1,0,2:0:0:0:
79,314,12198,2,0,P|116:321|161:312,1,58.4999977095125,0|0,2:0|0:0,0:0:0:0:
216,278,12439,2,0,P|245:276|273:283,1,58.4999977095125,8|0,2:0|2:0,0:0:0:0:
354,315,12680,6,0,B|362:352|362:352|354:387,2,67.5000030219553,2|0|8,2:0|2:0|2:0,0:0:0:0:
407,254,13041,1,0,2:0:0:0:
457,191,13162,2,0,B|449:154|449:154|457:119,2,67.5000030219553,2|0|8,2:0|2:0|2:0,0:0:0:0:
455,189,13643,6,0,P|406:175|334:223,1,116.999995419025,4|8,2:0|2:0,0:0:0:0:
275,244,14005,1,0,2:0:0:0:
275,244,14125,2,0,L|282:313,1,58.4999977095125,0|0,2:0|2:0,0:0:0:0:
195,272,14366,2,0,L|188:203,1,58.4999977095125,8|0,2:0|2:0,0:0:0:0:
179,130,14607,6,0,B|141:129|141:129|90:141,1,67.5000030219553,4|0,2:0|2:0,0:0:0:0:
172,48,14848,2,0,B|210:49|210:49|261:37,1,67.5000030219553,8|0,2:0|2:0,0:0:0:0:
330,20,15089,1,8,2:0:0:0:
330,20,15210,2,0,L|332:76,4,33.7500015109776,0|0|8|0|10,2:0|2:0|2:0|2:0|2:0,0:0:0:0:
394,97,15571,6,0,L|392:201,1,99.000003676891,2|8,2:0|2:0,0:0:0:0:
444,278,15933,1,0,2:0:0:0:
444,278,16053,2,0,L|443:346,1,49.5000018384455,2|0,2:0|2:0,0:0:0:0:
263,339,16535,6,0,P|216:324|162:342,1,99.000003676891,2|8,2:0|2:0,0:0:0:0:
132,259,16896,1,0,2:0:0:0:
132,259,17017,2,0,P|101:264|71:259,1,49.5000018384455,2|0,2:0|2:0,0:0:0:0:
37,98,17499,5,2,2:0:0:0:
167,56,17740,2,0,B|221:47|221:47|274:60,2,99.000003676891,8|2|8,2:0|2:0|2:0,0:0:0:0:
37,98,18463,2,0,L|43:205,1,99.000003676891,2|8,2:0|2:0,0:0:0:0:
132,259,18945,2,0,L|138:366,1,99.000003676891,2|8,2:0|2:0,0:0:0:0:
187,194,19427,6,0,P|146:177|77:193,1,99.000003676891,2|8,2:0|2:0,0:0:0:0:
37,98,19788,1,0,2:0:0:0:
37,98,19909,2,0,P|77:94|102:83,1,49.5000018384455,2|0,2:0|2:0,0:0:0:0:
248,21,20390,6,0,P|233:65|249:121,1,99.000003676891,2|8,2:0|2:0,0:0:0:0:
332,96,20752,1,0,2:0:0:0:
332,96,20872,2,0,P|335:132|325:166,1,49.5000018384455,2|0,2:0|2:0,0:0:0:0:
425,248,21354,6,0,L|480:254,3,49.5000018384455,4|0|8|0,2:0|2:0|2:0|2:0,0:0:0:0:
367,324,21836,2,0,L|417:330,3,49.5000018384455,2|8|8|8,2:0|2:0|2:0|2:0,0:0:0:0:
333,247,22318,6,0,L|268:254,1,49.5000018384455,4|0,2:0|2:0,0:0:0:0:
265,333,22559,2,0,L|200:326,1,49.5000018384455,8|0,2:0|2:0,0:0:0:0:
195,240,22800,2,0,L|138:260,1,49.5000018384455,2|8,2:0|2:0,0:0:0:0:
122,342,23041,2,0,L|65:322,1,49.5000018384455,8|8,2:0|2:0,0:0:0:0:
11,247,23282,5,4,2:0:0:0:
11,247,23403,2,0,P|-4:194|17:134,1,99.000003676891,0|0,2:0|2:0,0:0:0:0:
93,73,23884,1,0,2:0:0:0:
93,73,24005,2,0,L|156:75,1,49.5000018384455,8|0,2:0|2:0,0:0:0:0:
228,37,24246,5,2,2:0:0:0:
228,37,24366,2,0,L|337:48,1,99.000003676891,0|0,2:0|2:0,0:0:0:0:
383,113,24728,2,0,L|497:103,1,99.000003676891,0|8,2:0|2:0,0:0:0:0:
293,129,25210,5,2,2:0:0:0:
293,129,25330,2,0,P|284:173|301:231,1,99.000003676891,0|0,2:0|2:0,0:0:0:0:
379,274,25812,2,0,L|439:277,2,49.5000018384455,0|8|0,2:0|2:0|2:0,0:0:0:0:
297,224,26174,6,0,B|250:219|250:219|167:236,1,116.999995419025,4|4,2:0|2:0,0:0:0:0:
102,256,26535,1,0,2:0:0:0:
23,281,26656,2,0,P|23:316|45:355,2,58.4999977095125,2|8|0,2:0|2:0|2:0,0:0:0:0:
126,175,27137,5,2,2:0:0:0:
126,175,27258,2,0,P|137:129|125:72,1,90.000000596046,0|0,2:0|2:0,0:0:0:0:
240,40,27740,1,0,2:0:0:0:
240,40,27860,2,0,L|299:42,1,45.000000298023,8|0,2:0|2:0,0:0:0:0:
365,3,28101,5,2,2:0:0:0:
365,3,28222,2,0,P|376:52|353:103,1,90.000000596046,0|0,2:0|2:0,0:0:0:0:
306,149,28583,2,0,P|295:198|318:249,1,90.000000596046,0|8,2:0|2:0,0:0:0:0:
377,277,28945,1,8,2:0:0:0:
441,222,29065,5,2,2:0:0:0:
441,222,29186,1,0,2:0:0:0:
307,322,29427,2,0,L|199:312,1,90.000000596046,0|0,2:0|2:0,0:0:0:0:
145,302,29788,1,8,2:0:0:0:
257,213,30029,6,0,L|267:172,2,22.5000001490115,4|0|0,1:0|0:0|2:0,0:0:0:0:
195,135,30270,2,0,L|205:94,2,22.5000001490115,0|0|0,0:0|0:0|2:0,0:0:0:0:
133,58,30511,6,0,B|86:53|86:53|-6:73,1,135.000006043911,12|0,2:0|0:0,0:0:0:0:
