osu file format v14

[General]
AudioFilename: audio.mp3
AudioLeadIn: 0
PreviewTime: 7860
Countdown: 0
SampleSet: Normal
StackLeniency: 0.7
Mode: 2
LetterboxInBreaks: 0
WidescreenStoryboard: 0

[Editor]
DistanceSpacing: 0.5
BeatDivisor: 4
GridSize: 8
TimelineZoom: 2.5

[Metadata]
Title:The Shortest Mashcore Ever
TitleUnicode:The Shortest Mashcore Ever
Artist:odaxelagnia
ArtistUnicode:odaxelagnia
Creator:MBomb
Version:Salad
Source:
Tags:Magic Bomb
BeatmapID:1248021
BeatmapSetID:585940

[Difficulty]
HPDrainRate:3
CircleSize:2.5
OverallDifficulty:7
ApproachRate:7
SliderMultiplier:1.1
SliderTickRate:1

[Events]
//Background and Video events
0,0,"odaxelagnia_-_The_Shortest_Mashcore_Ever.jpg",0,0
//Break Periods
//Storyboard Layer 0 (Background)
//Storyboard Layer 1 (Fail)
//Storyboard Layer 2 (Pass)
//Storyboard Layer 3 (Foreground)
//Storyboard Sound Samples

[TimingPoints]
150,240.963855421687,4,1,1,40,1,0

[Colours]
Combo1 : 0,185,185
Combo2 : 255,0,0
Combo3 : 37,243,120

[HitObjects]
176,192,150,5,0,0:0:0:0:
312,192,390,1,0,0:0:0:0:
176,192,631,2,0,P|96:152|160:64,1,220
328,192,1595,1,0,0:0:0:0:
208,192,1836,1,0,0:0:0:0:
456,192,2077,6,0,P|496:168|464:128,1,110
416,192,2439,2,0,L|360:192,1,55
224,192,2800,1,0,0:0:0:0:
96,192,3041,5,0,0:0:0:0:
208,192,3282,1,0,0:0:0:0:
64,192,3523,2,0,L|192:192,1,110
424,192,4005,5,0,0:0:0:0:
474,184,4125,1,0,0:0:0:0:
483,134,4245,1,0,0:0:0:0:
437,110,4366,1,0,0:0:0:0:
376,192,4487,2,0,L|312:192,1,55
400,192,4728,1,0,0:0:0:0:
472,192,4848,1,0,0:0:0:0:
384,192,4969,6,0,L|320:192,1,55
400,192,5210,2,0,L|344:192,1,55
168,192,5451,1,0,0:0:0:0:
295,192,5692,1,0,0:0:0:0:
144,192,5933,5,0,0:0:0:0:
272,192,6174,1,0,0:0:0:0:
376,192,6415,2,0,L|440:192,2,55
128,192,6896,6,0,L|56:192,1,55
152,192,7137,2,0,L|232:192,1,55
288,192,7378,1,0,0:0:0:0:
352,192,7499,1,0,0:0:0:0:
288,192,7619,1,0,0:0:0:0:
352,192,7740,1,0,0:0:0:0:
176,192,7860,6,0,L|64:192,2,110
272,192,8463,2,0,L|336:192,2,55
120,192,8945,5,0,0:0:0:0:
256,192,9186,1,0,0:0:0:0:
120,192,9427,2,0,L|184:192,1,55
424,192,9788,6,0,P|488:184|504:144,2,110
328,192,10390,2,0,L|248:192,1,55
368,192,10631,1,0,0:0:0:0:
216,192,10872,6,0,L|152:192,1,55
296,192,11234,2,0,L|351:192,2,55
24,192,11716,6,0,L|136:192,2,110
200,192,12318,2,0,L|264:192,2,55
48,192,12800,5,0,0:0:0:0:
184,192,13041,1,0,0:0:0:0:
320,192,13282,2,0,L|384:192,1,55
104,192,13643,6,0,P|32:184|16:136,2,110
184,192,14246,1,0,0:0:0:0:
256,192,14366,1,0,0:0:0:0:
304,192,14487,1,0,0:0:0:0:
216,192,14607,5,0,0:0:0:0:
129,192,14728,2,0,L|201:192,1,55
272,192,14969,2,0,L|352:192,1,55
240,192,15210,1,0,0:0:0:0:
160,192,15330,1,0,0:0:0:0:
104,192,15451,1,0,0:0:0:0:
272,192,15571,6,0,L|328:168,1,55
160,192,15933,2,0,L|80:192,2,55
352,192,16535,6,0,L|288:192,1,55
448,192,16896,2,0,L|504:192,2,55
128,192,17499,5,0,0:0:0:0:
264,192,17740,1,0,0:0:0:0:
104,192,17981,1,0,0:0:0:0:
240,192,18222,1,0,0:0:0:0:
400,192,18463,5,0,0:0:0:0:
264,192,18704,1,0,0:0:0:0:
128,192,18945,1,0,0:0:0:0:
352,192,19186,1,0,0:0:0:0:
128,192,19427,6,0,L|56:192,1,55
232,192,19788,1,0,0:0:0:0:
160,192,19909,1,0,0:0:0:0:
88,192,20029,1,0,0:0:0:0:
305,192,20390,6,0,L|377:192,1,55
200,192,20751,1,0,0:0:0:0:
280,192,20872,1,0,0:0:0:0:
360,192,20992,1,0,0:0:0:0:
64,192,21354,6,0,L|8:192,2,55
152,192,21716,2,0,L|224:192,2,55
64,192,22077,1,0,0:0:0:0:
152,192,22198,1,0,0:0:0:0:
328,192,22318,6,0,L|392:192,2,55
240,192,22680,2,0,L|176:192,2,55
328,192,23041,1,0,0:0:0:0:
408,192,23162,1,0,0:0:0:0:
232,192,23282,6,0,L|176:192,1,55
304,192,23643,1,0,0:0:0:0:
448,192,23884,1,0,0:0:0:0:
368,192,24005,1,0,0:0:0:0:
120,192,24246,6,0,L|64:192,1,55
200,192,24607,2,0,L|264:192,1,55
104,192,24969,1,0,0:0:0:0:
192,192,25089,1,0,0:0:0:0:
272,192,25210,6,0,L|336:192,1,55
192,192,25571,1,0,0:0:0:0:
336,192,25812,2,0,L|400:192,1,55
296,192,26053,1,0,0:0:0:0:
128,192,26174,5,0,0:0:0:0:
272,192,26415,1,0,0:0:0:0:
128,192,26656,1,0,0:0:0:0:
72,192,26776,1,0,0:0:0:0:
72,192,26896,1,0,0:0:0:0:
128,192,27017,1,0,0:0:0:0:
296,192,27137,6,0,L|360:192,1,55
208,192,27499,1,0,0:0:0:0:
56,192,27740,1,0,0:0:0:0:
136,192,27861,1,0,0:0:0:0:
384,192,28101,6,0,L|312:192,1,55
184,192,28463,2,0,L|248:192,1,55
384,192,28824,1,0,0:0:0:0:
296,192,28945,1,0,0:0:0:0:
128,192,29065,6,0,L|72:192,1,55
216,192,29427,1,0,0:0:0:0:
88,192,29668,2,0,L|160:192,1,55
392,192,30029,6,0,L|456:192,1,55
368,192,30270,2,0,L|304:192,1,55
480,192,30511,2,0,P|496:152|472:88,1,110
