osu file format v14

[General]
AudioFilename: audio.mp3
AudioLeadIn: 0
PreviewTime: 7830
Countdown: 0
SampleSet: Normal
StackLeniency: 0.7
Mode: 3
LetterboxInBreaks: 0
SpecialStyle: 0
WidescreenStoryboard: 0

[Editor]
DistanceSpacing: 0.5
BeatDivisor: 4
GridSize: 4
TimelineZoom: 2.699999

[Metadata]
Title:The Shortest Mashcore Ever
TitleUnicode:The Shortest Mashcore Ever
Artist:odaxelagnia
ArtistUnicode:odaxelagnia
Creator:Hydria
Version:Hard
Source:
Tags:Caramell caramelldansen mario bros Koji Kondo Imogen Heap Hide And Seek Speedcore
BeatmapID:1217395
BeatmapSetID:574811

[Difficulty]
HPDrainRate:8
CircleSize:4
OverallDifficulty:8
ApproachRate:5
SliderMultiplier:1.4
SliderTickRate:1

[Events]
//Background and Video events
0,0,"odaxelagnia_-_The_Shortest_Mashcore_Ever.jpg",0,0
//Break Periods
//Storyboard Layer 0 (Background)
//Storyboard Layer 1 (Fail)
//Storyboard Layer 2 (Pass)
//Storyboard Layer 3 (Foreground)
//Storyboard Sound Samples

[TimingPoints]
150,240.963855421687,4,1,1,40,1,0
7860,-100,4,1,1,40,0,1
15571,-100,4,1,1,40,0,0
16294,-133.333333333333,4,1,1,40,0,0
16475,-57.1428571428571,4,1,1,40,0,0
16535,-100,4,1,1,40,0,0
17499,-133.333333333333,4,1,1,40,0,0
17680,-57.1428571428571,4,1,1,40,0,0
17740,-100,4,1,1,40,0,0
17981,-133.333333333333,4,1,1,40,0,0
18162,-57.1428571428571,4,1,1,40,0,0
18222,-133.333333333333,4,1,1,40,0,0
18403,-57.1428571428571,4,1,1,40,0,0
18463,-133.333333333333,4,1,1,40,0,0
18644,-57.1428571428571,4,1,1,40,0,0
18704,-100,4,1,1,40,0,0
18945,-133.333333333333,4,1,1,40,0,0
19126,-57.1428571428571,4,1,1,40,0,0
19186,-133.333333333333,4,1,1,40,0,0
19367,-57.1428571428571,4,1,1,40,0,0
19427,-100,4,1,1,40,0,0
20150,-133.333333333333,4,1,1,40,0,0
20331,-57.1428571428571,4,1,1,40,0,0
20390,-100,4,1,1,40,0,0

[HitObjects]
320,192,150,5,2,0:0:0:0:
192,192,150,128,2,390:0:0:0:0:
64,192,390,128,0,511:0:0:0:0:
320,192,511,128,0,631:0:0:0:0:
448,192,631,128,0,1113:0:0:0:0:
192,192,1113,128,0,1354:0:0:0:0:
320,192,1595,128,0,1836:0:0:0:0:
64,192,1836,128,0,1957:0:0:0:0:
448,192,1957,128,0,2077:0:0:0:0:
64,192,2077,1,2,0:0:0:0:
320,192,2077,128,2,2198:0:0:0:0:
192,192,2198,128,0,2318:0:0:0:0:
64,192,2318,128,2,2439:0:0:0:0:
320,192,2318,1,2,0:0:0:0:
448,192,2439,1,2,0:0:0:0:
192,192,2559,1,2,0:0:0:0:
320,192,2559,128,2,3282:0:0:0:0:
192,192,2800,1,2,0:0:0:0:
192,192,3041,1,2,0:0:0:0:
192,192,3282,128,0,3523:0:0:0:0:
448,192,3523,1,8,0:0:0:0:
320,192,3583,1,8,0:0:0:0:
192,192,3643,1,8,0:0:0:0:
64,192,3704,1,8,0:0:0:0:
448,192,3764,1,8,0:0:0:0:
320,192,3824,1,8,0:0:0:0:
192,192,3884,1,8,0:0:0:0:
64,192,3945,1,8,0:0:0:0:
320,192,4005,1,2,0:0:0:0:
448,192,4005,1,2,0:0:0:0:
192,192,4125,1,8,0:0:0:0:
192,192,4246,1,8,0:0:0:0:
64,192,4366,1,8,0:0:0:0:
320,192,4487,1,8,0:0:0:0:
64,192,4607,1,8,0:0:0:0:
192,192,4728,1,10,0:0:0:0:
448,192,4728,1,2,0:0:0:0:
192,192,4848,1,10,0:0:0:0:
448,192,4848,1,2,0:0:0:0:
320,192,4969,1,2,0:0:0:0:
64,192,4969,1,10,0:0:0:0:
320,192,5089,1,2,0:0:0:0:
64,192,5089,1,10,0:0:0:0:
192,192,5210,1,2,0:0:0:0:
448,192,5210,1,2,0:0:0:0:
320,192,5330,1,8,0:0:0:0:
448,192,5451,1,10,0:0:0:0:
64,192,5451,1,2,0:0:0:0:
64,192,5692,1,2,0:0:0:0:
448,192,5692,1,2,0:0:0:0:
64,192,5933,1,2,0:0:0:0:
192,192,5933,1,10,0:0:0:0:
448,192,6053,1,8,0:0:0:0:
192,192,6174,1,10,0:0:0:0:
64,192,6174,1,2,0:0:0:0:
448,192,6294,1,8,0:0:0:0:
320,192,6415,1,2,0:0:0:0:
64,192,6415,1,2,0:0:0:0:
320,192,6535,1,2,0:0:0:0:
64,192,6535,1,2,0:0:0:0:
320,192,6656,1,2,0:0:0:0:
64,192,6656,1,2,0:0:0:0:
448,192,6776,1,8,0:0:0:0:
64,192,6896,1,8,0:0:0:0:
192,192,6957,1,8,0:0:0:0:
320,192,7017,1,8,0:0:0:0:
448,192,7077,1,8,0:0:0:0:
64,192,7137,1,2,0:0:0:0:
192,192,7137,1,2,0:0:0:0:
192,192,7258,1,2,0:0:0:0:
64,192,7258,1,2,0:0:0:0:
448,192,7378,1,8,0:0:0:0:
320,192,7378,1,8,0:0:0:0:
320,192,7499,1,8,0:0:0:0:
448,192,7499,1,8,0:0:0:0:
192,192,7619,1,2,0:0:0:0:
320,192,7619,1,2,0:0:0:0:
64,192,7740,1,8,0:0:0:0:
192,192,7740,1,8,0:0:0:0:
64,192,7860,1,6,0:0:0:0:
448,192,7860,1,6,0:0:0:0:
320,192,7981,1,2,0:0:0:0:
192,192,8101,1,8,0:0:0:0:
320,192,8101,1,10,0:0:0:0:
448,192,8222,1,0,0:0:0:0:
320,192,8282,1,0,0:0:0:0:
192,192,8342,1,2,0:0:0:0:
64,192,8342,1,0,0:0:0:0:
448,192,8463,1,8,0:0:0:0:
64,192,8583,1,0,0:0:0:0:
320,192,8583,1,2,0:0:0:0:
448,192,8704,1,0,0:0:0:0:
192,192,8704,1,8,0:0:0:0:
192,192,8824,1,2,0:0:0:0:
320,192,8824,1,0,0:0:0:0:
448,192,8945,1,8,0:0:0:0:
320,192,9065,1,0,0:0:0:0:
192,192,9065,1,2,0:0:0:0:
448,192,9186,1,8,0:0:0:0:
320,192,9306,1,0,0:0:0:0:
192,192,9306,1,2,0:0:0:0:
448,192,9427,1,8,0:0:0:0:
192,192,9547,1,4,0:0:0:0:
64,192,9547,1,2,0:0:0:0:
64,192,9668,1,8,0:0:0:0:
320,192,9788,1,6,0:0:0:0:
448,192,9788,1,6,0:0:0:0:
64,192,9909,1,2,0:0:0:0:
320,192,10029,1,10,0:0:0:0:
448,192,10029,1,8,0:0:0:0:
64,192,10150,1,0,0:0:0:0:
320,192,10210,1,0,0:0:0:0:
192,192,10270,1,2,0:0:0:0:
448,192,10270,1,0,0:0:0:0:
320,192,10390,1,8,0:0:0:0:
64,192,10511,1,0,0:0:0:0:
192,192,10511,1,2,0:0:0:0:
64,192,10631,1,0,0:0:0:0:
448,192,10631,1,8,0:0:0:0:
320,192,10752,1,0,0:0:0:0:
192,192,10752,1,2,0:0:0:0:
448,192,10872,1,8,0:0:0:0:
192,192,10993,1,2,0:0:0:0:
64,192,10993,1,0,0:0:0:0:
320,192,11113,1,8,0:0:0:0:
448,192,11234,1,2,0:0:0:0:
64,192,11234,1,2,0:0:0:0:
320,192,11354,1,8,0:0:0:0:
64,192,11475,1,2,0:0:0:0:
192,192,11475,1,2,0:0:0:0:
192,192,11595,1,8,0:0:0:0:
64,192,11716,1,6,0:0:0:0:
448,192,11716,1,6,0:0:0:0:
320,192,11836,1,2,0:0:0:0:
192,192,11957,1,10,0:0:0:0:
448,192,11957,1,8,0:0:0:0:
64,192,12077,1,0,0:0:0:0:
192,192,12137,1,0,0:0:0:0:
320,192,12198,1,2,0:0:0:0:
448,192,12198,1,0,0:0:0:0:
320,192,12318,1,8,0:0:0:0:
192,192,12439,1,2,0:0:0:0:
64,192,12439,1,0,0:0:0:0:
320,192,12559,1,0,0:0:0:0:
64,192,12559,1,8,0:0:0:0:
448,192,12680,1,0,0:0:0:0:
192,192,12680,1,2,0:0:0:0:
64,192,12800,1,8,0:0:0:0:
448,192,12921,1,2,0:0:0:0:
192,192,12921,1,0,0:0:0:0:
64,192,13041,1,8,0:0:0:0:
448,192,13162,1,0,0:0:0:0:
192,192,13162,1,2,0:0:0:0:
64,192,13282,1,8,0:0:0:0:
320,192,13403,1,2,0:0:0:0:
448,192,13403,1,0,0:0:0:0:
448,192,13523,1,8,0:0:0:0:
192,192,13643,1,6,0:0:0:0:
320,192,13643,1,6,0:0:0:0:
192,192,13764,1,2,0:0:0:0:
448,192,13884,1,10,0:0:0:0:
64,192,13884,1,8,0:0:0:0:
320,192,14005,1,0,0:0:0:0:
192,192,14065,1,0,0:0:0:0:
320,192,14125,1,2,0:0:0:0:
448,192,14125,1,0,0:0:0:0:
192,192,14246,1,8,0:0:0:0:
320,192,14366,1,2,0:0:0:0:
64,192,14366,1,0,0:0:0:0:
64,192,14487,1,0,0:0:0:0:
448,192,14487,1,8,0:0:0:0:
192,192,14607,1,2,0:0:0:0:
320,192,14607,1,2,0:0:0:0:
320,192,14728,1,8,0:0:0:0:
192,192,14788,1,8,0:0:0:0:
64,192,14848,1,2,0:0:0:0:
192,192,14969,1,8,0:0:0:0:
320,192,15029,1,8,0:0:0:0:
448,192,15089,1,2,0:0:0:0:
192,192,15210,1,8,0:0:0:0:
320,192,15270,1,8,0:0:0:0:
64,192,15330,1,8,0:0:0:0:
448,192,15390,1,8,0:0:0:0:
320,192,15451,1,8,0:0:0:0:
192,192,15511,1,8,0:0:0:0:
448,192,15571,1,6,0:0:0:0:
64,192,15571,1,2,0:0:0:0:
320,192,15692,1,2,0:0:0:0:
320,192,15812,1,8,0:0:0:0:
192,192,15933,1,2,0:0:0:0:
64,192,15933,1,2,0:0:0:0:
320,192,16053,1,8,0:0:0:0:
448,192,16174,1,8,0:0:0:0:
192,192,16174,1,8,0:0:0:0:
64,192,16535,1,2,0:0:0:0:
192,192,16535,1,2,0:0:0:0:
320,192,16656,1,2,0:0:0:0:
320,192,16776,1,10,0:0:0:0:
64,192,16896,1,2,0:0:0:0:
448,192,16896,1,2,0:0:0:0:
192,192,17017,1,8,0:0:0:0:
320,192,17137,1,8,0:0:0:0:
448,192,17137,1,8,0:0:0:0:
64,192,17499,1,2,0:0:0:0:
320,192,17499,1,2,0:0:0:0:
320,192,17740,1,2,0:0:0:0:
448,192,17740,1,2,0:0:0:0:
320,192,17860,1,2,0:0:0:0:
64,192,17981,1,8,0:0:0:0:
192,192,17981,1,10,0:0:0:0:
192,192,18222,1,8,0:0:0:0:
320,192,18222,1,8,0:0:0:0:
320,192,18463,1,2,0:0:0:0:
448,192,18463,1,2,0:0:0:0:
64,192,18704,1,2,0:0:0:0:
192,192,18704,1,2,0:0:0:0:
64,192,18824,1,2,0:0:0:0:
320,192,18945,1,10,0:0:0:0:
448,192,18945,1,8,0:0:0:0:
64,192,19186,1,8,0:0:0:0:
320,192,19186,1,8,0:0:0:0:
64,192,19427,1,6,0:0:0:0:
448,192,19427,1,6,0:0:0:0:
192,192,19547,1,2,0:0:0:0:
192,192,19668,1,8,0:0:0:0:
320,192,19788,1,2,0:0:0:0:
448,192,19788,1,2,0:0:0:0:
192,192,19909,1,8,0:0:0:0:
320,192,20029,1,8,0:0:0:0:
64,192,20029,1,8,0:0:0:0:
448,192,20390,1,2,0:0:0:0:
320,192,20390,1,2,0:0:0:0:
192,192,20511,1,2,0:0:0:0:
192,192,20631,1,8,0:0:0:0:
448,192,20752,1,2,0:0:0:0:
64,192,20752,1,2,0:0:0:0:
320,192,20872,1,8,0:0:0:0:
192,192,20993,1,8,0:0:0:0:
64,192,20993,1,8,0:0:0:0:
320,192,21113,1,8,0:0:0:0:
64,192,21234,1,8,0:0:0:0:
192,192,21354,1,2,0:0:0:0:
448,192,21354,1,2,0:0:0:0:
320,192,21475,1,8,0:0:0:0:
320,192,21595,1,8,0:0:0:0:
64,192,21716,1,2,0:0:0:0:
448,192,21716,1,2,0:0:0:0:
192,192,21836,1,8,0:0:0:0:
192,192,21957,1,8,0:0:0:0:
448,192,22077,1,8,0:0:0:0:
448,192,22198,1,8,0:0:0:0:
192,192,22318,1,2,0:0:0:0:
320,192,22318,1,2,0:0:0:0:
192,192,22439,1,2,0:0:0:0:
448,192,22559,1,8,0:0:0:0:
192,192,22680,1,2,0:0:0:0:
320,192,22680,1,2,0:0:0:0:
192,192,22800,1,2,0:0:0:0:
448,192,22921,1,8,0:0:0:0:
448,192,23041,1,8,0:0:0:0:
64,192,23162,1,8,0:0:0:0:
320,192,23282,1,2,0:0:0:0:
192,192,23282,1,2,0:0:0:0:
320,192,23403,1,8,0:0:0:0:
192,192,23523,1,2,0:0:0:0:
320,192,23643,1,8,0:0:0:0:
64,192,23764,1,2,0:0:0:0:
192,192,23884,1,8,0:0:0:0:
320,192,24005,1,2,0:0:0:0:
448,192,24005,1,2,0:0:0:0:
192,192,24125,1,8,0:0:0:0:
64,192,24246,1,2,0:0:0:0:
448,192,24246,1,2,0:0:0:0:
320,192,24366,1,8,0:0:0:0:
64,192,24487,1,2,0:0:0:0:
320,192,24607,1,8,0:0:0:0:
192,192,24728,1,2,0:0:0:0:
64,192,24728,1,2,0:0:0:0:
320,192,24848,1,8,0:0:0:0:
64,192,24969,1,10,0:0:0:0:
64,192,25089,1,10,0:0:0:0:
320,192,25210,1,2,0:0:0:0:
448,192,25210,1,2,0:0:0:0:
320,192,25330,1,8,0:0:0:0:
192,192,25451,1,2,0:0:0:0:
320,192,25571,1,8,0:0:0:0:
448,192,25692,1,2,0:0:0:0:
64,192,25812,1,8,0:0:0:0:
192,192,25933,1,2,0:0:0:0:
320,192,25933,1,2,0:0:0:0:
448,192,26053,1,8,0:0:0:0:
64,192,26174,1,2,0:0:0:0:
192,192,26174,1,2,0:0:0:0:
320,192,26294,1,8,0:0:0:0:
64,192,26415,1,2,0:0:0:0:
192,192,26415,1,2,0:0:0:0:
320,192,26535,1,8,0:0:0:0:
192,192,26656,1,8,0:0:0:0:
192,192,26776,1,8,0:0:0:0:
448,192,26896,1,8,0:0:0:0:
64,192,27017,1,8,0:0:0:0:
192,192,27137,1,2,0:0:0:0:
448,192,27137,1,2,0:0:0:0:
192,192,27258,1,8,0:0:0:0:
320,192,27378,1,2,0:0:0:0:
192,192,27499,1,8,0:0:0:0:
448,192,27619,1,2,0:0:0:0:
192,192,27740,1,8,0:0:0:0:
320,192,27860,1,2,0:0:0:0:
448,192,27860,1,2,0:0:0:0:
64,192,27981,1,8,0:0:0:0:
320,192,28101,1,2,0:0:0:0:
448,192,28101,1,2,0:0:0:0:
192,192,28222,1,8,0:0:0:0:
64,192,28342,1,2,0:0:0:0:
320,192,28463,1,8,0:0:0:0:
192,192,28583,1,2,0:0:0:0:
64,192,28583,1,2,0:0:0:0:
320,192,28704,1,8,0:0:0:0:
192,192,28824,1,2,0:0:0:0:
192,192,28945,1,2,0:0:0:0:
320,192,29065,1,2,0:0:0:0:
448,192,29065,1,2,0:0:0:0:
320,192,29186,1,8,0:0:0:0:
64,192,29306,1,2,0:0:0:0:
320,192,29427,1,8,0:0:0:0:
192,192,29547,1,2,0:0:0:0:
64,192,29668,1,8,0:0:0:0:
448,192,29788,1,2,0:0:0:0:
192,192,29788,1,2,0:0:0:0:
64,192,29909,1,8,0:0:0:0:
320,192,30029,1,2,0:0:0:0:
448,192,30029,1,2,0:0:0:0:
64,192,30150,1,8,0:0:0:0:
192,192,30210,1,8,0:0:0:0:
320,192,30270,1,2,0:0:0:0:
448,192,30270,1,2,0:0:0:0:
64,192,30390,1,8,0:0:0:0:
192,192,30451,1,8,0:0:0:0:
320,192,30511,128,10,30752:0:0:0:0:
192,192,30752,1,8,0:0:0:0:
