osu file format v14

[General]
AudioFilename: audio.mp3
AudioLeadIn: 0
PreviewTime: 7830
Countdown: 0
SampleSet: Normal
StackLeniency: 0.7
Mode: 3
LetterboxInBreaks: 0
SpecialStyle: 0
WidescreenStoryboard: 0

[Editor]
DistanceSpacing: 0.5
BeatDivisor: 4
GridSize: 4
TimelineZoom: 1.5

[Metadata]
Title:The Shortest Mashcore Ever
TitleUnicode:The Shortest Mashcore Ever
Artist:odaxelagnia
ArtistUnicode:odaxelagnia
Creator:Hydria
Version:Normal
Source:
Tags:Caramell caramelldansen mario bros Koji Kondo Imogen Heap Hide And Seek Speedcore
BeatmapID:1217397
BeatmapSetID:574811

[Difficulty]
HPDrainRate:7
CircleSize:4
OverallDifficulty:7
ApproachRate:5
SliderMultiplier:1.4
SliderTickRate:1

[Events]
//Background and Video events
0,0,"odaxelagnia_-_The_Shortest_Mashcore_Ever.jpg",0,0
//Break Periods
//Storyboard Layer 0 (Background)
//Storyboard Layer 1 (Fail)
//Storyboard Layer 2 (Pass)
//Storyboard Layer 3 (Foreground)
//Storyboard Sound Samples

[TimingPoints]
150,240.963855421687,4,1,1,40,1,0
7860,-100,4,1,1,40,0,1
15571,-100,4,1,1,40,0,0

[HitObjects]
192,192,150,128,2,390:0:0:0:0:
64,192,390,128,0,631:0:0:0:0:
448,192,631,128,0,1113:0:0:0:0:
192,192,1113,128,0,1354:0:0:0:0:
320,192,1595,128,0,1836:0:0:0:0:
64,192,1836,128,0,2077:0:0:0:0:
448,192,2077,128,2,2318:0:0:0:0:
192,192,2318,128,2,2559:0:0:0:0:
320,192,2559,128,2,3282:0:0:0:0:
64,192,2800,1,2,0:0:0:0:
64,192,3041,1,2,0:0:0:0:
192,192,3282,128,0,3523:0:0:0:0:
448,192,3523,1,8,0:0:0:0:
320,192,3643,1,8,0:0:0:0:
192,192,3764,1,8,0:0:0:0:
64,192,3884,1,8,0:0:0:0:
448,192,4005,1,2,0:0:0:0:
192,192,4246,1,8,0:0:0:0:
320,192,4487,1,8,0:0:0:0:
64,192,4728,1,10,0:0:0:0:
192,192,4848,1,10,0:0:0:0:
448,192,4969,1,10,0:0:0:0:
320,192,5089,1,10,0:0:0:0:
192,192,5210,1,2,0:0:0:0:
448,192,5451,1,2,0:0:0:0:
448,192,5692,1,2,0:0:0:0:
64,192,5933,1,10,0:0:0:0:
320,192,6174,1,10,0:0:0:0:
64,192,6415,1,2,0:0:0:0:
192,192,6535,1,2,0:0:0:0:
320,192,6656,1,2,0:0:0:0:
64,192,6896,128,8,7137:0:0:0:0:
448,192,7137,1,2,0:0:0:0:
320,192,7378,1,8,0:0:0:0:
64,192,7619,1,2,0:0:0:0:
192,192,7860,1,6,0:0:0:0:
320,192,8101,1,10,0:0:0:0:
192,192,8342,1,2,0:0:0:0:
448,192,8463,1,8,0:0:0:0:
64,192,8583,1,2,0:0:0:0:
192,192,8704,1,8,0:0:0:0:
320,192,8945,1,8,0:0:0:0:
320,192,9186,1,8,0:0:0:0:
320,192,9427,1,8,0:0:0:0:
192,192,9547,1,6,0:0:0:0:
64,192,9788,1,6,0:0:0:0:
64,192,10029,1,10,0:0:0:0:
192,192,10270,1,2,0:0:0:0:
448,192,10390,1,8,0:0:0:0:
64,192,10511,1,2,0:0:0:0:
320,192,10631,1,8,0:0:0:0:
192,192,10872,1,8,0:0:0:0:
64,192,10993,1,2,0:0:0:0:
448,192,11234,1,2,0:0:0:0:
320,192,11475,1,2,0:0:0:0:
448,192,11595,1,8,0:0:0:0:
64,192,11716,1,6,0:0:0:0:
320,192,11957,1,10,0:0:0:0:
192,192,12198,1,2,0:0:0:0:
448,192,12318,1,8,0:0:0:0:
64,192,12439,1,2,0:0:0:0:
192,192,12559,1,8,0:0:0:0:
320,192,12800,1,8,0:0:0:0:
320,192,13041,1,8,0:0:0:0:
320,192,13282,1,8,0:0:0:0:
192,192,13403,1,2,0:0:0:0:
64,192,13643,1,6,0:0:0:0:
64,192,13884,1,10,0:0:0:0:
192,192,14125,1,2,0:0:0:0:
448,192,14246,1,8,0:0:0:0:
64,192,14366,1,2,0:0:0:0:
320,192,14487,1,8,0:0:0:0:
64,192,14728,1,8,0:0:0:0:
320,192,14969,1,8,0:0:0:0:
64,192,15210,1,8,0:0:0:0:
192,192,15330,1,8,0:0:0:0:
320,192,15451,1,8,0:0:0:0:
448,192,15571,1,6,0:0:0:0:
192,192,15692,1,2,0:0:0:0:
320,192,15933,1,2,0:0:0:0:
192,192,16053,1,8,0:0:0:0:
64,192,16174,1,8,0:0:0:0:
192,192,16535,1,2,0:0:0:0:
448,192,16656,1,2,0:0:0:0:
64,192,16896,1,2,0:0:0:0:
320,192,17017,1,8,0:0:0:0:
192,192,17137,1,8,0:0:0:0:
64,192,17499,1,2,0:0:0:0:
320,192,17740,1,2,0:0:0:0:
448,192,17981,1,10,0:0:0:0:
192,192,18222,1,8,0:0:0:0:
320,192,18463,1,2,0:0:0:0:
64,192,18704,1,2,0:0:0:0:
448,192,18945,1,10,0:0:0:0:
192,192,19186,1,8,0:0:0:0:
448,192,19427,1,6,0:0:0:0:
64,192,19547,1,2,0:0:0:0:
320,192,19788,1,2,0:0:0:0:
192,192,19909,1,8,0:0:0:0:
64,192,20029,1,8,0:0:0:0:
192,192,20390,1,2,0:0:0:0:
448,192,20511,1,2,0:0:0:0:
64,192,20752,1,2,0:0:0:0:
192,192,20872,1,8,0:0:0:0:
320,192,20993,1,8,0:0:0:0:
64,192,21354,1,2,0:0:0:0:
320,192,21595,1,8,0:0:0:0:
64,192,21716,1,2,0:0:0:0:
320,192,21957,1,8,0:0:0:0:
192,192,22077,1,8,0:0:0:0:
64,192,22198,1,8,0:0:0:0:
448,192,22318,1,2,0:0:0:0:
64,192,22559,1,8,0:0:0:0:
320,192,22680,1,2,0:0:0:0:
64,192,22921,1,8,0:0:0:0:
192,192,23041,1,8,0:0:0:0:
448,192,23162,1,8,0:0:0:0:
320,192,23282,1,2,0:0:0:0:
192,192,23403,1,8,0:0:0:0:
192,192,23643,1,8,0:0:0:0:
192,192,23884,1,8,0:0:0:0:
320,192,24005,1,2,0:0:0:0:
448,192,24246,1,2,0:0:0:0:
192,192,24366,1,8,0:0:0:0:
320,192,24607,1,8,0:0:0:0:
64,192,24728,1,2,0:0:0:0:
192,192,25210,1,2,0:0:0:0:
320,192,25330,1,8,0:0:0:0:
320,192,25571,1,8,0:0:0:0:
320,192,25812,1,8,0:0:0:0:
192,192,25933,1,2,0:0:0:0:
448,192,26053,1,8,0:0:0:0:
64,192,26174,1,2,0:0:0:0:
64,192,26415,1,2,0:0:0:0:
320,192,26656,1,8,0:0:0:0:
192,192,26896,1,8,0:0:0:0:
320,192,27137,1,2,0:0:0:0:
192,192,27258,1,8,0:0:0:0:
192,192,27499,1,8,0:0:0:0:
192,192,27740,1,8,0:0:0:0:
320,192,27860,1,2,0:0:0:0:
448,192,28101,1,2,0:0:0:0:
192,192,28222,1,8,0:0:0:0:
320,192,28463,1,8,0:0:0:0:
64,192,28583,1,2,0:0:0:0:
64,192,29065,1,2,0:0:0:0:
192,192,29186,1,8,0:0:0:0:
192,192,29427,1,8,0:0:0:0:
192,192,29668,1,8,0:0:0:0:
320,192,29788,1,2,0:0:0:0:
448,192,30029,1,2,0:0:0:0:
192,192,30150,1,8,0:0:0:0:
192,192,30390,1,8,0:0:0:0:
320,192,30511,128,10,30752:0:0:0:0:
192,192,30752,1,8,0:0:0:0:
