osu file format v14

[General]
AudioFilename: audio.mp3
AudioLeadIn: 0
PreviewTime: 150
Countdown: 1
SampleSet: None
StackLeniency: 0.7
Mode: 0
LetterboxInBreaks: 0
WidescreenStoryboard: 0

[Editor]
DistanceSpacing: 1.2
BeatDivisor: 8
GridSize: 16
TimelineZoom: 2.699999

[Metadata]
Title:The Shortest Mashcore Ever
TitleUnicode:The Shortest Mashcore Ever
Artist:odaxelagnia
ArtistUnicode:odaxelagnia
Creator:Hakura
Version:The most retarded map ever
Source:
Tags:breakcore dancecorps dance corps skrd Jason Derulo Whatcha Say Caramell Dansen CaramellDansen Super Mario Bros
BeatmapID:1640045
BeatmapSetID:780782

[Difficulty]
HPDrainRate:6
CircleSize:4
OverallDifficulty:9.7
ApproachRate:10
SliderMultiplier:2.3
SliderTickRate:1

[Events]
//Background and Video events
0,0,"can I use it thanks.jpg",0,0
//Break Periods
//Storyboard Layer 0 (Background)
//Storyboard Layer 1 (Fail)
//Storyboard Layer 2 (Pass)
//Storyboard Layer 3 (Foreground)
//Storyboard Sound Samples

[TimingPoints]
150,240.963855421687,4,2,0,70,1,0
150,-200,4,2,0,70,0,0
2077,-100,4,2,0,70,0,0
7860,-100,4,2,0,70,0,1
7981,-100,4,2,0,70,0,0
15210,-100,4,2,0,70,0,1
15571,-100,4,2,0,70,0,0
21354,-100,4,2,0,70,0,1
23162,-100,4,2,0,70,0,0
23282,-66.6666666666667,4,2,0,70,0,1
23403,-66.6666666666667,4,2,0,70,0,0
24969,-66.6666666666667,4,2,0,70,0,1
25451,-66.6666666666667,4,2,0,70,0,0
26174,-50,4,2,0,70,0,1
27137,-66.6666666666667,4,2,0,70,0,0

[Colours]
Combo1 : 6,134,210
Combo2 : 0,202,202
Combo3 : 187,0,0
Combo4 : 0,202,51
Combo5 : 225,225,0

[HitObjects]
91,40,149,5,0,0:0:0:0:
76,168,390,1,0,0:0:0:0:
195,117,631,2,0,B|257:85|303:117|303:117|350:148|412:117,1,230
122,370,1595,5,0,0:0:0:0:
164,213,1836,1,0,0:0:0:0:
64,270,1957,1,0,0:0:0:0:
221,312,2077,6,0,L|356:343,1,115
64,154,2318,1,0,0:0:0:0:
7,370,2439,1,0,0:0:0:0:
163,212,2559,2,0,P|173:156|159:101,1,115
2,258,2800,2,0,P|-8:314|6:369,1,115
221,312,3041,6,0,B|294:305|294:305|351:356|351:356|460:346,1,230
509,339,3403,1,0,0:0:0:0:
456,153,3523,2,0,L|460:125,14,28.75
437,186,4005,5,0,0:0:0:0:
296,63,4125,1,0,0:0:0:0:
260,247,4246,1,0,0:0:0:0:
438,167,4366,5,0,0:0:0:0:
278,70,4486,1,0,0:0:0:0:
275,258,4607,1,0,0:0:0:0:
410,33,4728,5,0,0:0:0:0:
384,290,4848,1,0,0:0:0:0:
92,186,4969,5,0,0:0:0:0:
349,212,5089,1,0,0:0:0:0:
181,35,5210,5,0,0:0:0:0:
310,336,5330,1,0,0:0:0:0:
9,239,5451,2,0,P|0:182|14:127,1,115
167,128,5692,2,0,P|181:183|171:239,1,115
92,340,5933,5,0,0:0:0:0:
256,128,6053,1,0,0:0:0:0:
420,340,6174,5,0,0:0:0:0:
256,110,6294,1,0,0:0:0:0:
255,346,6415,5,0,0:0:0:0:
255,36,6535,1,0,0:0:0:0:
100,191,6656,5,0,0:0:0:0:
410,191,6776,1,0,0:0:0:0:
102,41,6896,6,0,L|106:13,6,28.75
127,76,7137,1,0,0:0:0:0:
127,76,7198,1,0,0:0:0:0:
127,76,7258,1,0,0:0:0:0:
140,321,7378,5,0,0:0:0:0:
385,308,7499,1,0,0:0:0:0:
248,8,7619,5,0,0:0:0:0:
262,314,7740,1,0,0:0:0:0:
361,49,7860,6,0,L|349:172,1,115
480,19,8101,1,0,0:0:0:0:
418,230,8222,1,0,0:0:0:0:
381,252,8282,1,0,0:0:0:0:
339,257,8342,1,0,0:0:0:0:
298,243,8402,1,0,0:0:0:0:
268,213,8462,1,0,0:0:0:0:
441,136,8583,1,0,0:0:0:0:
398,343,8704,1,0,0:0:0:0:
175,214,8824,6,0,P|119:204|64:218,1,115
349,163,9065,2,0,P|359:107|345:52,1,115
306,339,9306,1,0,0:0:0:0:
251,110,9427,1,0,0:0:0:0:
121,273,9547,2,0,P|106:328|116:384,1,115
141,70,9788,6,0,L|153:193,1,115
22,40,10029,1,0,0:0:0:0:
84,251,10150,1,0,0:0:0:0:
121,273,10210,1,0,0:0:0:0:
163,278,10270,1,0,0:0:0:0:
204,264,10330,1,0,0:0:0:0:
234,234,10390,1,0,0:0:0:0:
61,157,10511,1,0,0:0:0:0:
116,384,10632,1,0,0:0:0:0:
288,102,10752,5,0,0:0:0:0:
343,329,10872,1,0,0:0:0:0:
429,185,10993,2,0,L|440:65,1,115
267,120,11234,5,0,0:0:0:0:
322,347,11354,1,0,0:0:0:0:
459,168,11475,2,0,L|470:48,1,115
208,256,11716,6,0,L|85:268,1,115
322,347,11957,1,0,0:0:0:0:
27,199,12078,1,0,0:0:0:0:
5,236,12138,1,0,0:0:0:0:
1,278,12198,1,0,0:0:0:0:
14,319,12258,1,0,0:0:0:0:
44,349,12318,1,0,0:0:0:0:
119,176,12439,1,0,0:0:0:0:
232,384,12559,1,0,0:0:0:0:
347,163,12680,6,0,P|403:153|458:167,1,115
119,176,12921,2,0,P|63:186|8:172,1,115
190,37,13162,1,0,0:0:0:0:
256,310,13282,1,0,0:0:0:0:
119,176,13403,2,0,P|63:166|8:180,1,115
304,128,13643,6,0,L|427:116,1,115
190,37,13884,1,0,0:0:0:0:
485,185,14005,1,0,0:0:0:0:
507,148,14065,1,0,0:0:0:0:
511,106,14125,1,0,0:0:0:0:
498,65,14185,1,0,0:0:0:0:
468,35,14245,1,0,0:0:0:0:
393,208,14366,1,0,0:0:0:0:
280,0,14486,1,0,0:0:0:0:
176,345,14607,5,0,0:0:0:0:
85,233,14728,2,0,L|36:244,6,28.75
161,271,14969,2,0,L|210:260,6,28.75
28,166,15210,6,0,L|4:127,1,28.75
75,101,15271,2,0,L|67:57,1,28.75
146,61,15331,2,0,L|151:23,1,28.75
224,54,15391,2,0,L|237:10,1,28.75
302,80,15451,2,0,L|317:42,1,28.75
361,133,15512,2,0,L|394:111,1,28.75
393,208,15571,5,0,0:0:0:0:
211,187,15692,1,0,0:0:0:0:
284,356,15812,1,0,0:0:0:0:
393,208,15933,5,0,0:0:0:0:
211,187,16054,1,0,0:0:0:0:
284,356,16174,1,0,0:0:0:0:
16,64,16535,5,0,0:0:0:0:
97,188,16656,1,0,0:0:0:0:
63,333,16776,1,0,0:0:0:0:
16,64,16896,5,0,0:0:0:0:
97,188,17017,1,0,0:0:0:0:
63,333,17137,1,0,0:0:0:0:
304,16,17499,5,0,0:0:0:0:
301,376,17740,1,0,0:0:0:0:
425,194,17860,1,0,0:0:0:0:
304,16,17981,1,0,0:0:0:0:
301,376,18222,1,0,0:0:0:0:
208,16,18463,5,0,0:0:0:0:
211,376,18704,1,0,0:0:0:0:
87,194,18824,1,0,0:0:0:0:
208,16,18945,1,0,0:0:0:0:
211,376,19186,1,0,0:0:0:0:
320,116,19427,5,0,0:0:0:0:
494,174,19547,1,0,0:0:0:0:
436,348,19668,1,0,0:0:0:0:
320,116,19788,5,0,0:0:0:0:
494,174,19908,1,0,0:0:0:0:
436,348,20029,1,0,0:0:0:0:
49,172,20390,5,0,0:0:0:0:
89,321,20511,1,0,0:0:0:0:
153,53,20631,1,0,0:0:0:0:
49,172,20752,5,0,0:0:0:0:
89,321,20873,1,0,0:0:0:0:
153,53,20993,1,0,0:0:0:0:
344,242,21354,5,0,0:0:0:0:
168,142,21475,1,0,0:0:0:0:
344,242,21595,1,0,0:0:0:0:
168,242,21716,5,0,0:0:0:0:
344,142,21837,1,0,0:0:0:0:
168,242,21957,1,0,0:0:0:0:
431,192,22077,5,0,0:0:0:0:
81,192,22198,1,0,0:0:0:0:
430,292,22318,5,0,0:0:0:0:
82,92,22439,1,0,0:0:0:0:
430,292,22559,1,0,0:0:0:0:
430,92,22680,5,0,0:0:0:0:
82,292,22801,1,0,0:0:0:0:
430,92,22921,1,0,0:0:0:0:
0,192,23041,5,0,0:0:0:0:
512,192,23162,1,0,0:0:0:0:
149,344,23282,6,0,P|281:260|256:192,1,258.75000987053
362,39,23523,2,0,P|230:123|256:192,1,258.75000987053
408,299,23764,6,0,P|324:167|256:192,1,258.75000987053
103,86,24005,2,0,P|187:218|256:192,1,258.75000987053
304,375,24246,6,0,B|194:305|194:305|255:192,1,258.75000987053
390,58,24487,2,0,B|384:188|384:188|256:192,1,258.75000987053
73,142,24728,2,0,B|188:81|188:81|255:190,1,258.75000987053
7,248,24969,5,0,0:0:0:0:
505,136,25089,1,0,0:0:0:0:
176,21,25210,5,0,0:0:0:0:
332,357,25330,1,0,0:0:0:0:
361,37,25451,6,0,P|229:121|254:189,1,258.75000987053
332,357,25692,2,0,P|325:201|254:189,1,258.75000987053
68,172,25933,2,0,P|207:244|254:189,1,258.75000987053
166,38,26174,6,0,B|214:131|166:200|166:200|119:271|166:364,1,345
346,364,26415,2,0,B|392:271|346:200|346:200|297:131|346:38,1,345
80,367,26656,5,0,0:0:0:0:
432,17,26776,1,0,0:0:0:0:
432,367,26896,5,0,0:0:0:0:
80,17,27016,1,0,0:0:0:0:
408,299,27137,6,0,P|324:167|256:192,1,258.75000987053
103,86,27378,2,0,P|187:218|256:192,1,258.75000987053
363,40,27619,6,0,P|231:124|256:192,1,258.75000987053
150,345,27860,2,0,P|282:261|256:192,1,258.75000987053
439,144,28101,6,0,B|369:254|369:254|256:193,1,258.75000987053
122,58,28342,2,0,B|252:64|252:64|256:192,1,258.75000987053
206,375,28583,2,0,B|145:260|145:260|254:193,1,258.75000987053
473,239,28824,5,0,0:0:0:0:
69,157,28945,1,0,0:0:0:0:
361,40,29065,6,0,P|229:124|254:192,1,258.75000987053
332,360,29306,2,0,P|325:204|254:192,1,258.75000987053
68,175,29547,2,0,P|207:247|254:192,1,258.75000987053
53,300,29788,5,0,0:0:0:0:
257,12,29909,1,0,0:0:0:0:
332,360,30029,5,0,0:0:0:0:
447,82,30150,2,0,L|498:87,1,43.1250016450883
457,156,30210,2,0,L|508:161,1,43.1250016450883
467,230,30270,1,0,0:0:0:0:
53,300,30390,6,0,L|2:295,1,43.1250016450883
43,226,30450,2,0,L|-8:221,1,43.1250016450883
33,152,30510,1,0,0:0:0:0:
