osu file format v14

[General]
AudioFilename: audio.mp3
AudioLeadIn: 0
PreviewTime: 7850
Countdown: 1
SampleSet: None
StackLeniency: 0.4
Mode: 0
LetterboxInBreaks: 0
WidescreenStoryboard: 1

[Editor]
DistanceSpacing: 1
BeatDivisor: 4
GridSize: 8
TimelineZoom: 1.7

[Metadata]
Title:The Shortest Mashcore Ever
TitleUnicode:The Shortest Mashcore Ever
Artist:odaxelagnia
ArtistUnicode:odaxelagnia
Creator:Bacwux
Version:Hard
Source:
Tags:
BeatmapID:1364461
BeatmapSetID:643722

[Difficulty]
HPDrainRate:4
CircleSize:3
OverallDifficulty:4
ApproachRate:7
SliderMultiplier:1.2
SliderTickRate:1

[Events]
//Background and Video events
0,0,"wubwub.jpg",0,0
//Break Periods
//Storyboard Layer 0 (Background)
//Storyboard Layer 1 (Fail)
//Storyboard Layer 2 (Pass)
//Storyboard Layer 3 (Foreground)
//Storyboard Sound Samples

[TimingPoints]
140,240.963855421687,4,1,0,100,1,0
140,-133.333333333333,4,1,0,100,0,0
7850,-100,4,1,0,100,0,0
17248,-100,4,1,0,100,0,0
17489,-100,4,1,0,100,0,0
21103,-100,4,1,0,100,0,0
21344,-100,4,1,0,100,0,0

[HitObjects]
106,170,140,6,0,P|156:166|199:193,1,90.0000034332276
243,282,621,2,2,P|228:224|308:139,1,180.000006866455
408,242,1585,2,0,P|372:245|315:230,1,90.0000034332277
300,140,1947,1,0,0:0:0:0:
300,140,2067,2,0,L|315:46,1,90.0000034332277,8|0,0:0|0:0,0:0:0:0:
207,119,2429,1,0,0:0:0:0:
207,119,2549,2,8,L|222:213,1,90.0000034332277
167,316,3031,1,8,0:0:0:0:
64,232,3995,5,0,0:0:0:0:
64,232,4115,1,0,0:0:0:0:
64,232,4236,2,0,L|128:233,1,45.0000017166138,2|0,0:0|0:0,0:0:0:0:
102,140,4477,2,0,L|166:141,1,45.0000017166138
237,103,4718,1,8,0:0:0:0:
237,103,4838,1,8,0:0:0:0:
237,103,4959,6,0,P|245:138|228:200,1,90.0000034332277,8|0,0:0|0:0,0:0:0:0:
194,272,5320,1,0,0:0:0:0:
282,265,5441,2,2,P|310:259|378:281,1,90.0000034332277
477,342,5923,5,0,0:0:0:0:
477,342,6043,1,0,0:0:0:0:
477,342,6164,2,0,P|443:343|414:339,1,45.0000017166138,2|0,0:0|0:0,0:0:0:0:
368,274,6405,1,8,0:0:0:0:
338,192,6525,1,8,0:0:0:0:
374,112,6646,2,0,L|430:117,1,45.0000017166138,8|0,0:0|0:0,0:0:0:0:
338,192,6886,6,2,L|253:194,1,67.5000025749207
254,209,7127,2,0,L|202:206,1,45.0000017166138
171,127,7368,1,8,0:0:0:0:
171,127,7489,1,8,0:0:0:0:
171,127,7609,2,0,P|150:142|132:171,1,45.0000017166138
183,317,7850,6,0,P|212:263|206:198,1,120
171,127,8212,1,0,0:0:0:0:
254,77,8332,2,0,L|321:86,1,60,8|0,0:0|0:0,0:0:0:0:
443,135,8573,2,0,L|376:144,1,60
300,184,8814,5,8,0:0:0:0:
368,240,8935,2,0,L|363:310,1,60,0|8,0:0|0:0,0:0:0:0:
283,267,9176,2,0,L|278:337,1,60,0|8,0:0|0:0,0:0:0:0:
198,294,9417,1,0,0:0:0:0:
198,294,9537,2,0,P|178:261|183:194,1,90,8|0,0:0|0:0,0:0:0:0:
188,199,9778,6,0,L|114:193,1,60,2|0,0:0|0:0,0:0:0:0:
11,138,10019,2,0,L|85:132,1,60,0|2,0:0|0:0,0:0:0:0:
151,111,10260,1,0,0:0:0:0:
205,36,10380,2,0,P|237:80|230:158,1,120,2|0,0:0|0:0,0:0:0:0:
188,199,10742,6,8,L|331:192,1,120
365,117,11224,1,8,0:0:0:0:
352,283,11465,1,8,0:0:0:0:
188,199,11706,6,2,L|178:324,1,120
92,346,12067,1,0,0:0:0:0:
92,346,12188,2,0,L|99:280,1,60,2|0,0:0|0:0,0:0:0:0:
96,195,12429,1,0,0:0:0:0:
96,195,12549,1,0,0:0:0:0:
96,195,12670,6,8,P|106:149|180:103,1,120
253,109,13152,2,8,P|243:155|169:201,1,120
210,37,13633,6,0,P|283:30|327:69,1,120,2|0,0:0|0:0,0:0:0:0:
335,141,13995,1,0,0:0:0:0:
335,141,14115,2,0,L|402:143,1,60,2|0,0:0|0:0,0:0:0:0:
483,148,14356,1,0,0:0:0:0:
431,227,14477,1,2,0:0:0:0:
379,306,14597,5,2,0:0:0:0:
379,306,14718,2,0,L|450:317,1,60,0|8,0:0|0:0,0:0:0:0:
240,336,14959,2,0,L|311:347,1,60,0|8,0:0|0:0,0:0:0:0:
297,252,15200,2,0,L|171:232,1,120
98,284,15561,6,0,L|94:204,1,60,8|0,0:0|0:0,0:0:0:0:
182,173,15802,1,0,0:0:0:0:
182,173,15923,1,8,0:0:0:0:
182,173,16043,2,2,L|177:242,1,60
118,100,16525,6,2,P|154:81|198:85,1,60
254,119,16766,1,0,0:0:0:0:
254,119,16886,1,2,0:0:0:0:
254,119,17007,2,8,P|283:114|308:98,1,60
396,46,17489,6,8,L|379:194,1,120
303,206,17971,2,8,L|320:354,1,120
401,251,18453,1,8,0:0:0:0:
207,244,18694,1,8,0:0:0:0:
214,50,18935,1,8,0:0:0:0:
408,57,19176,1,8,0:0:0:0:
401,251,19417,6,0,L|397:188,2,60,8|0|0,0:0|0:0|0:0,0:0:0:0:
322,295,19778,2,8,L|318:358,2,60,8|2|2,0:0|0:0|0:0,0:0:0:0:
206,214,20380,6,0,L|276:218,1,60,2|0,0:0|0:0,0:0:0:0:
324,134,20621,2,0,L|254:138,1,60,0|2,0:0|0:0,0:0:0:0:
206,54,20862,2,8,L|276:58,1,60
324,134,21344,5,0,0:0:0:0:
324,134,21465,2,0,L|320:217,1,60,8|0,0:0|0:0,0:0:0:0:
412,192,21706,1,8,0:0:0:0:
412,192,21827,2,0,L|408:275,1,60,8|0,0:0|0:0,0:0:0:0:
326,282,22067,2,0,L|249:275,1,60,8|0,0:0|0:0,0:0:0:0:
151,196,22308,6,2,P|202:202|221:221,2,60
182,312,22670,2,2,P|131:306|112:287,2,60
151,196,23031,2,2,L|160:131,1,60
216,63,23272,5,2,0:0:0:0:
216,63,23393,2,0,P|254:49|337:75,1,120,2|2,0:0|0:0,0:0:0:0:
404,140,23754,2,0,L|415:69,1,60,8|0,0:0|0:0,0:0:0:0:
495,116,23995,2,0,L|481:225,1,90,2|0,0:0|0:0,0:0:0:0:
462,228,24236,5,2,0:0:0:0:
462,228,24356,2,2,P|399:245|330:214,1,120
280,107,24718,2,0,L|282:176,1,60,2|0,0:0|0:0,0:0:0:0:
197,219,24959,2,8,L|199:150,1,60
120,100,25200,5,2,0:0:0:0:
120,100,25320,2,2,L|117:240,1,120
41,265,25682,1,0,0:0:0:0:
155,298,25802,2,2,P|130:316|80:324,2,60,2|2|6,0:0|0:0|0:0,0:0:0:0:
242,263,26164,6,0,P|289:259|342:287,1,90,8|0,0:0|0:0,0:0:0:0:
345,288,26405,2,0,P|392:292|445:264,1,90,8|0,0:0|0:0,0:0:0:0:
448,261,26646,1,8,0:0:0:0:
373,194,26886,1,8,0:0:0:0:
446,129,27127,5,2,0:0:0:0:
446,129,27248,2,2,P|378:94|332:102,1,120
283,227,27730,2,2,L|296:161,1,60
194,75,28091,2,2,L|207:141,1,60
139,194,28453,2,2,L|126:260,1,60
196,328,28814,1,0,0:0:0:0:
196,328,28935,1,0,0:0:0:0:
196,328,29055,5,8,0:0:0:0:
283,347,29176,2,0,P|333:345|358:327,1,60,8|0,0:0|0:0,0:0:0:0:
331,242,29417,2,0,P|281:244|256:262,1,60,8|0,0:0|0:0,0:0:0:0:
196,328,29658,1,8,0:0:0:0:
196,328,29778,2,8,P|154:326|102:261,1,120
185,182,30140,2,0,L|191:268,1,60,0|4,0:0|0:0,0:0:0:0:
260,101,30380,2,0,L|266:187,1,60,0|4,0:0|0:0,0:0:0:0:
