osu file format v14

[General]
AudioFilename: audio.mp3
AudioLeadIn: 0
PreviewTime: 4891
Countdown: 0
SampleSet: Normal
StackLeniency: 0.7
Mode: 0
LetterboxInBreaks: 0
WidescreenStoryboard: 0

[Editor]
DistanceSpacing: 1
BeatDivisor: 4
GridSize: 16
TimelineZoom: 2.4

[Metadata]
Title:Polssia!
TitleUnicode:Polssia!
Artist:odaxelagnia
ArtistUnicode:odaxelagnia
Creator:deadpon3
Version:XVoIRa Extremalny
Source:
Tags:polish breakcore hardcore jungle rave speedcore skrd!!! Krfawy Chalwa MrKOSIEJ XVoIR ReFaller
BeatmapID:1173744
BeatmapSetID:551399

[Difficulty]
HPDrainRate:6
CircleSize:4
OverallDifficulty:8.5
ApproachRate:9.7
SliderMultiplier:1.6
SliderTickRate:1

[Events]
//Background and Video events
0,0,"iksde.png",0,0
//Break Periods
//Storyboard Layer 0 (Background)
//Storyboard Layer 1 (Fail)
//Storyboard Layer 2 (Pass)
//Storyboard Layer 3 (Foreground)
//Storyboard Sound Samples

[TimingPoints]
91,300,4,1,0,100,1,0
2191,-50,4,1,0,100,0,0
2341,-50,4,1,0,5,0,0
2491,-100,4,1,0,100,0,0
9391,-50,4,1,0,100,0,0
9691,-100,4,1,0,100,0,0
14191,-50,4,1,0,100,0,0
14341,-100,4,1,0,100,0,0
18991,-50,4,1,0,100,0,0
19291,-100,4,1,0,100,0,0
43291,-76.9230769230769,4,1,0,100,0,1
52891,-100,4,1,0,100,0,0
52921,303.030303030303,4,1,0,100,1,0
52921,-133.333333333333,4,1,0,100,0,0
57125,303.030303030303,4,1,0,100,1,0
57701,300,4,1,0,100,1,0
71651,-100,4,1,0,66,0,0
71801,-100,4,1,0,33,0,0
72101,-111.111111111111,4,2,0,100,0,0
76901,-100,4,1,0,100,0,0
91301,-83.3333333333333,4,1,0,100,0,1
100901,-100,4,1,0,100,0,0
110351,-100,4,2,0,100,0,0
118451,-100,4,2,0,66,0,0
118601,-100,4,2,0,33,0,0
118901,-100,4,2,0,100,0,0
119201,-100,4,2,0,75,0,0
119501,-100,4,2,0,50,0,0
119801,-100,4,2,0,25,0,0

[Colours]
Combo1 : 255,0,0
Combo2 : 255,255,255

[HitObjects]
66,223,91,6,0,P|109:221|167:192,1,80,2|0,0:0|0:0,0:0:0:0:
236,153,391,1,8,0:0:0:0:
272,136,466,1,0,0:0:0:0:
312,132,541,1,0,0:0:0:0:
351,140,616,1,0,0:0:0:0:
386,159,691,2,0,P|396:207|379:253,1,80,2|0,0:0|0:0,0:0:0:0:
223,307,991,2,0,P|213:259|230:213,1,80,8|0,0:0|0:0,0:0:0:0:
322,66,1291,5,2,0:0:0:0:
220,229,1441,1,0,0:0:0:0:
185,104,1591,1,8,0:0:0:0:
209,72,1666,1,0,0:0:0:0:
244,54,1741,1,0,0:0:0:0:
284,51,1816,1,0,0:0:0:0:
321,65,1891,1,2,0:0:0:0:
208,304,2191,6,0,B|160:336|160:336|112:304|112:304|64:336,1,160,4|0,0:0|0:0,0:0:0:0:
296,309,2491,6,0,P|284:253|260:226,1,80,2|0,0:0|0:0,0:0:0:0:
168,153,2791,1,8,0:0:0:0:
171,192,2866,1,0,0:0:0:0:
195,224,2941,1,0,0:0:0:0:
231,239,3016,1,0,0:0:0:0:
270,235,3091,2,0,P|312:215|343:190,1,80,2|0,0:0|0:0,0:0:0:0:
452,140,3391,2,0,P|410:119|379:94,1,80,8|0,0:0|0:0,0:0:0:0:
292,19,3691,5,2,0:0:0:0:
168,152,3841,1,0,0:0:0:0:
339,193,3991,1,8,0:0:0:0:
330,174,4066,1,0,0:0:0:0:
322,156,4141,1,0,0:0:0:0:
313,138,4216,1,0,0:0:0:0:
305,120,4291,5,4,0:0:0:0:
226,277,4441,1,0,0:0:0:0:
194,89,4591,5,8,0:0:0:0:
302,305,4741,1,0,0:0:0:0:
416,186,4891,6,0,P|376:181|330:197,1,80,4|0,0:0|0:0,0:0:0:0:
348,368,5191,2,0,P|372:335|381:288,1,80,8|0,0:0|0:0,0:0:0:0:
287,236,5416,1,0,0:0:0:0:
287,236,5491,2,0,L|177:247,1,80,4|0,0:0|0:0,0:0:0:0:
41,265,5791,1,8,0:0:0:0:
138,346,5941,1,0,0:0:0:0:
103,211,6091,6,0,P|99:151|113:108,1,80,2|0,0:0|0:0,0:0:0:0:
172,60,6316,1,0,0:0:0:0:
172,60,6391,2,0,P|217:66|270:56,1,80,8|0,0:0|0:0,0:0:0:0:
422,22,6691,1,2,0:0:0:0:
298,150,6841,1,0,0:0:0:0:
339,60,6991,1,8,0:0:0:0:
394,252,7141,1,0,0:0:0:0:
394,252,7216,1,0,0:0:0:0:
394,252,7291,6,0,L|312:242,1,80,4|0,0:0|0:0,0:0:0:0:
232,312,7591,2,0,L|181:246,1,80,8|0,0:0|0:0,0:0:0:0:
94,148,7891,1,2,0:0:0:0:
208,152,8041,1,0,0:0:0:0:
51,230,8191,2,0,P|17:204|2:152,1,80,8|0,0:0|0:0,0:0:0:0:
192,48,8491,5,2,0:0:0:0:
320,48,8641,1,0,0:0:0:0:
111,164,8791,1,8,0:0:0:0:
399,164,8941,1,0,0:0:0:0:
256,272,9091,2,0,P|251:315|270:348,1,80,2|0,0:0|0:0,0:0:0:0:
339,252,9391,6,0,P|281:189|203:207,1,160,8|0,0:0|0:0,0:0:0:0:
51,276,9691,6,0,P|77:310|155:304,1,120,4|0,0:0|0:0,0:0:0:0:
104,221,9991,2,0,P|65:199|17:209,1,80,8|0,0:0|0:0,0:0:0:0:
225,363,10291,2,0,P|241:315|219:243,1,120,4|0,0:0|0:0,0:0:0:0:
225,363,10591,2,0,L|320:343,1,80,8|0,0:0|0:0,0:0:0:0:
446,319,10891,5,4,0:0:0:0:
350,163,11041,1,0,0:0:0:0:
350,163,11116,1,8,0:0:0:0:
350,163,11191,2,0,P|346:203|361:238,1,80,8|0,0:0|0:0,0:0:0:0:
425,87,11491,2,0,P|392:63|354:59,1,80,4|0,0:0|0:0,0:0:0:0:
273,73,11716,1,8,0:0:0:0:
235,84,11791,1,8,0:0:0:0:
196,233,11941,1,0,0:0:0:0:
234,224,12016,1,0,0:0:0:0:
263,198,12091,6,0,P|276:157|262:105,1,80,4|0,0:0|0:0,0:0:0:0:
124,191,12316,1,0,0:0:0:0:
124,191,12391,2,0,P|111:232|125:284,1,80,8|0,0:0|0:0,0:0:0:0:
204,359,12691,1,8,0:0:0:0:
251,349,12766,1,0,0:0:0:0:
298,340,12841,1,0,0:0:0:0:
345,331,12916,1,0,0:0:0:0:
391,321,12991,2,0,L|418:313,7,20,4|0|0|0|0|0|0|0,0:0|0:0|0:0|0:0|0:0|0:0|0:0|0:0,0:0:0:0:
418,223,13291,6,0,L|384:166,1,40,0|0,0:0|0:0,0:0:0:0:
300,216,13441,2,0,L|256:188,1,40,0|0,0:0|0:0,0:0:0:0:
163,322,13591,1,0,0:0:0:0:
202,323,13666,1,0,0:0:0:0:
238,305,13741,1,0,0:0:0:0:
261,273,13816,1,0,0:0:0:0:
266,234,13891,1,8,0:0:0:0:
266,194,13966,1,0,0:0:0:0:
282,158,14041,1,0,0:0:0:0:
310,129,14116,1,0,0:0:0:0:
346,114,14191,6,0,B|374:169|374:169|375:209|375:209|407:264,1,160,4|0,0:0|0:0,0:0:0:0:
408,52,14491,6,0,P|369:29|316:31,1,80,4|0,0:0|0:0,0:0:0:0:
137,55,14791,1,8,0:0:0:0:
346,114,14941,1,0,0:0:0:0:
210,9,15091,5,4,0:0:0:0:
160,207,15241,1,0,0:0:0:0:
265,129,15391,5,8,0:0:0:0:
54,179,15541,1,0,0:0:0:0:
231,352,15691,5,4,0:0:0:0:
246,307,15766,1,0,0:0:0:0:
238,260,15841,1,0,0:0:0:0:
207,224,15916,1,0,0:0:0:0:
162,208,15991,2,0,P|126:216|105:232,1,40,8|0,0:0|0:0,0:0:0:0:
86,360,16141,2,0,P|122:352|143:336,1,40,0|0,0:0|0:0,0:0:0:0:
238,259,16291,5,8,0:0:0:0:
39,285,16441,1,0,0:0:0:0:
234,351,16591,2,0,L|255:354,4,20,4|0|0|0|0,0:0|0:0|0:0|0:0|0:0,0:0:0:0:
159,135,16891,5,4,0:0:0:0:
164,297,17041,1,0,0:0:0:0:
164,297,17116,1,0,0:0:0:0:
164,297,17191,2,0,P|197:258|201:222,1,80,8|0,0:0|0:0,0:0:0:0:
123,72,17491,2,0,P|90:111|86:147,1,80,4|0,0:0|0:0,0:0:0:0:
165,295,17791,1,8,0:0:0:0:
197,72,17941,1,0,0:0:0:0:
234,351,18091,5,4,0:0:0:0:
87,134,18241,1,0,0:0:0:0:
37,266,18391,1,8,0:0:0:0:
70,244,18466,1,0,0:0:0:0:
91,210,18541,1,0,0:0:0:0:
97,171,18616,1,0,0:0:0:0:
86,133,18691,2,0,P|56:127|35:131,1,40,8|0,0:0|0:0,0:0:0:0:
165,295,18841,2,0,P|195:301|216:297,1,40,0|0,0:0|0:0,0:0:0:0:
390,165,18991,6,0,B|330:190|330:190|280:173|280:173|223:193,1,160,8|0,0:0|0:0,0:0:0:0:
281,251,19216,1,0,0:0:0:0:
330,266,19291,5,4,0:0:0:0:
355,255,19366,1,0,0:0:0:0:
381,244,19441,1,0,0:0:0:0:
407,233,19516,1,0,0:0:0:0:
431,225,19591,1,8,0:0:0:0:
456,194,19666,1,0,0:0:0:0:
462,155,19741,1,0,0:0:0:0:
446,119,19816,1,0,0:0:0:0:
414,96,19891,5,4,0:0:0:0:
239,187,20041,1,0,0:0:0:0:
345,34,20191,5,8,0:0:0:0:
279,250,20341,1,0,0:0:0:0:
232,79,20491,6,0,P|177:68|143:78,1,80,4|0,0:0|0:0,0:0:0:0:
73,110,20716,1,0,0:0:0:0:
73,110,20791,2,0,L|71:138,3,20,8|0|0|0,0:0|0:0|0:0|0:0,0:0:0:0:
141,183,20941,2,0,L|143:211,3,20,0|0|0|0,0:0|0:0|0:0|0:0,0:0:0:0:
67,271,21091,1,8,0:0:0:0:
98,295,21166,1,0,0:0:0:0:
136,304,21241,1,2,0:0:0:0:
176,297,21316,1,0,0:0:0:0:
208,275,21391,2,0,P|224:269|233:268,4,20,8|0|0|0|0,0:0|0:0|0:0|0:0|0:0,0:0:0:0:
370,283,21691,5,4,0:0:0:0:
308,361,21841,1,0,0:0:0:0:
283,246,21991,2,0,P|311:207|354:185,1,80,8|0,0:0|0:0,0:0:0:0:
383,380,22291,2,0,P|335:375|294:349,1,80,8|0,0:0|0:0,0:0:0:0:
444,220,22591,2,0,P|463:263|461:311,1,80,8|0,0:0|0:0,0:0:0:0:
338,187,22891,5,4,0:0:0:0:
331,147,22966,1,0,0:0:0:0:
343,110,23041,1,0,0:0:0:0:
372,82,23116,1,0,0:0:0:0:
410,72,23191,1,8,0:0:0:0:
417,130,23266,1,0,0:0:0:0:
382,176,23341,1,0,0:0:0:0:
324,185,23416,1,0,0:0:0:0:
277,150,23491,6,0,P|273:133|276:117,7,20,2|0|0|0|0|0|0|0,0:0|0:0|0:0|0:0|0:0|0:0|0:0|0:0,0:0:0:0:
203,74,23791,2,0,P|207:91|204:107,7,20,2|0|0|0|0|0|0|0,0:0|0:0|0:0|0:0|0:0|0:0|0:0|0:0,0:0:0:0:
175,183,24091,6,0,P|136:193|88:178,1,80,4|0,0:0|0:0,0:0:0:0:
59,22,24391,2,0,P|72:65|59:114,1,80,8|0,0:0|0:0,0:0:0:0:
15,260,24691,2,0,P|8:312|118:350,1,160,4|8,0:0|0:0,0:0:0:0:
209,344,25141,1,0,0:0:0:0:
75,295,25291,5,4,0:0:0:0:
337,263,25441,1,2,0:0:0:0:
209,344,25591,1,8,0:0:0:0:
240,137,25741,1,0,0:0:0:0:
337,263,25891,2,0,P|429:235|426:163,1,160,4|8,0:0|0:0,0:0:0:0:
240,137,26491,6,0,P|234:181|253:215,1,80,4|0,0:0|0:0,0:0:0:0:
346,339,26791,2,0,P|352:295|333:261,1,80,8|0,0:0|0:0,0:0:0:0:
165,284,27091,1,4,0:0:0:0:
341,341,27241,1,0,0:0:0:0:
80,255,27391,1,8,0:0:0:0:
256,312,27541,1,0,0:0:0:0:
80,255,27691,6,0,L|95:346,1,80,2|0,0:2|0:0,0:0:0:0:
256,312,27991,2,0,L|271:221,1,80,0|0,0:0|0:0,0:0:0:0:
126,187,28291,2,0,P|59:176|5:272,1,160,0|0,0:0|0:0,0:0:0:0:
179,351,28741,1,2,0:0:0:0:
126,187,28891,5,4,0:0:0:0:
89,333,29041,1,0,0:0:0:0:
221,196,29191,2,0,L|201:110,1,80,8|0,0:0|0:0,0:0:0:0:
94,92,29491,1,0,0:2:0:0:
87,119,29566,1,0,0:2:0:0:
91,146,29641,1,0,0:2:0:0:
105,170,29716,1,0,0:2:0:0:
126,187,29791,1,0,0:2:0:0:
299,186,29941,1,2,0:2:0:0:
324,92,30091,6,0,P|281:91|243:110,1,80,4|0,0:0|0:0,0:0:0:0:
270,265,30391,1,0,0:0:0:0:
434,177,30541,1,8,0:0:0:0:
433,176,31141,5,2,0:2:0:0:
270,265,31291,2,0,P|267:307|288:345,1,80,4|0,0:0|0:0,0:0:0:0:
352,286,31591,1,0,0:0:0:0:
262,183,31741,2,0,P|217:204|193:238,1,80,8|0,0:0|0:0,0:0:0:0:
453,273,32341,5,0,0:0:0:0:
338,135,32491,1,8,0:0:0:0:
338,135,32566,1,0,0:0:0:0:
338,135,32641,1,2,0:0:0:0:
350,311,32791,2,0,P|413:376|427:380,1,80,8|0,0:0|0:0,0:0:0:0:
381,220,33091,2,0,P|293:242|282:252,1,80,2|0,0:0|0:0,0:0:0:0:
181,314,33391,5,8,0:0:0:0:
455,277,33541,1,0,0:0:0:0:
317,110,33691,5,4,0:0:0:0:
235,199,33841,1,0,0:0:0:0:
265,224,33916,1,0,0:0:0:0:
304,233,33991,2,0,P|361:228|400:193,1,80,8|0,0:0|0:0,0:0:0:0:
206,117,34291,2,0,P|167:146|152:187,1,80,4|0,0:0|0:0,0:0:0:0:
131,265,34516,1,0,0:0:0:0:
131,265,34591,2,0,P|179:265|221:232,1,80,8|0,0:0|0:0,0:0:0:0:
256,52,34891,5,4,0:0:0:0:
94,99,35041,1,0,0:0:0:0:
319,112,35191,1,8,0:0:0:0:
96,22,35341,1,2,0:0:0:0:
96,22,35416,1,0,0:0:0:0:
96,22,35491,2,0,P|85:73|100:108,1,80,4|0,0:0|0:0,0:0:0:0:
203,193,35716,1,0,0:0:0:0:
203,193,35791,2,0,P|214:142|199:107,1,80,8|0,0:0|0:0,0:0:0:0:
52,263,36091,5,4,0:0:0:0:
219,303,36241,1,0,0:0:0:0:
219,303,36316,1,0,0:0:0:0:
219,303,36391,1,8,0:0:0:0:
139,152,36541,1,0,0:0:0:0:
124,342,36691,1,4,0:0:0:0:
277,217,36841,1,0,0:0:0:0:
277,217,36916,1,0,0:0:0:0:
277,217,36991,2,0,L|361:206,1,80,8|0,0:0|0:0,0:0:0:0:
256,52,37291,6,0,L|172:41,1,80,4|0,0:0|0:0,0:0:0:0:
52,108,37516,1,0,0:0:0:0:
52,108,37591,2,0,P|89:70|98:28,2,80,8|0|4,0:0|0:0|0:0,0:0:0:0:
31,213,38041,2,0,P|26:231|29:244,3,20,2|0|0|0,0:0|0:0|0:0|0:0,0:0:0:0:
31,213,38191,2,0,P|24:254|43:305,1,80,8|0,0:0|0:0,0:0:0:0:
157,349,38491,6,0,L|245:335,1,80,4|0,0:0|0:0,0:0:0:0:
336,276,38716,1,0,0:0:0:0:
336,276,38791,1,8,0:2:0:0:
198,194,38941,1,0,0:0:0:0:
303,93,39091,2,0,L|387:83,1,80,2|0,0:2|0:0,0:0:0:0:
471,73,39316,1,0,0:0:0:0:
471,73,39391,2,0,P|462:124|430:161,1,80,8|0,0:2|0:0,0:0:0:0:
335,275,39691,5,4,0:0:0:0:
202,199,39841,1,0,0:0:0:0:
202,199,39916,1,0,0:0:0:0:
202,199,39991,2,0,L|203:222,4,20,8|0|0|0|0,0:0|0:0|0:0|0:0|0:0,0:0:0:0:
297,345,40291,2,0,P|337:357|379:340,1,80,4|0,0:0|0:0,0:0:0:0:
450,290,40516,1,0,0:0:0:0:
450,290,40591,2,0,L|467:196,1,80,8|0,0:0|0:0,0:0:0:0:
283,182,40891,5,4,0:0:0:0:
373,344,41041,1,0,0:0:0:0:
350,138,41191,2,0,P|312:106|259:107,1,80,8|0,0:0|0:0,0:0:0:0:
367,226,41491,2,0,P|410:197|429:110,1,120,4|0,0:0|0:0,0:0:0:0:
283,101,41791,2,0,P|249:123|234:191,1,80,8|0,0:0|0:0,0:0:0:0:
232,322,42091,5,4,0:0:0:0:
193,331,42166,1,0,0:0:0:0:
153,328,42241,1,0,0:0:0:0:
117,311,42316,1,0,0:0:0:0:
91,326,42391,1,8,0:0:0:0:
56,305,42466,1,0,0:0:0:0:
31,274,42541,1,0,0:0:0:0:
17,237,42616,1,0,0:0:0:0:
32,200,42691,2,0,L|51:147,1,40,8|0,0:0|0:0,0:0:0:0:
157,64,42841,2,0,L|176:117,1,40,8|0,0:0|0:0,0:0:0:0:
235,323,42991,2,0,L|260:251,1,40,8|0,0:0|0:0,0:0:0:0:
403,140,43141,2,0,L|428:211,1,40,8|0,0:0|0:0,0:0:0:0:
331,312,43291,6,0,P|286:333|219:311,1,103.999995239258,0|0,0:0|0:0,0:0:0:0:
110,277,43516,1,0,0:0:0:0:
110,277,43591,2,0,L|128:172,1,103.999995239258,8|2,0:0|0:0,0:0:0:0:
271,46,43891,1,4,0:0:0:0:
277,236,44041,1,0,0:0:0:0:
146,56,44191,2,0,L|118:56,7,25.9999988098145,8|0|0|0|0|0|0|0,0:0|0:0|0:0|0:0|0:0|0:0|0:0|0:0,0:0:0:0:
146,56,44491,6,0,P|87:54|25:113,1,103.999995239258,4|0,0:0|0:0,0:0:0:0:
239,139,44716,1,0,0:0:0:0:
239,139,44791,2,0,P|270:88|250:5,1,103.999995239258,8|2,0:0|0:0,0:0:0:0:
122,172,45091,2,0,P|149:224|231:248,1,103.999995239258,4|0,0:0|0:0,0:0:0:0:
404,250,45391,1,4,0:0:0:0:
237,135,45541,1,0,0:0:0:0:
239,327,45691,6,0,P|274:284|276:228,1,103.999995239258,4|0,0:0|0:0,0:0:0:0:
57,307,45991,2,0,L|64:333,3,25.9999988098145,8|0|0|0,0:0|0:0|0:0|0:0,0:0:0:0:
57,307,46141,2,0,L|71:197,1,103.999995239258,0|0,0:0|0:0,0:0:0:0:
140,64,46441,2,0,P|162:60|177:60,3,25.9999988098145,0|0|0|0,0:0|0:0|0:0|0:0,0:0:0:0:
170,87,46591,2,0,L|239:71,1,51.999997619629,8|0,0:0|0:0,0:0:0:0:
346,41,46741,2,0,L|396:52,1,51.999997619629,0|0,0:0|0:0,0:0:0:0:
431,275,46891,5,4,0:0:0:0:
300,129,47041,1,0,0:0:0:0:
282,330,47191,1,8,0:0:0:0:
459,198,47341,1,0,0:0:0:0:
235,186,47491,2,0,L|121:197,1,103.999995239258,4|0,0:0|0:0,0:0:0:0:
282,330,47791,2,0,L|396:341,1,103.999995239258,8|0,0:0|0:0,0:0:0:0:
457,197,48091,5,4,0:0:0:0:
282,330,48241,1,0,0:0:0:0:
230,187,48391,2,0,P|230:132|246:83,1,103.999995239258,8|0,0:0|0:0,0:0:0:0:
332,37,48616,1,0,0:0:0:0:
332,37,48691,2,0,L|442:53,1,103.999995239258,4|0,0:0|0:0,0:0:0:0:
370,133,48916,1,0,0:0:0:0:
370,133,48991,2,0,L|328:29,1,103.999995239258,8|0,0:0|0:0,0:0:0:0:
403,228,49291,5,4,0:0:0:0:
230,187,49441,1,0,0:0:0:0:
230,187,49516,1,0,0:0:0:0:
230,187,49591,1,8,0:0:0:0:
445,125,49741,2,0,L|464:156,3,25.9999988098145,0|0|0|0,0:0|0:0|0:0|0:0,0:0:0:0:
486,213,49891,1,4,0:0:0:0:
480,263,49966,1,0,0:0:0:0:
445,301,50041,1,2,0:0:0:0:
395,312,50116,1,0,0:0:0:0:
348,292,50191,2,0,L|293:289,1,51.999997619629,8|0,0:0|0:0,0:0:0:0:
86,237,50341,2,0,L|141:233,1,51.999997619629,0|0,0:0|0:0,0:0:0:0:
275,164,50491,6,0,L|285:57,1,103.999995239258,4|0,0:0|0:0,0:0:0:0:
133,100,50716,1,0,0:0:0:0:
133,100,50791,1,8,0:0:0:0:
220,253,50941,1,0,0:0:0:0:
285,59,51091,2,0,B|341:51|341:51|401:70,1,103.999995239258,8|0,0:0|0:0,0:0:0:0:
448,298,51391,2,0,B|392:306|392:306|332:287,1,103.999995239258,8|0,0:0|0:0,0:0:0:0:
256,192,51691,12,0,52666,0:0:0:0:
185,206,52921,6,0,L|120:172,1,60.0000022888184,0|0,0:0|0:0,0:0:0:0:
204,124,53224,2,0,L|171:58,1,60.0000022888184,0|0,0:0|0:0,0:0:0:0:
308,124,53527,2,0,L|334:70,1,60.0000022888184,0|0,0:0|0:0,0:0:0:0:
327,206,53830,2,0,L|380:178,1,60.0000022888184,0|0,0:0|0:0,0:0:0:0:
376,301,54133,5,0,0:0:0:0:
296,303,54284,1,0,0:0:0:0:
238,250,54436,1,0,0:0:0:0:
233,171,54587,1,0,0:0:0:0:
284,110,54739,2,0,P|291:74|279:35,1,60.0000022888184,0|0,0:0|0:0,0:0:0:0:
160,143,55042,2,0,P|153:179|165:218,1,60.0000022888184,0|0,0:0|0:0,0:0:0:0:
199,322,55345,6,0,B|156:337|156:337|126:330,1,60.0000022888184,0|0,0:0|0:0,0:0:0:0:
46,273,55648,2,0,B|89:258|89:258|119:265,1,60.0000022888184,0|0,0:0|0:0,0:0:0:0:
198,323,55951,2,0,L|264:328,1,60.0000022888184,0|0,0:0|0:0,0:0:0:0:
308,241,56254,2,0,L|367:236,1,60.0000022888184,0|0,0:0|0:0,0:0:0:0:
459,242,56557,5,0,0:0:0:0:
403,325,56708,1,0,0:0:0:0:
367,236,56860,2,0,L|365:169,1,60.0000022888184,0|0,0:0|0:0,0:0:0:0:
405,26,57125,5,2,0:0:0:0:
469,163,57276,1,0,0:0:0:0:
299,313,57428,5,8,0:0:0:0:
363,176,57579,1,0,0:0:0:0:
490,320,57701,5,4,0:0:0:0:
189,271,58151,5,0,0:0:0:0:
235,178,58301,2,0,B|238:138|238:138|225:97,1,80,2|0,0:0|0:0,0:0:0:0:
73,135,58601,1,8,0:0:0:0:
247,186,58751,1,0,0:0:0:0:
266,182,58826,1,0,0:0:0:0:
286,177,58901,5,8,0:0:0:0:
323,189,58976,1,0,0:0:0:0:
351,217,59051,1,0,0:0:0:0:
362,255,59126,1,0,0:0:0:0:
355,294,59201,2,0,P|331:311|309:316,1,40,8|0,0:0|0:0,0:0:0:0:
212,166,59351,2,0,P|236:182|258:187,1,40,0|0,0:0|0:0,0:0:0:0:
401,156,59501,5,8,0:0:0:0:
276,22,59651,1,0,0:0:0:0:
54,96,59801,2,0,P|22:97|5:100,1,40,8|0,0:0|0:0,0:0:0:0:
172,168,59951,2,0,P|204:167|221:164,1,40,0|0,0:0|0:0,0:0:0:0:
49,212,60101,5,8,0:0:0:0:
239,284,60251,1,0,0:0:0:0:
144,83,60401,1,2,0:0:0:0:
113,309,60551,5,0,0:0:0:0:
134,319,60626,1,0,0:0:0:0:
157,324,60701,1,8,0:0:0:0:
181,323,60776,1,0,0:0:0:0:
204,315,60851,1,0,0:0:0:0:
224,302,60926,1,0,0:0:0:0:
239,282,61001,2,0,P|243:251|232:226,1,40,8|0,0:0|0:0,0:0:0:0:
321,168,61151,2,0,P|301:143|276:133,1,40,0|0,0:0|0:0,0:0:0:0:
146,82,61301,6,0,P|154:130|206:165,1,80,4|0,0:0|0:0,0:0:0:0:
227,90,61526,1,0,0:0:0:0:
227,90,61601,2,0,P|217:47|201:32,1,40,8|0,0:0|0:0,0:0:0:0:
73,111,61751,2,0,P|83:154|99:169,1,40,0|0,0:0|0:0,0:0:0:0:
169,147,61901,2,0,P|209:168|272:158,1,80,8|0,0:0|0:0,0:0:0:0:
422,129,62201,1,2,0:0:0:0:
441,122,62276,1,0,0:0:0:0:
460,116,62351,1,0,0:0:0:0:
479,110,62426,1,0,0:0:0:0:
498,104,62501,5,4,0:0:0:0:
316,90,62651,1,0,0:0:0:0:
446,289,62801,1,8,0:0:0:0:
459,242,62876,1,0,0:0:0:0:
472,196,62951,1,0,0:0:0:0:
485,150,63026,1,0,0:0:0:0:
498,104,63101,5,8,0:0:0:0:
376,240,63251,1,0,0:0:0:0:
489,361,63401,1,2,0:0:0:0:
405,150,63551,1,0,0:0:0:0:
297,253,63701,6,0,L|310:343,1,80,4|0,0:0|0:0,0:0:0:0:
405,150,64001,2,0,L|416:70,1,80,8|0,0:0|0:0,0:0:0:0:
249,53,64301,1,2,0:0:0:0:
407,148,64451,1,0,0:0:0:0:
255,68,64601,1,8,0:0:0:0:
413,163,64751,1,0,0:0:0:0:
271,193,64901,5,8,0:0:0:0:
244,202,64976,1,0,0:0:0:0:
217,204,65051,1,0,0:0:0:0:
189,198,65126,1,0,0:0:0:0:
165,184,65201,2,0,P|155:150|156:138,1,40,8|0,0:0|0:0,0:0:0:0:
334,156,65351,2,0,P|344:190|343:202,1,40,0|0,0:0|0:0,0:0:0:0:
241,306,65501,1,8,0:0:0:0:
221,304,65576,1,0,0:0:0:0:
201,303,65651,1,0,0:0:0:0:
89,282,65801,2,0,L|67:274,4,20,8|0|0|0|0,0:0|0:0|0:0|0:0|0:0,0:0:0:0:
322,348,66101,5,8,0:0:0:0:
322,348,66176,2,0,P|365:344|416:254,1,120,0|0,0:0|0:0,0:0:0:0:
377,134,66551,1,0,0:0:0:0:
322,258,66701,2,0,P|271:272|243:306,3,80,2|0|0|0,0:0|0:0|0:0|0:0,0:0:0:0:
74,338,67301,6,0,P|62:296|68:247,1,80,8|0,0:0|0:0,0:0:0:0:
116,100,67601,1,8,0:0:0:0:
144,263,67751,1,0,0:0:0:0:
144,263,67826,1,0,0:0:0:0:
144,263,67901,2,0,L|35:258,1,80,8|0,0:0|0:0,0:0:0:0:
251,268,68351,1,2,0:0:0:0:
350,195,68651,5,0,0:0:0:0:
352,175,68726,1,0,0:0:0:0:
354,153,68801,2,0,L|315:143,1,40,8|0,0:0|0:0,0:0:0:0:
157,105,68951,2,0,L|196:95,1,40,0|0,0:0|0:0,0:0:0:0:
409,84,69101,2,0,P|440:133|440:168,1,80,8|0,0:0|0:0,0:0:0:0:
283,337,69401,2,0,P|252:288|252:253,1,80,8|0,0:0|0:0,0:0:0:0:
471,236,69701,5,2,0:0:0:0:
284,335,69851,1,0,0:0:0:0:
403,178,70001,1,8,0:0:0:0:
423,159,70076,1,0,0:0:0:0:
448,147,70151,1,0,0:0:0:0:
476,145,70226,1,0,0:0:0:0:
503,151,70301,2,0,L|483:253,1,80,2|0,0:0|0:0,0:0:0:0:
284,335,70601,2,0,L|267:256,1,80,8|0,0:0|0:0,0:0:0:0:
249,124,70901,5,2,0:0:0:0:
229,89,70976,1,0,0:0:0:0:
195,69,71051,1,0,0:0:0:0:
156,71,71126,1,0,0:0:0:0:
123,93,71201,2,0,L|112:131,1,40,8|0,0:0|0:0,0:0:0:0:
77,269,71351,1,0,0:0:0:0:
304,183,71501,6,0,L|387:157,2,80,2|0|0,0:0|0:0|0:0,0:0:0:0:
129,242,72101,5,2,0:0:0:0:
157,317,72251,1,0,0:0:0:0:
207,214,72401,2,0,P|179:170|146:158,1,71.9999978027344,8|0,0:0|0:0,0:0:0:0:
61,254,72701,2,0,P|113:251|139:229,1,71.9999978027344,2|0,0:0|0:0,0:0:0:0:
118,77,73001,1,8,0:0:0:0:
78,174,73151,1,0,0:0:0:0:
250,147,73301,5,2,0:0:0:0:
274,152,73376,1,0,0:0:0:0:
298,158,73451,1,0,0:0:0:0:
431,204,73601,5,8,0:0:0:0:
406,209,73676,1,0,0:0:0:0:
382,215,73751,1,0,0:0:0:0:
243,276,73901,5,2,0:0:0:0:
270,282,73976,1,0,0:0:0:0:
298,289,74051,1,0,0:0:0:0:
326,296,74126,1,0,0:0:0:0:
363,357,74201,5,8,0:0:0:0:
390,350,74276,1,0,0:0:0:0:
418,343,74351,1,0,0:0:0:0:
446,336,74426,1,0,0:0:0:0:
475,270,74501,6,0,P|479:240|475:220,2,35.9999989013672,8|0|0,0:0|0:0|0:0,0:0:0:0:
298,162,74801,2,0,P|294:192|298:212,2,35.9999989013672,2|0|0,0:0|0:0|0:0,0:0:0:0:
406,93,75101,2,0,P|456:88|496:100,1,71.9999978027344,8|0,0:0|0:0,0:0:0:0:
298,162,75401,1,8,0:0:0:0:
318,25,75551,1,0,0:0:0:0:
375,220,75701,5,2,0:0:0:0:
365,297,75851,1,0,0:0:0:0:
230,212,76001,2,0,B|215:175|215:175|227:113,1,71.9999978027344,8|0,0:0|0:0,0:0:0:0:
280,277,76301,1,0,0:0:0:0:
258,289,76376,1,0,0:0:0:0:
233,295,76451,1,0,0:0:0:0:
208,292,76526,1,0,0:0:0:0:
186,282,76601,2,0,P|156:277|143:279,1,35.9999989013672,8|0,0:0|0:0,0:0:0:0:
46,334,76751,2,0,P|76:339|89:337,1,35.9999989013672,8|0,0:0|0:0,0:0:0:0:
70,231,76901,6,0,L|67:124,1,80,4|0,0:0|0:0,0:0:0:0:
167,25,77201,1,8,0:0:0:0:
212,177,77351,1,0,0:0:0:0:
153,111,77501,1,2,0:0:0:0:
298,96,77651,1,0,0:0:0:0:
337,102,77726,1,0,0:0:0:0:
376,108,77801,2,0,P|378:146|375:158,1,40,8|0,0:0|0:0,0:0:0:0:
340,242,77951,2,0,L|338:259,4,10,0|0|0|0|0,0:0|0:0|0:0|0:0|0:0,0:0:0:0:
417,221,78101,6,0,L|467:211,3,40,8|0|2|0,0:0|0:0|0:0|0:0,0:0:0:0:
339,252,78401,1,8,0:0:0:0:
300,242,78476,1,0,0:0:0:0:
261,233,78551,1,2,0:0:0:0:
222,223,78626,1,0,0:0:0:0:
183,214,78701,2,0,P|158:218|138:228,1,40,8|0,0:0|0:0,0:0:0:0:
179,316,78851,2,0,L|186:289,3,20,2|0|0|0,0:0|0:0|0:0|0:0,0:0:0:0:
96,297,79001,1,8,0:0:0:0:
99,316,79076,1,0,0:0:0:0:
103,336,79151,1,0,0:0:0:0:
338,348,79301,6,0,L|425:334,1,80,4|0,0:0|0:0,0:0:0:0:
495,233,79601,2,0,L|408:219,1,80,8|0,0:0|0:0,0:0:0:0:
316,199,79826,1,0,0:0:0:0:
301,161,79901,1,2,0:0:0:0:
305,122,79976,1,0,0:0:0:0:
324,87,80051,1,0,0:0:0:0:
357,65,80126,1,0,0:0:0:0:
396,58,80201,2,0,P|419:60|431:65,7,20,8|0|0|0|0|0|0|0,0:0|0:0|0:0|0:0|0:0|0:0|0:0|0:0,0:0:0:0:
327,86,80501,6,0,L|279:82,1,40,4|0,0:0|0:0,0:0:0:0:
185,46,80651,2,0,L|233:42,1,40,8|0,0:0|0:0,0:0:0:0:
219,125,80801,1,8,0:0:0:0:
79,86,80951,1,8,0:0:0:0:
79,86,81026,1,0,0:0:0:0:
79,86,81101,1,2,0:0:0:0:
64,123,81176,1,0,0:0:0:0:
66,162,81251,1,0,0:0:0:0:
84,198,81326,1,0,0:0:0:0:
115,223,81401,5,8,0:0:0:0:
293,303,81701,6,0,B|338:294|387:261|402:207|358:159|358:159|306:174,2,240,2|2|8,0:0|0:0|0:0,0:0:0:0:
219,303,82901,2,0,B|174:294|125:261|110:207|154:159|154:159|206:174,1,240,2|0,0:0|0:0,0:0:0:0:
320,172,83501,1,2,0:0:0:0:
263,47,83651,1,0,0:0:0:0:
195,170,83801,1,8,0:0:0:0:
199,209,83876,1,0,0:0:0:0:
203,249,83951,1,0,0:0:0:0:
207,289,84026,1,0,0:0:0:0:
211,329,84101,5,8,0:0:0:0:
390,254,84301,1,0,0:0:0:0:
137,239,84501,1,0,0:0:0:0:
397,170,84701,2,0,P|454:196|460:300,1,160,2|8,0:0|0:0,0:0:0:0:
390,254,85151,6,0,P|341:234|318:197,1,80,0|2,0:0|0:0,0:0:0:0:
284,74,85451,1,0,0:0:0:0:
396,170,85601,1,8,0:0:0:0:
205,221,85751,1,0,0:0:0:0:
283,74,85901,1,2,0:0:0:0:
388,250,86201,1,8,0:0:0:0:
238,311,86501,5,4,0:0:0:0:
103,246,86651,1,8,0:0:0:0:
102,230,86726,1,0,0:0:0:0:
101,212,86801,2,0,P|104:181|110:162,1,40,2|0,0:0|0:0,0:0:0:0:
218,114,86951,2,0,P|215:145|209:164,1,40,8|0,0:0|0:0,0:0:0:0:
142,70,87101,1,2,0:0:0:0:
169,41,87176,1,0,0:0:0:0:
206,27,87251,1,8,0:0:0:0:
246,29,87326,1,0,0:0:0:0:
281,48,87401,2,0,P|308:116|298:157,1,80,8|0,0:0|0:0,0:0:0:0:
292,281,87701,5,4,0:0:0:0:
221,114,87851,1,0,0:0:0:0:
137,270,88001,1,8,0:0:0:0:
140,289,88076,1,0,0:0:0:0:
144,309,88151,1,2,0:0:0:0:
148,328,88226,1,0,0:0:0:0:
151,349,88301,2,0,P|202:350|235:332,1,80,8|8,0:0|0:0,0:0:0:0:
347,255,88601,1,8,0:0:0:0:
384,247,88676,1,0,0:0:0:0:
406,277,88751,1,0,0:0:0:0:
386,310,88826,1,0,0:0:0:0:
349,305,88901,5,4,0:0:0:0:
198,205,89101,1,0,0:0:0:0:
376,157,89301,1,0,0:0:0:0:
199,294,89501,1,8,0:0:0:0:
160,284,89576,1,0,0:0:0:0:
130,258,89651,1,0,0:0:0:0:
114,222,89726,1,0,0:0:0:0:
115,183,89801,2,0,L|136:98,1,80,8|0,0:0|0:0,0:0:0:0:
227,78,90026,1,0,0:0:0:0:
227,78,90101,6,0,P|294:90|336:202,1,160,4|8,0:0|0:0,0:0:0:0:
309,266,90551,1,0,0:0:0:0:
248,174,90701,1,2,0:0:0:0:
401,241,90851,1,0,0:0:0:0:
222,308,91001,2,0,L|195:307,7,20,8|0|0|0|8|0|0|0,0:0|0:0|0:0|0:0|0:0|0:0|0:0|0:0,0:0:0:0:
125,306,91301,5,4,0:0:0:0:
155,132,91451,1,8,0:0:0:0:
163,374,91601,1,2,0:0:0:0:
66,225,91751,1,8,0:0:0:0:
307,254,91901,2,0,P|312:312|292:360,1,95.9999970703126,2|8,0:0|0:0,0:0:0:0:
67,224,92201,2,0,L|61:198,4,23.9999992675781,2|0|0|0|0,0:0|0:0|0:0|0:0|0:0,0:0:0:0:
257,169,92501,5,4,0:0:0:0:
80,323,92651,1,8,0:0:0:0:
187,104,92801,2,0,B|231:133|231:133|261:175,1,95.9999970703126,2|8,0:0|0:0,0:0:0:0:
74,133,93101,2,0,B|77:80|77:80|98:33,1,95.9999970703126,2|8,0:0|0:0,0:0:0:0:
249,27,93401,2,0,L|269:27,3,11.9999996337891,2|0|0|0,0:0|0:0|0:0|0:0,0:0:0:0:
384,94,93551,2,0,L|364:94,3,11.9999996337891,8|0|0|0,0:0|0:0|0:0|0:0,0:0:0:0:
169,202,93701,5,4,0:0:0:0:
247,28,93851,1,8,0:0:0:0:
293,267,94001,1,2,0:0:0:0:
156,103,94151,1,8,0:0:0:0:
381,200,94301,1,2,0:0:0:0:
193,311,94451,1,8,0:0:0:0:
277,140,94601,1,2,0:0:0:0:
386,321,94751,1,8,0:0:0:0:
181,235,94901,6,0,P|160:235|154:237,7,23.9999992675781,2|0|0|0|0|0|0|0,0:0|0:0|0:0|0:0|0:0|0:0|0:0|0:0,0:0:0:0:
76,253,95201,2,0,P|102:299|154:317,1,95.9999970703126,4|0,0:0|0:0,0:0:0:0:
293,267,95501,2,0,L|350:81,1,191.999994140625,8|8,0:0|0:0,0:0:0:0:
199,119,95951,1,0,0:0:0:0:
391,211,96101,5,4,0:0:0:0:
437,217,96176,1,0,0:0:0:0:
479,196,96251,1,2,0:0:0:0:
501,154,96326,1,0,0:0:0:0:
495,107,96401,2,0,L|440:134,1,47.9999985351563,8|0,0:0|0:0,0:0:0:0:
347,190,96551,2,0,L|390:210,1,47.9999985351563,2|0,0:0|0:0,0:0:0:0:
420,298,96701,1,8,0:0:0:0:
409,324,96776,1,0,0:0:0:0:
389,345,96851,1,2,0:0:0:0:
364,359,96926,1,0,0:0:0:0:
336,363,97001,1,8,0:0:0:0:
308,358,97076,1,0,0:0:0:0:
283,343,97151,1,2,0:0:0:0:
265,321,97226,1,0,0:0:0:0:
255,294,97301,6,0,P|253:266|258:232,3,47.9999985351563,8|0|2|0,0:0|0:0|0:0|0:0,0:0:0:0:
346,142,97601,2,0,P|348:170|343:204,3,47.9999985351563,8|0|2|0,0:0|0:0|0:0|0:0,0:0:0:0:
225,142,97901,1,8,0:0:0:0:
181,122,97976,1,0,0:0:0:0:
135,129,98051,1,2,0:0:0:0:
99,160,98126,1,0,0:0:0:0:
86,206,98201,1,8,0:0:0:0:
133,200,98276,1,0,0:0:0:0:
171,170,98351,1,2,0:0:0:0:
188,126,98426,1,0,0:0:0:0:
181,79,98501,6,0,L|152:70,7,23.9999992675781,8|0|0|0|0|0|0|0,0:0|0:0|0:0|0:0|0:0|0:0|0:0|0:0,0:0:0:0:
72,118,98801,2,0,L|22:99,3,47.9999985351563,4|0|0|0,0:0|0:0|0:0|0:0,0:0:0:0:
89,205,99101,2,0,L|118:195,8,23.9999992675781,8|0|0|0|0|0|0|0|8,0:0|0:0|0:0|0:0|0:0|0:0|0:0|0:0|0:0,0:0:0:0:
289,101,99701,6,0,P|314:148|308:201,1,95.9999970703126,4|0,0:0|0:0,0:0:0:0:
200,174,100001,2,0,P|153:199|100:193,1,95.9999970703126,8|0,0:0|0:0,0:0:0:0:
165,55,100301,2,0,L|189:47,6,15.9999995117188,2|0|0|0|0|0|0,0:0|0:0|0:0|0:0|0:0|0:0|0:0,0:0:0:0:
312,189,100601,2,0,L|288:197,12,15.9999995117188,8|0|0|0|0|0|2|0|0|0|0|0|0,0:0|0:0|0:0|0:0|0:0|0:0|0:0|0:0|0:0|0:0|0:0|0:0|0:0,0:0:0:0:
429,162,101051,5,0,0:0:0:0:
340,91,101201,1,8,0:0:0:0:
371,263,101351,1,0,0:0:0:0:
415,56,101501,1,8,0:0:0:0:
392,23,101576,1,0,0:0:0:0:
356,6,101651,1,0,0:0:0:0:
317,7,101726,1,0,0:0:0:0:
283,28,101801,2,0,B|236:109,1,80,8|0,0:0|0:0,0:0:0:0:
197,175,102026,1,0,0:0:0:0:
159,186,102101,5,8,0:0:0:0:
120,179,102176,1,0,0:0:0:0:
90,153,102251,1,0,0:0:0:0:
280,176,102401,1,8,0:0:0:0:
294,213,102476,1,0,0:0:0:0:
292,252,102551,1,0,0:0:0:0:
274,288,102626,1,0,0:0:0:0:
243,313,102701,2,0,L|195:311,1,40,8|0,0:0|0:0,0:0:0:0:
294,213,102851,2,0,L|342:210,1,40,0|0,0:0|0:0,0:0:0:0:
263,330,103001,2,0,L|214:327,1,40,2|0,0:0|0:0,0:0:0:0:
313,229,103151,2,0,L|361:226,1,40,0|0,0:0|0:0,0:0:0:0:
423,288,103301,5,8,0:0:0:0:
423,288,103376,1,0,0:0:0:0:
423,288,103451,1,0,0:0:0:0:
464,184,103601,1,8,0:0:0:0:
466,144,103676,1,0,0:0:0:0:
449,108,103751,1,0,0:0:0:0:
416,86,103826,1,0,0:0:0:0:
377,83,103901,2,0,L|317:98,1,40,8|0,0:0|0:0,0:0:0:0:
187,148,104051,2,0,L|247:162,1,40,0|0,0:0|0:0,0:0:0:0:
154,65,104201,1,8,0:0:0:0:
122,89,104276,1,0,0:0:0:0:
103,124,104351,1,0,0:0:0:0:
100,163,104426,1,0,0:0:0:0:
114,200,104501,6,0,P|122:248|109:281,1,80,4|0,0:0|0:0,0:0:0:0:
260,343,104801,2,0,P|248:305|256:266,1,80,8|0,0:0|0:0,0:0:0:0:
321,145,105101,1,2,0:0:0:0:
321,145,105176,1,0,0:0:0:0:
321,145,105251,1,8,0:0:0:0:
424,362,105401,1,0,0:0:0:0:
252,262,105701,5,0,0:0:0:0:
212,255,105776,1,0,0:0:0:0:
172,249,105851,1,0,0:0:0:0:
133,243,105926,1,0,0:0:0:0:
93,237,106001,1,8,0:0:0:0:
141,129,106151,1,0,0:0:0:0:
139,334,106301,1,2,0:0:0:0:
139,334,106376,1,0,0:0:0:0:
60,152,106601,1,8,0:0:0:0:
58,112,106676,1,0,0:0:0:0:
74,75,106751,1,0,0:0:0:0:
104,50,106826,1,0,0:0:0:0:
142,39,106901,6,0,P|181:40|194:45,1,40,8|0,0:0|0:0,0:0:0:0:
264,146,107051,2,0,P|225:145|212:140,1,40,8|0,0:0|0:0,0:0:0:0:
325,87,107201,2,0,L|346:92,3,20,2|0|0|0,0:0|0:0|0:0|0:0,0:0:0:0:
393,165,107351,2,0,L|372:170,4,20,0|0|0|0|0,0:0|0:0|0:0|0:0|0:0,0:0:0:0:
280,278,107651,5,8,0:0:0:0:
415,308,107801,2,0,L|429:307,2,13.3333333333333,8|0|0,0:0|0:0|0:0,0:0:0:0:
260,346,107951,2,0,L|246:345,2,13.3333333333333,8|0|0,0:0|0:0|0:0,0:0:0:0:
106,308,108101,6,0,L|60:313,2,40,4|0|0,0:0|0:0|0:0,0:0:0:0:
278,277,108401,1,8,0:0:0:0:
56,203,108551,1,0,0:0:0:0:
224,167,108701,1,2,0:0:0:0:
106,308,108851,1,0,0:0:0:0:
130,136,109001,1,8,0:0:0:0:
169,352,109151,1,0,0:0:0:0:
224,167,109301,6,0,P|250:164|266:166,7,40,8|0|0|0|8|0|0|0,0:0|0:0|0:0|0:0|0:0|0:0|0:0|0:0,0:0:0:0:
328,235,109901,2,0,L|408:213,1,80,8|0,0:0|0:0,0:0:0:0:
253,258,110351,1,0,0:0:0:0:
48,294,110501,6,0,P|41:248|56:207,1,80,2|0,0:0|0:0,0:0:0:0:
224,167,110801,2,0,P|231:213|216:254,1,80,0|0,0:0|0:0,0:0:0:0:
72,117,111101,2,0,L|156:106,1,80,2|0,0:0|0:0,0:0:0:0:
46,143,111401,1,0,0:0:0:0:
65,139,111476,1,0,0:0:0:0:
85,135,111551,1,0,0:0:0:0:
105,132,111626,1,0,0:0:0:0:
124,128,111701,5,2,0:0:0:0:
310,107,111851,1,0,0:0:0:0:
310,107,111926,1,0,0:0:0:0:
310,107,112001,2,0,P|317:79|312:63,1,40,0|0,0:0|0:0,0:0:0:0:
228,128,112151,2,0,P|221:156|226:172,1,40,0|0,0:0|0:0,0:0:0:0:
256,255,112301,2,0,L|216:268,1,40,2|0,0:0|0:0,0:0:0:0:
307,332,112451,2,0,L|351:316,1,40,0|0,0:0|0:0,0:0:0:0:
249,245,112601,2,0,L|199:261,1,40,2|0,0:0|0:0,0:0:0:0:
313,341,112751,2,0,L|368:321,1,40,0|0,0:0|0:0,0:0:0:0:
449,229,112901,6,0,P|461:180|443:129,1,80,2|0,0:0|0:0,0:0:0:0:
359,59,113201,1,0,0:0:0:0:
324,182,113351,1,2,0:0:0:0:
324,182,113501,1,0,0:0:0:0:
257,98,113651,1,0,0:0:0:0:
222,221,113801,1,2,0:0:0:0:
449,230,113951,1,0,0:0:0:0:
257,98,114101,6,0,L|163:112,1,80,0|0,0:0|0:0,0:0:0:0:
69,186,114401,1,2,0:0:0:0:
275,113,114551,2,0,L|181:127,1,80,0|0,0:0|0:0,0:0:0:0:
90,209,114776,2,0,L|146:201,1,40,0|0,0:0|0:0,0:0:0:0:
117,35,115001,5,2,0:0:0:0:
90,299,115301,5,0,0:0:0:0:
90,299,115376,1,0,0:0:0:0:
90,299,115451,2,0,L|147:298,1,40,0|0,0:0|0:0,0:0:0:0:
343,249,115751,5,0,0:0:0:0:
178,222,115901,1,2,0:0:0:0:
178,222,115976,1,0,0:0:0:0:
292,316,116201,1,2,0:0:0:0:
325,336,116276,1,0,0:0:0:0:
365,337,116351,1,0,0:0:0:0:
400,318,116426,1,0,0:0:0:0:
421,285,116501,6,0,P|429:232|411:196,1,80,2|0,0:0|0:0,0:0:0:0:
328,100,116801,1,0,0:0:0:0:
324,119,116876,1,0,0:0:0:0:
329,137,116951,2,0,P|345:142|362:140,4,20,2|0|0|0|0,0:0|0:0|0:0|0:0|0:0,0:0:0:0:
472,127,117251,1,0,0:0:0:0:
346,20,117401,2,0,L|258:33,1,80,2|0,0:0|0:0,0:0:0:0:
118,113,117701,5,2,0:0:0:0:
118,113,117776,1,0,0:0:0:0:
118,113,117851,1,0,0:0:0:0:
217,242,118001,1,2,0:0:0:0:
218,52,118151,1,0,0:0:0:0:
77,232,118301,2,0,L|85:325,2,80,2|0|0,0:0|0:0|0:0,0:0:0:0:
299,162,118901,6,0,P|354:157|425:257,3,160,0|0|0|0,0:0|0:0|0:0|0:0,0:0:0:0:
