osu file format v14

[General]
AudioFilename: audio.mp3
AudioLeadIn: 0
PreviewTime: 4891
Countdown: 0
SampleSet: Soft
StackLeniency: 0.3
Mode: 0
LetterboxInBreaks: 0
WidescreenStoryboard: 1

[Editor]
Bookmarks: 91,4891,14491,24091,33691,43291,51691,52921,57125,62501,72101,81701,91301,100901,110501,118901
DistanceSpacing: 1.1
BeatDivisor: 4
GridSize: 8
TimelineZoom: 1.6

[Metadata]
Title:Polssia!
TitleUnicode:Polssia!
Artist:odaxelagnia
ArtistUnicode:odaxelagnia
Creator:deadpon3
Version:ReFallera Trudny
Source:
Tags:polish breakcore hardcore jungle rave speedcore skrd!!! Krfawy Chalwa MrKOSIEJ XVoIR ReFaller
BeatmapID:1180916
BeatmapSetID:551399

[Difficulty]
HPDrainRate:5
CircleSize:4
OverallDifficulty:7
ApproachRate:8
SliderMultiplier:1.2
SliderTickRate:1

[Events]
//Background and Video events
0,0,"iksde.png",0,0
//Break Periods
2,53091,56375
//Storyboard Layer 0 (Background)
//Storyboard Layer 1 (Fail)
//Storyboard Layer 2 (Pass)
//Storyboard Layer 3 (Foreground)
//Storyboard Sound Samples

[TimingPoints]
91,300,4,2,0,70,1,0
4891,-83.3333333333333,4,2,0,85,0,0
14491,-83.3333333333333,4,1,0,85,0,0
17791,-83.3333333333333,4,2,0,75,0,0
18091,-83.3333333333333,4,1,0,85,0,0
32491,-83.3333333333333,4,2,0,5,0,0
33391,-83.3333333333333,4,2,0,65,0,0
33691,-83.3333333333333,4,2,0,85,0,0
43291,-66.6666666666667,4,1,0,85,0,1
51691,-66.6666666666667,4,2,0,85,0,0
52921,303.030303030303,4,2,0,85,1,0
57125,303.030303030303,4,2,0,85,1,0
57701,300,4,2,0,85,1,0
62501,-125,4,2,0,85,0,0
72101,-100,4,2,0,85,0,0
81701,-133.333333333333,4,2,0,85,0,0
91301,-66.6666666666667,4,1,0,85,0,1
100901,-83.3333333333333,4,2,0,70,0,0
110501,-100,4,2,0,70,0,0
118901,-100,4,2,0,55,0,0
119201,-100,4,2,0,40,0,0
119501,-100,4,2,0,25,0,0
119801,-100,4,2,0,10,0,0

[Colours]
Combo1 : 255,0,0
Combo2 : 255,255,255

[HitObjects]
88,176,91,6,0,P|118:196|144:200,1,60,0|2,0:0|0:0,0:0:0:0:
223,159,391,2,0,L|231:127,3,30,0|0|2|0,0:0|0:0|0:0|0:0,0:0:0:0:
230,129,691,2,0,L|245:71,1,60,0|2,0:0|0:0,0:0:0:0:
312,168,991,2,0,L|297:226,1,60,0|2,0:0|0:0,0:0:0:0:
184,280,1291,5,0,0:0:0:0:
141,199,1441,1,2,0:0:0:0:
168,112,1591,2,0,L|176:80,4,30,0|0|2|0|0,0:0|0:0|0:0|0:0|0:0,0:0:0:0:
160,368,2191,1,4,1:0:0:0:
160,368,2491,6,0,P|192:360|216:336,1,60,0|2,0:0|0:0,0:0:0:0:
167,190,2791,2,0,L|143:230,3,30,0|0|2|0,0:0|0:0|0:0|0:0,0:0:0:0:
152,216,3091,2,0,P|142:247|151:280,1,60,0|2,0:0|0:0,0:0:0:0:
287,285,3391,2,0,P|264:261|231:252,1,60,0|2,0:0|0:0,0:0:0:0:
72,328,3691,5,0,0:0:0:0:
31,247,3841,1,2,0:0:0:0:
94,184,3991,1,0,0:0:0:0:
174,225,4141,1,2,0:0:0:0:
160,313,4291,1,4,0:0:0:0:
64,88,4891,6,0,P|64:128|80:160,1,71.9999978027344,4|0,1:0|0:0,0:0:0:0:
176,256,5191,2,0,P|176:216|160:184,1,71.9999978027344,4|0,0:0|0:0,0:0:0:0:
208,48,5491,2,0,P|208:88|224:120,1,71.9999978027344,4|0,1:0|0:0,0:0:0:0:
320,216,5791,2,0,P|320:176|304:144,1,71.9999978027344,4|0,0:0|0:0,0:0:0:0:
272,304,6091,6,0,P|320:320|376:304,1,107.999996704102,2|0,0:0|0:0,0:0:0:0:
400,296,6391,2,0,P|414:328|413:364,1,71.9999978027344,0|0,1:0|0:0,0:0:0:0:
416,208,6691,2,0,P|415:172|429:139,1,71.9999978027344,8|0,0:0|0:0,0:0:0:0:
496,72,6991,1,0,1:0:0:0:
496,72,7291,6,0,P|476:101|445:120,1,71.9999978027344,0|0,1:0|1:0,0:0:0:0:
360,248,7591,2,0,P|375:216|376:180,1,71.9999978027344,0|0,1:0|0:0,0:0:0:0:
336,24,7891,2,0,P|336:59|352:91,1,71.9999978027344,2|0,0:0|0:0,0:0:0:0:
464,208,8191,1,8,0:0:0:0:
464,208,8491,5,0,1:0:0:0:
392,128,8641,1,0,1:0:0:0:
304,192,8791,1,8,0:1:0:0:
216,256,8941,1,0,1:0:0:0:
144,176,9091,1,2,0:0:0:0:
464,208,9391,1,4,0:0:0:0:
248,336,9691,6,0,P|177:363|104:352,1,143.999995605469,4|4,1:0|0:0,0:0:0:0:
216,256,10141,1,0,0:0:0:0:
176,176,10291,2,0,P|246:149|320:160,1,143.999995605469,4|4,1:0|0:0,0:0:0:0:
424,328,10891,6,0,P|448:280|440:224,1,107.999996704102,4|0,1:0|0:0,0:0:0:0:
416,216,11191,2,0,P|384:230|344:224,1,71.9999978027344,8|4,0:0|1:0,0:0:0:0:
288,112,11491,2,0,P|319:97|360:104,1,71.9999978027344,2|0,0:0|1:0,0:0:0:0:
480,128,11791,1,8,0:0:0:0:
272,304,12091,5,4,1:0:0:0:
249,198,12241,1,4,1:0:0:0:
143,220,12391,1,8,1:0:0:0:
166,326,12541,1,4,1:0:0:0:
60,349,12691,2,0,L|8:360,3,35.9999989013672,0|0|8|0,0:0|0:0|0:0|0:0,0:0:0:0:
8,336,12991,1,0,1:0:0:0:
137,184,13291,6,0,L|143:220,3,35.9999989013672,0|0|0|0,1:0|0:0|0:0|0:0,0:0:0:0:
216,119,13591,2,0,L|211:84,3,35.9999989013672,0|0|0|0,1:0|0:0|0:0|0:0,0:0:0:0:
305,176,13891,1,0,1:0:0:0:
49,264,14191,1,4,1:0:0:0:
304,336,14491,6,0,L|280:264,1,71.9999978027344,4|8,0:0|0:0,0:0:0:0:
400,264,14791,2,0,L|344:208,1,71.9999978027344,8|0,0:0|0:0,0:0:0:0:
472,168,15091,2,0,L|400:144,1,71.9999978027344,4|8,0:0|0:0,0:0:0:0:
472,48,15391,2,0,L|400:56,1,71.9999978027344,0|0,0:0|0:0,0:0:0:0:
232,88,15691,6,0,P|213:80|192:80,3,35.9999989013672,0|0|0|8,0:0|0:0|0:0|0:0,0:0:0:0:
160,80,15991,2,0,P|126:61|104:24,1,71.9999978027344,8|0,0:0|0:0,0:0:0:0:
72,144,16291,2,0,P|66:179|76:213,1,71.9999978027344,8|8,0:0|0:0,0:0:0:0:
184,304,16591,1,0,0:0:0:0:
184,304,16891,6,0,P|224:280|288:280,1,107.999996704102,4|0,0:0|0:0,0:0:0:0:
304,296,17191,2,0,P|339:301|373:291,1,71.9999978027344,0|8,0:0|0:0,0:0:0:0:
360,144,17491,2,0,P|365:108|355:74,1,71.9999978027344,0|8,0:0|0:0,0:0:0:0:
208,88,17791,2,0,P|172:82|138:92,1,71.9999978027344,8|2,0:1|0:0,0:0:0:0:
139,237,18091,5,0,0:0:0:0:
52,208,18241,1,0,0:0:0:0:
52,119,18391,1,0,0:0:0:0:
138,92,18541,1,0,0:0:0:0:
190,164,18691,1,0,0:0:0:0:
190,164,18991,2,0,L|198:212,3,35.9999989013672
195,199,19291,6,0,L|120:216,1,71.9999978027344,4|0,0:0|0:0,0:0:0:0:
316,199,19591,2,0,L|392:216,1,71.9999978027344,0|0,0:0|0:0,0:0:0:0:
320,320,19891,1,12,0:0:0:0:
320,320,20041,1,8,0:0:0:0:
192,320,20191,1,8,0:0:0:0:
192,320,20341,1,0,0:0:0:0:
256,208,20491,6,0,P|275:174|280:136,1,71.9999978027344,8|0,0:0|0:0,0:0:0:0:
144,24,20791,2,0,P|163:57|194:80,1,71.9999978027344
359,19,21091,2,0,P|320:19|284:34,1,71.9999978027344,0|8,0:0|0:0,0:0:0:0:
160,176,21391,2,0,P|121:175|85:160,1,71.9999978027344,8|0,0:0|0:0,0:0:0:0:
280,141,21691,5,4,0:0:0:0:
280,141,21841,1,0,0:0:0:0:
386,164,21991,1,0,0:0:0:0:
386,164,22141,1,0,0:0:0:0:
364,270,22291,1,8,0:0:0:0:
364,270,22441,1,8,0:0:0:0:
258,247,22591,1,0,0:0:0:0:
258,247,22891,5,4,0:0:0:0:
134,78,23041,1,8,0:0:0:0:
334,143,23191,1,8,0:0:0:0:
134,207,23341,1,8,0:0:0:0:
258,38,23491,2,0,L|264:8,16,17.9999994506836,0|0|0|0|0|0|0|0|0|0|0|0|0|0|0|0|4,0:0|0:0|0:0|0:0|0:0|0:0|0:0|0:0|0:0|0:0|0:0|0:0|0:0|0:0|0:0|0:0|0:0,0:0:0:0:
297,70,24391,5,0,0:0:0:0:
320,64,24691,1,0,0:0:0:0:
343,58,24991,1,0,0:0:0:0:
366,52,25291,6,0,P|368:88|400:128,1,71.9999978027344
320,192,25591,2,0,P|289:173|254:171,1,71.9999978027344
160,200,25891,1,0,0:0:0:0:
408,248,26191,1,0,0:0:0:0:
160,320,26491,6,0,L|88:328,1,71.9999978027344
160,200,26791,2,0,L|232:192,1,71.9999978027344
56,224,27091,1,0,0:0:0:0:
56,224,27241,1,0,0:0:0:0:
32,120,27391,1,0,0:0:0:0:
32,120,27541,1,0,0:0:0:0:
192,40,28891,6,0,P|200:72|208:112,1,71.9999978027344
312,256,29191,2,0,P|304:220|296:185,1,71.9999978027344
304,32,29491,1,0,0:0:0:0:
128,192,30091,5,0,0:0:0:0:
128,192,30241,1,0,0:0:0:0:
384,192,30541,1,0,0:0:0:0:
384,192,31291,5,0,0:0:0:0:
384,192,31441,1,0,0:0:0:0:
128,192,31741,1,0,0:0:0:0:
256,192,32491,12,4,33391,0:0:0:0:
128,224,33691,6,0,P|112:272|104:336,2,107.999996704102,2|2|0,0:0|0:0|0:0,0:0:0:0:
216,192,34291,2,0,P|232:144|240:80,2,107.999996704102,2|2|0,0:0|0:0|0:0,0:0:0:0:
200,280,34891,6,0,P|234:266|280:264,1,71.9999978027344,2|0,0:0|0:0,0:0:0:0:
368,368,35191,2,0,P|332:364|298:351,1,71.9999978027344,2|0,0:0|0:0,0:0:0:0:
352,216,35491,2,0,P|400:200|464:208,2,107.999996704102,2|2|0,0:0|0:0|0:0,0:0:0:0:
268,262,36091,6,0,P|247:231|223:207,1,71.9999978027344,2|0,0:0|0:0,0:0:0:0:
88,288,36391,2,0,P|112:264|133:232,1,71.9999978027344,2|2,0:0|0:0,0:0:0:0:
152,136,36691,2,0,P|104:120|40:128,2,107.999996704102,2|2|0,0:0|0:0|0:0,0:0:0:0:
132,232,37291,6,0,P|96:229|62:217,1,71.9999978027344,2|0,0:0|0:0,0:0:0:0:
216,200,37591,2,0,P|251:202|285:214,1,71.9999978027344
320,304,37891,2,0,P|266:309|215:293,2,107.999996704102,2|0|0,0:0|0:0|0:0,0:0:0:0:
448,264,38491,5,2,0:0:0:0:
285,214,38716,1,2,0:0:0:0:
440,152,38941,1,0,0:0:0:0:
440,152,39091,2,0,P|454:96|448:40,1,107.999996704102,2|2,0:0|0:0,0:0:0:0:
288,80,39541,1,0,0:0:0:0:
293,174,39691,6,0,L|221:166,1,71.9999978027344,2|0,0:0|0:0,0:0:0:0:
288,80,39991,2,0,L|360:88,1,71.9999978027344,2|0,0:0|0:0,0:0:0:0:
144,120,40291,2,0,P|129:64|136:8,2,107.999996704102,2|2|0,0:0|0:0|0:0,0:0:0:0:
208,272,40891,6,0,P|228:245|240:208,1,71.9999978027344,2|0,0:0|0:0,0:0:0:0:
216,57,41191,2,0,P|226:91|248:120,1,71.9999978027344,2|2,0:0|0:0,0:0:0:0:
328,176,41491,2,0,L|440:160,2,107.999996704102,2|2|0,0:0|0:0|0:0,0:0:0:0:
256,272,42091,6,0,L|248:312,2,35.9999989013672,0|0|0,1:0|1:0|1:0,0:0:0:0:
352,264,42391,2,0,L|344:299,2,35.9999989013672,0|0|0,1:0|1:0|1:0,0:0:0:0:
448,256,42691,5,0,1:0:0:0:
451,238,42766,1,0,1:0:0:0:
455,220,42841,1,0,1:0:0:0:
458,203,42916,1,0,1:0:0:0:
461,186,42991,2,0,P|461:146|444:111,1,71.9999978027344,0|0,1:0|1:0,0:0:0:0:
328,32,43291,5,6,0:0:0:0:
328,32,43441,2,0,P|272:80|168:72,1,180.000006866455
72,87,43891,2,0,P|47:125|42:169,1,90.0000034332277,2|0,0:0|0:0,0:0:0:0:
106,281,44191,2,0,P|130:244|136:200,1,90.0000034332277,2|0,0:0|0:0,0:0:0:0:
200,112,44491,5,2,0:0:0:0:
200,112,44641,2,0,P|256:160|360:152,1,180.000006866455
455,167,45091,2,0,P|479:204|484:248,1,90.0000034332277,2|0,0:0|0:0,0:0:0:0:
416,320,45391,2,0,P|391:282|386:238,1,90.0000034332277,2|0,0:0|0:0,0:0:0:0:
455,167,45691,5,2,0:0:0:0:
454,166,45841,2,0,P|465:79|413:9,1,180.000006866455
319,72,46291,2,0,P|319:116|339:155,1,90.0000034332277,2|0,0:0|0:0,0:0:0:0:
474,250,46591,2,0,P|474:205|454:166,1,90.0000034332277,2|0,0:0|0:0,0:0:0:0:
272,256,46891,6,0,L|360:288,1,90.0000034332277,2|0,0:0|0:0,0:0:0:0:
192,176,47191,2,0,L|280:144,1,90.0000034332277
112,256,47491,2,0,L|200:288,1,90.0000034332277,2|0,0:0|0:0,0:0:0:0:
32,176,47791,2,0,L|120:144,1,90.0000034332277,2|0,0:0|0:0,0:0:0:0:
276,145,48091,5,0,0:0:0:0:
276,145,48391,2,0,P|300:185|300:233,1,90.0000034332277,2|0,0:0|0:0,0:0:0:0:
208,328,48691,2,0,P|184:288|184:240,1,90.0000034332277,2|0,0:0|0:0,0:0:0:0:
276,145,48991,2,0,L|456:128,1,180.000006866455
432,256,49441,5,0,0:0:0:0:
432,256,49591,2,0,P|386:244|352:210,1,90.0000034332277,2|0,0:0|0:0,0:0:0:0:
272,58,49891,2,0,P|284:102|272:149,1,90.0000034332277,2|0,0:0|0:0,0:0:0:0:
236,239,50191,2,0,L|56:256,1,180.000006866455
275,144,50791,5,0,0:0:0:0:
480,296,51091,2,0,L|496:208,1,90.0000034332277
392,104,51391,2,0,L|376:192,1,90.0000034332277
256,192,51691,12,2,52891,0:0:0:0:
64,168,57125,5,2,0:0:0:0:
64,168,57276,1,2,0:0:0:0:
33,283,57428,1,2,0:0:0:0:
33,283,57579,1,2,0:0:0:0:
148,252,57701,6,0,P|176:200|176:136,1,120,4|0,1:0|0:0,0:0:0:0:
63,167,58151,1,0,1:0:0:0:
63,167,58451,1,0,1:0:0:0:
96,56,58601,2,0,P|152:24|264:56,1,180,4|0,0:0|0:0,0:0:0:0:
320,144,59201,6,0,L|280:152,3,30,8|8|8|8,0:0|0:0|0:0|0:0,0:0:0:0:
290,149,59501,2,0,L|281:208,1,60,2|0,3:0|3:0,0:0:0:0:
200,272,59801,2,0,L|191:331,1,60,0|0,1:0|1:0,0:0:0:0:
288,288,60101,5,2,3:0:0:0:
384,328,60251,1,2,0:0:0:0:
480,280,60401,2,0,P|488:248|488:216,1,60,0|0,1:0|0:0,0:0:0:0:
400,168,60701,2,0,P|392:136|392:104,1,60,0|0,1:0|1:0,0:0:0:0:
440,16,61001,1,2,3:0:0:0:
440,16,61301,5,0,1:0:0:0:
368,88,61451,2,0,P|336:96|304:96,1,60,8|0,1:2|1:0,0:0:0:0:
224,40,61751,2,0,P|192:32|160:32,1,60,8|0,0:0|1:0,0:0:0:0:
72,80,62051,2,0,P|43:63|21:40,2,60,0|0|0,0:0|1:0|1:0,0:0:0:0:
168,128,62501,5,4,1:0:0:0:
168,128,62801,2,0,L|176:184,1,48,0|0,1:0|0:0,0:0:0:0:
110,271,63101,2,0,L|104:224,1,48,0|0,1:0|0:0,0:0:0:0:
216,248,63401,2,0,L|224:304,1,48,0|0,1:0|0:0,0:0:0:0:
296,344,63701,6,0,P|322:356|352:360,1,48,4|4,1:0|1:0,0:0:0:0:
391,271,64001,2,0,P|419:261|442:242,1,48,0|0,1:0|0:0,0:0:0:0:
407,152,64301,2,0,P|420:125|424:95,1,48,4|4,1:0|1:0,0:0:0:0:
335,56,64601,2,0,P|325:28|306:5,1,48,0|0,1:0|0:0,0:0:0:0:
224,64,64901,6,0,L|168:56,1,48,0|0,1:0|0:0,0:0:0:0:
288,144,65201,2,0,L|294:191,1,48,4|0,1:0|0:0,0:0:0:0:
208,40,65501,2,0,L|152:32,1,48,0|0,1:0|0:0,0:0:0:0:
312,160,65801,2,0,L|318:207,1,48,0|0,1:0|0:0,0:0:0:0:
168,312,66101,6,0,P|137:275|126:228,1,96,4|0,1:0|1:0,0:0:0:0:
224,232,66551,1,4,3:0:0:0:
318,207,66701,1,4,0:0:0:0:
104,72,67301,6,0,P|104:96|112:120,1,48,0|0,1:0|1:0,0:0:0:0:
208,168,67601,2,0,P|208:144|200:120,2,48,2|0|2,1:3|1:0|1:3,0:0:0:0:
112,224,68051,1,0,1:0:0:0:
104,240,68351,6,0,L|120:336,1,96,0|4,1:0|3:0,0:0:0:0:
208,288,68801,2,0,L|236:283,3,24,2|0|0|0,3:0|0:0|1:0|1:0,0:0:0:0:
256,288,69101,2,0,P|276:300|299:307,1,48,0|2,1:0|0:3,0:0:0:0:
368,384,69401,2,0,P|380:363|387:340,1,48,0|2,1:0|0:3,0:0:0:0:
376,248,69701,6,0,P|353:205|354:158,1,96,0|0,1:0|0:0,0:0:0:0:
424,96,70151,1,2,0:3:0:0:
448,184,70301,2,0,L|496:192,1,48,2|0,1:3|0:0,0:0:0:0:
344,144,70601,2,0,L|296:152,1,48,0|0,1:0|0:0,0:0:0:0:
192,240,70901,6,0,L|195:264,3,24,0|0|0|0,1:0|0:0|1:0|0:0,0:0:0:0:
160,304,71201,2,0,L|164:328,3,24,0|0|2|0,1:0|0:0|1:3|0:0,0:0:0:0:
128,368,71501,1,4,0:0:0:0:
408,256,72101,5,0,1:0:0:0:
408,256,72401,1,0,1:0:0:0:
320,264,72551,1,0,1:0:0:0:
304,176,72701,2,0,L|296:112,1,60,0|0,1:0|1:0,0:0:0:0:
208,208,73001,2,0,L|216:272,1,60,8|8,0:0|0:0,0:0:0:0:
144,328,73301,6,0,L|112:336,2,30,0|0|8,1:0|1:0|0:0,0:0:0:0:
272,344,73601,2,0,L|301:336,2,30,0|0|8,1:0|1:0|0:0,0:0:0:0:
215,267,73901,2,0,L|185:263,3,30,0|0|0|0,1:0|1:0|1:0|1:0,0:0:0:0:
272,208,74201,2,0,L|268:178,3,30,8|8|8|8,0:0|0:0|0:0|0:0,0:0:0:0:
336,256,74501,6,0,P|344:256|464:240,1,120,0|8,1:0|0:0,0:0:0:0:
400,168,74951,1,0,0:0:0:0:
400,168,75101,2,0,P|402:138|401:108,1,60,0|8,1:0|0:0,0:0:0:0:
312,24,75401,2,0,P|310:53|313:83,1,60,0|0,1:0|1:0,0:0:0:0:
328,208,75701,5,0,1:0:0:0:
328,208,76001,1,0,1:0:0:0:
240,216,76151,1,0,1:0:0:0:
152,224,76301,1,8,1:2:0:0:
416,72,76901,6,0,L|440:136,1,60,0|0,1:0|1:0,0:0:0:0:
320,192,77201,2,0,L|341:135,1,60,8|2,0:0|3:0,0:0:0:0:
416,224,77501,2,0,L|440:288,1,60,0|0,1:0|1:0,0:0:0:0:
320,344,77801,2,0,L|341:287,1,60,8|0,0:0|1:0,0:0:0:0:
464,240,78101,6,0,L|504:232,3,30,0|0|8|0,1:0|1:0|1:2|1:0,0:0:0:0:
349,197,78401,2,0,L|309:189,3,30,0|0|0|0,1:0|1:0|1:0|1:0,0:0:0:0:
432,152,78701,2,0,P|440:128|440:88,1,60,0|8,1:0|0:0,0:0:0:0:
343,45,79001,2,0,P|343:75|352:104,1,60,0|8,1:0|0:0,0:0:0:0:
408,208,79301,5,0,1:0:0:0:
408,208,79451,1,0,1:0:0:0:
336,264,79601,2,0,P|308:273|272:272,1,60,8|0,0:0|1:0,0:0:0:0:
200,152,79901,2,0,P|221:170|238:203,1,60,0|8,1:0|0:0,0:0:0:0:
172,326,80201,2,0,P|177:297|197:266,1,60,0|2,1:0|3:0,0:0:0:0:
336,264,80501,6,0,P|400:264|448:224,1,120,0|8,1:0|1:2,0:0:0:0:
368,184,80951,1,0,1:0:0:0:
280,200,81101,2,0,P|266:173|265:143,1,60,0|0,1:0|1:0,0:0:0:0:
360,40,81401,2,0,P|358:69|345:96,1,60,0|0,1:0|0:0,0:0:0:0:
176,152,81701,6,0,L|152:16,1,135.000005149841,4|0,1:0|1:0,0:0:0:0:
281,54,82301,2,0,L|262:156,1,90.0000034332277,2|8,0:0|0:0,0:0:0:0:
128,320,82901,1,0,1:0:0:0:
128,320,83201,2,0,P|187:272|288:280,1,180.000006866455,0|8,0:0|0:0,0:0:0:0:
416,224,84101,6,0,B|356:134|256:136|256:136|152:136|111:48,1,360.000013732911,4|4,1:0|0:0,0:0:0:0:
416,224,86501,6,0,L|440:360,1,135.000005149841,4|0,1:0|1:0,0:0:0:0:
311,322,87101,2,0,L|330:220,1,90.0000034332277,8|8,0:0|0:0,0:0:0:0:
464,56,87701,1,0,1:0:0:0:
464,56,88001,2,0,P|405:104|304:96,1,180.000006866455,2|8,0:0|0:0,0:0:0:0:
82,135,88901,6,0,B|109:167|159:154|159:154|207:140|248:176,2,180.000006866455,4|0|0,1:0|1:0|1:0,0:0:0:0:
256,192,90176,12,4,91001,0:0:0:0:
232,312,91301,6,0,B|174:304|174:304|120:328|120:328|56:320,1,180.000006866455,6|0,0:0|0:0,0:0:0:0:
16,232,91751,1,0,0:0:0:0:
96,176,91901,2,0,B|153:168|153:168|208:192|208:192|272:184,1,180.000006866455,2|0,0:0|0:0,0:0:0:0:
360,224,92351,1,0,0:0:0:0:
440,168,92501,6,0,P|456:126|456:80,1,90.0000034332277,2|0,0:0|0:0,0:0:0:0:
328,16,92801,2,0,L|344:104,1,90.0000034332277,2|0,0:0|0:0,0:0:0:0:
270,184,93101,2,0,L|182:168,1,90.0000034332277,8|0,0:0|0:0,0:0:0:0:
80,144,93401,1,2,0:0:0:0:
80,144,93701,6,0,B|112:200|112:200|88:320,1,180.000006866455,6|0,0:0|0:0,0:0:0:0:
184,288,94151,1,0,0:0:0:0:
184,288,94301,2,0,B|226:270|226:270|272:280,1,90.0000034332277,2|0,0:0|0:0,0:0:0:0:
328,360,94601,2,0,B|286:377|286:377|240:368,1,90.0000034332277,2|0,0:0|0:0,0:0:0:0:
368,272,94901,6,0,L|376:176,1,90.0000034332277
472,280,95201,2,0,L|464:369,1,90.0000034332277
328,360,95501,1,8,0:0:0:0:
328,360,95801,1,0,0:0:0:0:
368,272,95951,1,0,0:0:0:0:
456,232,96101,6,0,L|504:224,7,45.0000017166138,6|0|0|0|0|0|0|0,0:0|0:0|0:0|0:0|0:0|0:0|0:0|0:0,0:0:0:0:
384,192,96701,2,0,L|336:184,7,45.0000017166138,2|0|0|0|0|0|0|0,0:0|0:0|0:0|0:0|0:0|0:0|0:0|0:0,0:0:0:0:
456,152,97301,6,0,L|464:104,7,45.0000017166138,2|0|0|0|0|0|0|0,0:0|0:0|0:0|0:0|0:0|0:0|0:0|0:0,0:0:0:0:
384,64,97901,2,0,L|376:108,7,45.0000017166138,8|0|0|0|0|0|0|0,0:0|0:0|0:0|0:0|0:0|0:0|0:0|0:0,0:0:0:0:
339,184,98501,6,0,L|248:168,1,90.0000034332277,2|0,0:0|0:0,0:0:0:0:
144,144,98801,2,0,P|132:186|142:230,1,90.0000034332277,2|0,0:0|0:0,0:0:0:0:
232,288,99101,2,0,L|328:304,1,90.0000034332277,2|0,0:0|0:0,0:0:0:0:
248,384,99401,2,0,L|159:369,1,90.0000034332277,2|0,0:0|0:0,0:0:0:0:
16,352,99701,5,0,0:0:0:0:
96,296,99851,2,0,P|124:197|112:120,1,180.000006866455
32,64,100301,2,0,P|16:112|24:160,1,90.0000034332277,4|0,0:2|0:0,0:0:0:0:
112,256,100601,2,0,L|168:264,3,45.0000017166138
192,248,100901,6,0,P|227:242|262:250,1,71.9999978027344,2|0,0:0|0:0,0:0:0:0:
336,304,101201,2,0,P|357:275|365:240,1,71.9999978027344,8|0,0:0|1:0,0:0:0:0:
312,168,101501,2,0,P|283:122|279:69,2,107.999996704102,8|8|8,0:0|0:0|0:0,0:0:0:0:
365,240,102101,6,0,L|421:232,2,35.9999989013672,0|0|0,1:0|1:0|1:0,0:0:0:0:
296,296,102401,2,0,L|312:368,1,71.9999978027344,8|8,0:1|0:1,0:0:0:0:
208,312,102701,2,0,L|136:328,1,71.9999978027344
192,224,103001,2,0,L|176:153,1,71.9999978027344,0|0,1:0|0:0,0:0:0:0:
272,176,103301,5,0,1:0:0:0:
272,176,103376,1,0,1:0:0:0:
272,176,103451,1,0,1:0:0:0:
352,224,103601,1,2,0:0:0:0:
432,176,103751,1,2,0:0:0:0:
352,128,103901,2,0,L|360:48,1,71.9999978027344,0|8,1:0|0:1,0:0:0:0:
512,232,104201,2,0,L|504:303,1,71.9999978027344,8|0,0:1|0:0,0:0:0:0:
328,352,104501,5,0,1:0:0:0:
328,352,104801,1,0,1:0:0:0:
240,328,104951,1,0,1:0:0:0:
160,368,105101,2,0,L|88:344,1,71.9999978027344,0|8,0:0|0:1,0:0:0:0:
8,312,105401,1,2,0:3:0:0:
198,207,105701,6,0,L|206:167,4,35.9999989013672,0|0|0|0|0,1:0|0:0|0:0|0:0|0:0,0:0:0:0:
175,297,106151,2,0,L|160:367,1,71.9999978027344,0|0,1:0|0:0,0:0:0:0:
304,136,106601,2,0,L|318:65,1,71.9999978027344,8|0,0:0|0:0,0:0:0:0:
456,88,106901,6,0,L|420:93,3,35.9999989013672,0|8|0|8,1:0|1:0|1:0|1:0,0:0:0:0:
400,128,107201,2,0,L|405:163,3,35.9999989013672,0|0|0|0,1:0|1:0|1:0|1:0,0:0:0:0:
224,32,107651,1,8,0:0:0:0:
128,48,107801,1,8,0:0:0:0:
32,64,107951,1,8,0:0:0:0:
88,136,108101,5,2,1:2:0:0:
88,136,108251,1,2,1:2:0:0:
192,120,108401,1,2,1:2:0:0:
192,120,108551,1,2,1:2:0:0:
280,184,108701,1,2,1:2:0:0:
280,184,108851,1,2,1:2:0:0:
384,168,109001,1,2,1:2:0:0:
384,168,109151,1,2,1:2:0:0:
472,224,109301,6,0,L|472:272,8,35.9999989013672,0|0|0|0|0|0|0|0|0,1:0|1:0|1:0|1:0|1:0|1:0|1:0|1:0|1:0,0:0:0:0:
64,240,110501,5,0,0:0:0:0:
50,157,110651,1,2,0:0:0:0:
133,143,110801,1,0,0:0:0:0:
146,226,110951,1,0,0:0:0:0:
224,256,111101,2,0,L|232:328,1,60
312,296,111401,2,0,L|352:296,3,30
360,312,111701,6,0,P|370:274|368:248,1,60,0|2,0:0|0:0,0:0:0:0:
296,216,112001,2,0,P|286:187|286:157,1,60
344,96,112301,1,2,0:0:0:0:
368,176,112451,1,2,0:0:0:0:
432,112,112601,1,2,0:0:0:0:
456,192,112751,1,2,0:0:0:0:
400,256,112901,5,0,0:0:0:0:
400,256,113051,2,0,L|416:320,1,60,2|0,0:0|0:0,0:0:0:0:
280,376,113351,1,2,0:0:0:0:
280,376,113501,2,0,L|296:312,1,60,2|0,0:0|0:0,0:0:0:0:
232,232,113801,2,0,L|168:240,1,60,2|2,0:0|0:0,0:0:0:0:
96,176,114101,6,0,P|87:147|85:117,1,60,0|2,0:0|0:0,0:0:0:0:
216,96,114401,2,0,P|224:124|226:154,1,60
172,239,114701,1,0,0:0:0:0:
172,239,115001,1,0,0:0:0:0:
344,128,115301,6,0,L|336:96,2,30
456,272,115751,1,2,0:0:0:0:
456,272,115901,2,0,L|463:301,1,30
352,360,116201,2,0,L|360:328,2,30,0|0|2,0:0|0:0|0:0,0:0:0:0:
368,304,116501,6,0,P|368:272|360:240,1,60,2|2,0:0|0:0,0:0:0:0:
264,168,116801,1,0,0:0:0:0:
264,168,116951,2,0,P|264:200|272:232,1,60,2|0,0:0|0:0,0:0:0:0:
208,304,117251,1,0,0:0:0:0:
208,304,117401,2,0,L|144:296,1,60,2|0,0:0|0:0,0:0:0:0:
56,280,117701,6,0,L|16:272,2,30
120,216,118001,1,2,0:0:0:0:
64,144,118151,1,2,0:0:0:0:
128,80,118301,2,0,L|192:72,2,60
256,192,118901,5,0,0:0:0:0:
275,194,119201,1,0,0:0:0:0:
294,196,119501,1,0,0:0:0:0:
313,199,119801,1,0,0:0:0:0:
