osu file format v14

[General]
AudioFilename: audio.mp3
AudioLeadIn: 0
PreviewTime: 4891
Countdown: 0
SampleSet: Normal
StackLeniency: 0.7
Mode: 0
LetterboxInBreaks: 0
WidescreenStoryboard: 0

[Editor]
Bookmarks: 9691,14491,19291,23491,24091,31291,36091,38491,40891,48091,51691,60091,62491,64891,67291,72091,72991,76891,81091,81691,84091,86491,88891,91291,96091,98491,100891,105691,109291,110491,115291,118891
DistanceSpacing: 0.4
BeatDivisor: 4
GridSize: 16
TimelineZoom: 3.699999

[Metadata]
Title:Polssia!
TitleUnicode:Polssia!
Artist:odaxelagnia
ArtistUnicode:odaxelagnia
Creator:deadpon3
Version:MrKOSIEJa Szalony
Source:
Tags:polish breakcore hardcore jungle rave speedcore skrd!!! Krfawy Chalwa MrKOSIEJ XVoIR ReFaller
BeatmapID:1168218
BeatmapSetID:551399

[Difficulty]
HPDrainRate:6.2
CircleSize:3.6
OverallDifficulty:7.6
ApproachRate:9.2
SliderMultiplier:1.4
SliderTickRate:1

[Events]
//Background and Video events
0,0,"iksde.png",0,0
//Break Periods
//Storyboard Layer 0 (Background)
//Storyboard Layer 1 (Fail)
//Storyboard Layer 2 (Pass)
//Storyboard Layer 3 (Foreground)
//Storyboard Sound Samples

[TimingPoints]
91,300,4,1,0,80,1,0
4891,-100,4,1,0,100,0,0
7216,-100,4,1,0,5,0,0
7291,-100,4,1,0,100,0,0
12091,-76.9230769230769,4,1,0,100,0,0
21991,-71.4285714285714,4,1,0,100,0,0
24616,-71.4285714285714,4,1,0,5,0,0
24691,-71.4285714285714,4,1,0,100,0,0
24916,-71.4285714285714,4,1,0,5,0,0
24991,-71.4285714285714,4,1,0,100,0,0
25216,-71.4285714285714,4,1,0,5,0,0
25291,-71.4285714285714,4,1,0,100,0,0
26491,-133.333333333333,4,1,0,100,0,0
27691,-133.333333333333,4,1,0,25,0,0
28741,-133.333333333333,4,1,0,100,0,0
29491,-133.333333333333,4,1,0,80,0,0
29566,-133.333333333333,4,1,0,60,0,0
29641,-133.333333333333,4,1,0,40,0,0
29716,-133.333333333333,4,1,0,20,0,0
29791,-133.333333333333,4,1,0,10,0,0
29941,-133.333333333333,4,1,0,100,0,0
33691,-66.6666666666667,4,1,0,100,0,0
35116,-66.6666666666667,4,1,0,5,0,0
35191,-66.6666666666667,4,1,0,100,0,0
43291,-66.6666666666667,4,1,0,100,0,1
52891,-100,4,1,0,50,0,0
52921,303.030303030303,4,1,0,80,1,0
57125,303.030303030303,4,1,0,80,1,0
57691,-100,4,1,0,100,0,0
57701,300,4,1,0,80,1,0
83116,-100,4,1,0,5,0,0
83191,-100,4,1,0,100,0,0
83416,-100,4,1,0,5,0,0
83491,-100,4,1,0,100,0,0
87916,-100,4,1,0,10,0,0
87991,-100,4,1,0,100,0,0
88216,-100,4,1,0,5,0,0
88291,-100,4,1,0,100,0,0
91301,-71.4285714285714,4,1,0,100,0,1
100516,-100,4,1,0,5,0,0
100591,-100,4,1,0,100,0,0
100816,-100,4,1,0,5,0,0
100891,-100,4,1,0,100,0,0
110351,-100,4,2,0,100,0,0
118441,-100,4,2,0,70,0,0
118591,-100,4,2,0,40,0,0
118891,-100,4,2,0,100,0,0
119191,-100,4,2,0,70,0,0
119491,-100,4,2,0,40,0,0

[Colours]
Combo1 : 255,0,0
Combo2 : 255,255,255

[HitObjects]
320,140,91,6,0,P|346:168|360:219,1,70,2|0,0:0|0:0,0:0:0:0:
365,301,391,1,8,0:0:0:0:
315,284,466,1,0,0:0:0:0:
315,231,541,1,0,0:0:0:0:
357,197,616,1,0,0:0:0:0:
405,217,691,6,0,P|414:163|428:146,1,70,2|0,0:0|0:0,0:0:0:0:
362,64,991,2,0,P|353:10|339:-7,1,70,8|0,0:0|0:0,0:0:0:0:
448,13,1291,5,2,0:0:0:0:
320,140,1441,1,0,0:0:0:0:
175,41,1591,5,8,0:0:0:0:
168,75,1666,1,0,0:0:0:0:
150,105,1741,1,0,0:0:0:0:
123,128,1816,1,0,0:0:0:0:
90,141,1891,5,2,0:0:0:0:
448,13,2191,1,4,0:0:0:0:
90,141,2491,6,0,P|57:175|48:204,1,70,2|0,0:0|0:0,0:0:0:0:
150,228,2791,1,8,0:0:0:0:
200,213,2866,1,0,0:0:0:0:
222,165,2941,1,0,0:0:0:0:
213,113,3016,1,0,0:0:0:0:
172,79,3091,6,0,L|247:79,1,70,2|0,0:0|0:0,0:0:0:0:
369,137,3391,2,0,L|294:137,1,70,8|0,0:0|0:0,0:0:0:0:
337,39,3691,5,2,0:0:0:0:
222,165,3841,1,0,0:0:0:0:
374,251,3991,5,8,0:0:0:0:
339,257,4066,1,0,0:0:0:0:
309,275,4141,1,0,0:0:0:0:
288,303,4216,1,0,0:0:0:0:
283,337,4291,5,4,0:0:0:0:
175,247,4441,1,0,0:0:0:0:
365,336,4591,5,8,0:0:0:0:
222,165,4741,1,0,0:0:0:0:
124,335,4891,6,0,P|85:297|77:272,1,70,4|0,0:0|0:0,0:0:0:0:
57,87,5191,2,0,P|96:125|104:150,1,70,8|0,0:0|0:0,0:0:0:0:
219,298,5491,6,0,P|180:260|172:235,1,70,4|0,0:0|0:0,0:0:0:0:
152,50,5791,2,0,P|191:88|199:113,1,70,8|0,0:0|0:0,0:0:0:0:
312,261,6091,6,0,P|298:205|310:152,1,105,2|0,0:0|0:0,0:0:0:0:
328,111,6391,1,8,0:0:0:0:
204,177,6541,1,0,0:0:0:0:
412,203,6691,6,0,P|447:232|457:274,1,70,2|0,0:0|0:0,0:0:0:0:
276,366,6991,2,0,P|225:353|181:315,1,105,8|0,0:0|0:0,0:0:0:0:
80,307,7291,6,0,P|131:320|175:358,1,105,4|0,0:0|0:0,0:0:0:0:
185,320,7591,5,8,0:0:0:0:
269,257,7741,1,0,0:0:0:0:
276,366,7891,5,2,0:0:0:0:
179,219,8041,1,0,0:0:0:0:
353,203,8191,2,0,L|411:269,1,70,8|0,0:0|0:0,0:0:0:0:
283,122,8491,5,2,0:0:0:0:
283,122,8641,1,0,0:0:0:0:
269,257,8791,5,8,0:0:0:0:
269,257,8941,1,0,0:0:0:0:
380,121,9091,5,2,0:0:0:0:
61,265,9391,1,8,0:0:0:0:
380,122,9691,6,0,B|410:153|410:153|451:171,1,70,4|0,0:0|0:0,0:0:0:0:
321,300,9991,2,0,B|290:265|290:265|250:251,1,70,8|0,0:0|0:0,0:0:0:0:
205,93,10291,6,0,B|234:125|234:125|276:142,1,70,4|0,0:0|0:0,0:0:0:0:
146,271,10591,2,0,B|117:239|117:239|75:222,1,70,8|0,0:0|0:0,0:0:0:0:
57,56,10891,6,0,L|145:151,1,105,4|8,0:0|0:0,0:0:0:0:
151,159,11191,1,8,0:0:0:0:
143,19,11341,1,0,0:0:0:0:
36,157,11491,5,4,0:0:0:0:
45,261,11641,1,0,0:0:0:0:
140,304,11791,1,8,0:0:0:0:
455,328,12091,6,0,L|367:233,1,90.9999958343508,4|0,0:0|0:0,0:0:0:0:
361,225,12391,1,8,0:0:0:0:
369,365,12541,1,0,0:0:0:0:
476,227,12691,5,8,0:0:0:0:
467,123,12841,1,0,0:0:0:0:
372,80,12991,1,4,0:0:0:0:
234,315,13291,5,0,0:0:0:0:
234,315,13441,1,0,0:0:0:0:
150,206,13591,5,0,0:0:0:0:
150,206,13741,1,0,0:0:0:0:
185,74,13891,5,8,0:0:0:0:
116,338,14191,1,4,0:0:0:0:
185,74,14491,6,0,L|259:153,1,90.9999958343508,4|0,0:0|0:0,0:0:0:0:
430,145,14791,2,0,L|356:66,1,90.9999958343508,8|0,0:0|0:0,0:0:0:0:
263,229,15091,6,0,L|337:308,1,90.9999958343508,4|0,0:0|0:0,0:0:0:0:
508,300,15391,2,0,L|434:221,1,90.9999958343508,8|0,0:0|0:0,0:0:0:0:
367,78,15691,6,0,P|291:57|227:77,1,136.499993751526,4|0,0:0|0:0,0:0:0:0:
199,99,15991,1,8,0:0:0:0:
289,201,16141,1,0,0:0:0:0:
136,31,16291,5,8,0:0:0:0:
88,108,16441,1,0,0:0:0:0:
131,187,16591,1,4,0:0:0:0:
403,209,16891,6,0,P|378:269|306:326,1,136.499993751526,4|0,0:0|0:0,0:0:0:0:
280,322,17191,1,8,0:0:0:0:
411,360,17341,1,0,0:0:0:0:
289,201,17491,5,4,0:0:0:0:
277,110,17641,1,0,0:0:0:0:
352,59,17791,1,8,0:0:0:0:
437,91,17941,1,0,0:0:0:0:
363,144,18091,5,4,0:0:0:0:
363,144,18241,1,0,0:0:0:0:
181,162,18391,5,8,0:0:0:0:
181,162,18541,1,0,0:0:0:0:
89,319,18691,5,8,0:0:0:0:
276,7,18991,1,8,0:0:0:0:
89,319,19291,6,0,L|148:319,1,45.4999979171754,4|0,0:0|0:0,0:0:0:0:
220,347,19441,2,0,L|161:347,1,45.4999979171754,0|0,0:0|0:0,0:0:0:0:
106,286,19591,6,0,L|165:286,1,45.4999979171754,8|0,0:0|0:0,0:0:0:0:
237,314,19741,2,0,L|178:314,1,45.4999979171754,0|0,0:0|0:0,0:0:0:0:
212,225,19891,5,4,0:0:0:0:
347,237,20041,1,0,0:0:0:0:
416,354,20191,5,8,0:0:0:0:
454,176,20341,1,0,0:0:0:0:
272,157,20491,6,0,P|203:137|144:168,1,136.499993751526,4|0,0:0|0:0,0:0:0:0:
212,225,20791,1,8,0:0:0:0:
288,60,20941,1,0,0:0:0:0:
107,84,21091,5,8,0:0:0:0:
59,161,21241,1,2,0:0:0:0:
103,240,21391,1,8,0:0:0:0:
432,86,21691,6,0,P|472:152|458:227,1,136.499993751526,4|0,0:0|0:0,0:0:0:0:
376,169,21991,1,8,0:0:0:0:
504,20,22141,1,0,0:0:0:0:
466,208,22291,5,8,0:0:0:0:
399,280,22441,1,0,0:0:0:0:
304,252,22591,1,8,0:0:0:0:
258,61,22891,5,4,0:0:0:0:
258,61,23041,1,0,0:0:0:0:
111,191,23191,5,8,0:0:0:0:
111,191,23341,1,0,0:0:0:0:
228,372,23491,6,0,L|269:372,7,24.4999992523194,2|0|0|0|0|0|0|0,0:0|0:0|0:0|0:0|0:0|0:0|0:0|0:0,0:0:0:0:
255,334,23791,2,0,L|293:334,7,24.4999992523194,2|0|0|0|0|0|0|0,0:0|0:0|0:0|0:0|0:0|0:0|0:0|0:0,0:0:0:0:
279,296,24091,5,4,0:0:0:0:
134,320,24241,1,0,0:0:0:0:
224,204,24391,1,8,0:0:0:0:
365,243,24541,2,0,L|421:257,1,48.9999985046387,0|0,0:0|0:0,0:0:0:0:
479,223,24691,6,0,L|328:187,1,146.999995513916,4|0,0:0|0:0,0:0:0:0:
291,130,24991,2,0,L|433:164,1,146.999995513916,8|0,0:0|0:0,0:0:0:0:
392,103,25291,5,4,0:0:0:0:
250,238,25441,1,2,0:0:0:0:
224,279,25591,1,8,0:0:0:0:
195,319,25741,1,0,0:0:0:0:
340,296,25891,5,4,0:0:0:0:
195,319,26191,1,8,0:0:0:0:
340,296,26491,5,4,0:0:0:0:
388,234,26641,1,0,0:0:0:0:
375,156,26791,1,8,0:0:0:0:
308,113,26941,1,0,0:0:0:0:
283,215,27091,5,4,0:0:0:0:
388,234,27241,1,0,0:0:0:0:
463,161,27391,1,8,0:0:0:0:
425,62,27541,1,0,0:0:0:0:
375,156,27691,5,2,0:2:0:0:
430,303,27841,1,0,0:0:0:0:
378,314,27991,1,0,0:0:0:0:
326,326,28141,1,0,0:0:0:0:
225,293,28291,6,0,P|166:330|96:316,1,131.25000500679,0|0,0:0|0:0,0:0:0:0:
85,307,28741,1,2,0:0:0:0:
150,224,28891,5,4,0:0:0:0:
270,172,29041,1,0,0:0:0:0:
225,293,29191,1,8,0:0:0:0:
191,139,29341,1,0,0:0:0:0:
324,55,29491,5,0,0:2:0:0:
360,53,29566,5,0,0:2:0:0:
392,69,29641,5,0,0:2:0:0:
409,101,29716,5,0,0:2:0:0:
412,137,29791,5,0,0:2:0:0:
479,56,29941,1,2,0:2:0:0:
479,239,30091,2,0,L|435:296,1,52.5000020027161,4|0,0:0|0:0,0:0:0:0:
341,125,30541,1,8,0:0:0:0:
479,239,31141,5,2,0:2:0:0:
329,345,31291,2,0,L|266:344,1,52.5000020027161,4|0,0:0|0:0,0:0:0:0:
341,125,31741,1,8,0:0:0:0:
329,345,32491,5,8,0:0:0:0:
198,216,32641,1,2,0:0:0:0:
381,231,32791,5,8,0:0:0:0:
225,328,32941,1,0,0:0:0:0:
261,147,33091,5,2,0:0:0:0:
225,328,33241,1,0,0:0:0:0:
86,207,33391,2,0,L|85:137,1,52.5000020027161,8|0,0:0|0:0,0:0:0:0:
87,313,33691,6,0,P|141:268|188:253,1,105.000004005432,4|0,0:0|0:0,0:0:0:0:
172,151,33991,1,8,0:0:0:0:
225,328,34141,1,0,0:0:0:0:
373,179,34291,6,0,L|328:59,1,105.000004005432,4|0,0:0|0:0,0:0:0:0:
416,276,34591,1,8,0:0:0:0:
439,120,34741,1,0,0:0:0:0:
272,262,34891,6,0,P|237:192|150:145,1,157.500006008148,4|0,0:0|0:0,0:0:0:0:
119,143,35191,1,8,0:0:0:0:
253,61,35341,1,2,0:0:0:0:
163,250,35491,6,0,P|185:319|213:346,1,105.000004005432,4|0,0:0|0:0,0:0:0:0:
332,347,35791,1,8,0:0:0:0:
381,231,35941,1,0,0:0:0:0:
163,250,36091,6,0,P|112:283|86:325,1,105.000004005432,4|0,0:0|0:0,0:0:0:0:
88,319,36391,2,0,P|54:278|40:228,1,105.000004005432,8|0,0:0|0:0,0:0:0:0:
272,262,36691,6,0,P|339:223|360:184,1,105.000004005432,4|0,0:0|0:0,0:0:0:0:
367,150,36916,1,0,0:0:0:0:
360,97,36991,1,8,0:0:0:0:
454,222,37141,1,0,0:0:0:0:
252,163,37291,6,0,P|227:108|233:56,1,105.000004005432,4|0,0:0|0:0,0:0:0:0:
142,257,37591,2,0,P|167:312|161:364,1,105.000004005432,8|0,0:0|0:0,0:0:0:0:
83,161,37891,6,0,P|58:106|64:54,1,105.000004005432,4|2,0:0|0:0,0:0:0:0:
99,25,38116,1,0,0:0:0:0:
142,53,38191,1,8,0:0:0:0:
41,237,38341,1,0,0:0:0:0:
252,163,38491,5,4,0:0:0:0:
83,161,38641,1,0,0:0:0:0:
252,163,38941,5,0,0:0:0:0:
70,312,39091,2,0,P|126:348|178:355,1,105.000004005432,2|0,0:2|0:0,0:0:0:0:
155,249,39391,1,8,0:2:0:0:
253,286,39541,1,0,0:0:0:0:
351,321,39691,6,0,L|344:208,1,105.000004005432,4|0,0:0|0:0,0:0:0:0:
436,166,39991,2,0,L|439:205,4,26.2500010013581,8|0|0|0|0,0:0|0:0|0:0|0:0|0:0,0:0:0:0:
247,181,40291,6,0,L|254:308,1,105.000004005432,4|0,0:0|0:0,0:0:0:0:
242,76,40591,1,8,0:0:0:0:
436,166,40741,1,0,0:0:0:0:
128,97,40891,6,0,P|120:148|133:220,1,105.000004005432,4|0,0:0|0:0,0:0:0:0:
23,320,41191,2,0,P|30:268|18:197,1,105.000004005432,8|0,0:0|0:0,0:0:0:0:
224,154,41491,6,0,L|335:152,1,105.000004005432,4|0,0:0|0:0,0:0:0:0:
379,166,41716,1,0,0:0:0:0:
436,166,41791,1,8,0:0:0:0:
376,79,41941,1,0,0:0:0:0:
335,285,42091,6,0,L|322:350,2,52.5000020027161,4|0|0,0:0|0:0|0:0,0:0:0:0:
230,298,42391,2,0,L|217:363,2,52.5000020027161,8|0|0,0:0|0:0|0:0,0:0:0:0:
172,210,42691,6,0,L|185:145,2,52.5000020027161,8|0|8,0:0|0:0|0:0,0:0:0:0:
277,197,42991,2,0,L|290:132,2,52.5000020027161,8|0|8,0:0|0:0|0:0,0:0:0:0:
103,317,43291,6,0,P|61:263|49:211,1,105.000004005432,0|0,0:0|0:0,0:0:0:0:
99,77,43591,1,8,0:0:0:0:
172,210,43741,1,2,0:0:0:0:
103,317,43891,6,0,L|217:317,1,105.000004005432,4|0,0:0|0:0,0:0:0:0:
366,314,44191,2,0,L|411:313,7,26.2500010013581,8|0|0|0|0|0|0|0,0:0|0:0|0:0|0:0|0:0|0:0|0:0|0:0,0:0:0:0:
401,274,44491,6,0,P|461:254|489:219,1,105.000004005432,4|0,0:0|0:0,0:0:0:0:
471,348,44791,1,8,0:0:0:0:
400,172,44941,1,2,0:0:0:0:
223,239,45091,6,0,P|225:310|254:349,1,105.000004005432,4|0,0:0|0:0,0:0:0:0:
120,192,45391,2,0,L|120:147,7,26.2500010013581,4|0|0|0|0|0|0|0,0:0|0:0|0:0|0:0|0:0|0:0|0:0|0:0,0:0:0:0:
90,192,45691,6,0,L|92:303,1,105.000004005432,4|0,0:0|0:0,0:0:0:0:
300,274,45991,2,0,L|337:245,4,26.2500010013581,8|0|0|0|0,0:0|0:0|0:0|0:0|0:0,0:0:0:0:
469,148,46291,1,0,0:0:0:0:
311,142,46441,2,0,L|287:115,3,26.2500010013581,0|0|0|0,0:0|0:0|0:0|0:0,0:0:0:0:
333,121,46591,2,0,L|357:148,3,26.2500010013581,8|0|0|0,0:0|0:0|0:0|0:0,0:0:0:0:
353,100,46741,2,0,L|318:65,3,26.2500010013581,0|0|0|0,0:0|0:0|0:0|0:0,0:0:0:0:
374,81,46891,5,4,0:0:0:0:
469,148,47041,1,0,0:0:0:0:
479,263,47191,1,8,0:0:0:0:
397,345,47341,1,0,0:0:0:0:
300,274,47491,5,4,0:0:0:0:
161,348,47641,1,0,0:0:0:0:
47,239,47791,1,8,0:0:0:0:
111,95,47941,1,0,0:0:0:0:
267,113,48091,6,0,L|186:205,1,105.000004005432,4|0,0:0|0:0,0:0:0:0:
300,274,48391,2,0,L|381:182,1,105.000004005432,8|0,0:0|0:0,0:0:0:0:
111,95,48691,5,4,0:0:0:0:
59,186,48841,1,0,0:0:0:0:
75,289,48991,1,8,0:0:0:0:
155,356,49141,1,0,0:0:0:0:
258,346,49291,6,0,P|223:300|222:238,1,105.000004005432,4|0,0:0|0:0,0:0:0:0:
233,149,49591,2,0,L|241:103,7,26.2500010013581,8|0|0|0|0|0|0|0,0:0|0:0|0:0|0:0|0:0|0:0|0:0|0:0,0:0:0:0:
266,150,49891,5,4,0:0:0:0:
318,144,49966,1,0,0:0:0:0:
350,103,50041,1,2,0:0:0:0:
349,50,50116,1,0,0:0:0:0:
311,13,50191,5,8,0:0:0:0:
441,101,50341,1,0,0:0:0:0:
348,228,50491,6,0,P|336:291|356:339,1,105.000004005432,4|0,0:0|0:0,0:0:0:0:
164,227,50791,2,0,P|176:290|156:338,1,105.000004005432,8|0,0:0|0:0,0:0:0:0:
437,171,51091,6,0,P|449:234|429:282,1,105.000004005432,8|0,0:0|0:0,0:0:0:0:
82,172,51391,2,0,P|70:235|90:283,1,105.000004005432,8|0,0:0|0:0,0:0:0:0:
256,192,51691,12,0,52741,0:0:0:0:
255,192,52921,6,0,L|255:274,1,70,0|0,0:0|0:0,0:0:0:0:
179,144,53224,2,0,L|179:62,1,70,0|0,0:0|0:0,0:0:0:0:
167,227,53527,6,0,L|167:309,1,70,0|0,0:0|0:0,0:0:0:0:
91,179,53830,2,0,L|91:97,1,70,0|0,0:0|0:0,0:0:0:0:
82,262,54133,6,0,P|78:317|92:350,1,70,0|0,0:0|0:0,0:0:0:0:
251,332,54436,2,0,P|255:277|241:244,1,70,0|0,0:0|0:0,0:0:0:0:
173,113,54739,6,0,P|169:168|183:201,1,70,0|0,0:0|0:0,0:0:0:0:
342,183,55042,2,0,P|346:128|332:95,1,70,0|0,0:0|0:0,0:0:0:0:
344,283,55345,6,0,B|351:326|351:326|376:353,1,70,0|0,0:0|0:0,0:0:0:0:
479,218,55648,2,0,B|472:175|472:175|447:148,1,70,0|0,0:0|0:0,0:0:0:0:
258,140,55951,6,0,B|265:183|265:183|290:210,1,70,0|0,0:0|0:0,0:0:0:0:
393,75,56254,2,0,B|386:32|386:32|361:5,1,70,0|0,0:0|0:0,0:0:0:0:
175,49,56557,6,0,L|124:118,1,70,0|0,0:0|0:0,0:0:0:0:
15,262,56860,2,0,L|66:193,1,70,0|0,0:0|0:0,0:0:0:0:
180,178,57125,5,2,0:0:0:0:
167,282,57276,1,0,0:0:0:0:
246,351,57428,1,8,0:0:0:0:
350,352,57579,1,0,0:0:0:0:
424,277,57701,5,4,0:0:0:0:
424,277,58151,1,0,0:0:0:0:
416,67,58451,5,0,0:0:0:0:
321,112,58601,1,8,0:0:0:0:
311,216,58751,1,0,0:0:0:0:
221,161,58901,6,0,L|221:135,7,17.5,8|0|0|0|0|0|0|0,0:0|0:0|0:0|0:0|0:0|0:0|0:0|0:0,0:0:0:0:
190,162,59201,2,0,L|190:188,7,17.5,8|0|0|0|0|0|0|0,0:0|0:0|0:0|0:0|0:0|0:0|0:0|0:0,0:0:0:0:
159,161,59501,5,8,0:0:0:0:
239,275,59651,1,0,0:0:0:0:
102,243,59801,6,0,L|72:215,1,35,8|0,0:0|0:0,0:0:0:0:
60,287,59951,2,0,L|34:263,1,35,0|0,0:0|0:0,0:0:0:0:
17,330,60101,5,8,0:0:0:0:
154,304,60251,1,0,0:0:0:0:
159,161,60401,2,0,L|101:108,1,70,2|0,0:0|0:0,0:0:0:0:
243,81,60701,5,8,0:0:0:0:
270,103,60776,1,0,0:0:0:0:
297,125,60851,1,0,0:0:0:0:
323,147,60926,1,0,0:0:0:0:
356,136,61001,2,0,L|291:79,1,70,8|0,0:0|0:0,0:0:0:0:
443,89,61301,5,4,0:0:0:0:
417,226,61451,1,0,0:0:0:0:
417,226,61526,1,0,0:0:0:0:
417,226,61601,1,8,0:0:0:0:
407,252,61676,1,0,0:0:0:0:
386,271,61751,1,0,0:0:0:0:
360,281,61826,1,0,0:0:0:0:
332,279,61901,5,8,0:0:0:0:
407,351,62051,1,0,0:0:0:0:
348,208,62201,2,0,L|331:160,1,35,2|0,0:0|0:0,0:0:0:0:
283,182,62351,2,0,L|266:134,1,35,0|0,0:0|0:0,0:0:0:0:
219,162,62501,5,4,0:0:0:0:
335,84,62651,1,0,0:0:0:0:
436,180,62801,1,8,0:0:0:0:
440,214,62876,1,0,0:0:0:0:
431,248,62951,1,0,0:0:0:0:
412,277,63026,1,0,0:0:0:0:
383,297,63101,6,0,P|339:311|305:304,1,70,8|0,0:0|0:0,0:0:0:0:
281,218,63401,2,0,P|325:204|359:211,1,70,2|0,0:0|0:0,0:0:0:0:
238,294,63701,6,0,P|199:245|199:216,1,70,4|0,0:0|0:0,0:0:0:0:
61,209,64001,2,0,P|100:258|100:287,1,70,8|0,0:0|0:0,0:0:0:0:
127,125,64301,5,2,0:0:0:0:
189,40,64451,1,0,0:0:0:0:
289,9,64601,1,8,0:0:0:0:
392,26,64751,1,0,0:0:0:0:
474,90,64901,5,8,0:0:0:0:
443,106,64976,1,0,0:0:0:0:
426,136,65051,1,0,0:0:0:0:
427,170,65126,1,0,0:0:0:0:
443,201,65201,2,0,P|404:193|357:205,1,70,8|0,0:0|0:0,0:0:0:0:
406,348,65501,6,0,L|405:264,1,70,8|0,0:0|0:0,0:0:0:0:
282,184,65801,2,0,L|283:268,1,70,8|0,0:0|0:0,0:0:0:0:
342,112,66101,6,0,P|303:73|278:62,1,70,8|0,0:0|0:0,0:0:0:0:
356,13,66401,1,0,0:0:0:0:
220,124,66551,1,0,0:0:0:0:
424,76,66701,1,2,0:0:0:0:
220,124,67301,6,0,L|136:140,1,70,8|0,0:0|0:0,0:0:0:0:
62,245,67601,2,0,L|146:229,1,70,8|0,0:0|0:0,0:0:0:0:
275,203,67901,6,0,L|191:219,1,70,8|0,0:0|0:0,0:0:0:0:
108,326,68201,1,0,0:0:0:0:
252,298,68351,2,0,P|311:284|394:310,1,140,2|0,0:0|0:0,0:0:0:0:
419,310,68726,1,0,0:0:0:0:
451,296,68801,6,0,L|475:264,1,35,8|0,0:0|0:0,0:0:0:0:
452,238,68951,2,0,L|476:206,1,35,0|0,0:0|0:0,0:0:0:0:
451,182,69101,5,8,0:0:0:0:
373,215,69251,1,0,0:0:0:0:
296,180,69401,1,8,0:0:0:0:
278,97,69551,1,0,0:0:0:0:
319,24,69701,6,0,P|356:67|360:84,1,70,2|0,0:0|0:0,0:0:0:0:
208,166,70001,1,8,0:0:0:0:
125,152,70151,1,0,0:0:0:0:
86,77,70301,2,0,P|50:111|42:139,1,70,2|0,0:0|0:0,0:0:0:0:
82,204,70601,2,0,P|118:170|126:142,1,70,8|0,0:0|0:0,0:0:0:0:
0,219,70901,5,2,0:0:0:0:
6,253,70976,1,0,0:0:0:0:
27,280,71051,1,0,0:0:0:0:
58,295,71126,1,0,0:0:0:0:
92,293,71201,5,8,0:0:0:0:
28,376,71351,1,0,0:0:0:0:
163,339,71501,1,2,0:0:0:0:
163,339,72101,6,0,P|199:310|241:303,1,70,2|0,0:0|0:0,0:0:0:0:
357,334,72401,1,8,0:0:0:0:
313,261,72551,1,0,0:0:0:0:
315,177,72701,2,0,P|327:137|347:111,1,70,2|0,0:0|0:0,0:0:0:0:
270,72,73001,2,0,P|258:32|238:6,1,70,8|0,0:0|0:0,0:0:0:0:
346,23,73301,6,0,P|386:34|417:64,1,70,2|0,0:0|0:0,0:0:0:0:
439,187,73601,1,8,0:0:0:0:
407,264,73751,1,0,0:0:0:0:
315,177,73901,2,0,L|293:222,3,35,2|0|0|0,0:0|0:0|0:0|0:0,0:0:0:0:
260,191,74201,2,0,L|238:236,3,35,8|0|0|0,0:0|0:0|0:0|0:0,0:0:0:0:
205,204,74501,6,0,L|166:282,1,70,8|0,0:0|0:0,0:0:0:0:
77,163,74801,1,2,0:0:0:0:
117,89,74951,1,0,0:0:0:0:
194,57,75101,6,0,P|234:52|268:60,1,70,8|0,0:0|0:0,0:0:0:0:
133,4,75401,2,0,P|93:-1|59:7,1,70,8|0,0:0|0:0,0:0:0:0:
229,137,75701,6,0,P|264:165|301:176,1,70,2|0,0:0|0:0,0:0:0:0:
351,48,76001,1,8,0:0:0:0:
419,97,76151,1,0,0:0:0:0:
397,178,76301,2,0,L|378:231,3,35,0|0|0|0,0:0|0:0|0:0|0:0,0:0:0:0:
287,173,76601,5,8,0:0:0:0:
284,179,76676,1,0,0:0:0:0:
282,185,76751,1,8,0:0:0:0:
279,192,76826,1,0,0:0:0:0:
277,198,76901,6,0,L|239:288,1,70,4|0,0:0|0:0,0:0:0:0:
329,371,77201,1,8,0:0:0:0:
356,291,77351,1,0,0:0:0:0:
222,334,77501,2,0,P|190:308|177:276,1,70,2|0,0:0|0:0,0:0:0:0:
233,146,77801,2,0,P|265:172|278:204,1,70,8|0,0:0|0:0,0:0:0:0:
137,185,78101,6,0,L|101:156,3,35,8|0|2|0,0:0|0:0|0:0|0:0,0:0:0:0:
137,118,78401,2,0,L|101:89,3,35,8|0|2|0,0:0|0:0|0:0|0:0,0:0:0:0:
138,52,78701,2,0,P|173:62|213:57,1,70,8|2,0:0|0:0,0:0:0:0:
345,76,79001,2,0,P|310:86|270:81,1,70,8|0,0:0|0:0,0:0:0:0:
138,52,79301,5,4,0:0:0:0:
45,84,79451,1,0,0:0:0:0:
17,178,79601,1,8,0:0:0:0:
73,258,79751,1,0,0:0:0:0:
167,282,79901,2,0,L|211:293,3,35,2|0|0|0,0:0|0:0|0:0|0:0,0:0:0:0:
209,241,80201,2,0,L|253:252,3,35,8|0|0|0,0:0|0:0|0:0|0:0,0:0:0:0:
253,201,80501,5,4,0:0:0:0:
335,148,80651,1,8,0:0:0:0:
423,191,80801,1,8,0:0:0:0:
434,288,80951,1,8,0:0:0:0:
358,350,81101,6,0,P|312:361|282:357,1,70,2|0,0:0|0:0,0:0:0:0:
360,359,81401,6,0,P|314:370|284:366,1,70,8|0,0:0|0:0,0:0:0:0:
311,271,81701,6,0,P|241:284|196:338,1,140,2|0,0:0|0:0,0:0:0:0:
170,239,82151,2,0,B|197:207|244:197|244:197|250:120|339:94,1,210,2|8,0:0|0:0,0:0:0:0:
341,197,82751,1,0,0:0:0:0:
258,42,82901,6,0,P|218:67|175:132,1,105,2|0,0:0|0:0,0:0:0:0:
172,98,83201,2,0,P|203:56|246:27,1,105,0|0,0:0|0:0,0:0:0:0:
262,19,83501,5,2,0:0:0:0:
122,22,83651,1,0,0:0:0:0:
69,151,83801,1,8,0:0:0:0:
70,185,83876,1,0,0:0:0:0:
81,218,83951,1,0,0:0:0:0:
102,245,84026,1,0,0:0:0:0:
133,260,84101,5,8,0:0:0:0:
254,159,84326,1,0,0:0:0:0:
284,313,84551,1,0,0:0:0:0:
338,222,84701,6,0,P|377:201|480:211,1,140,2|8,0:0|0:0,0:0:0:0:
413,295,85151,1,0,0:0:0:0:
511,109,85451,1,0,0:0:0:0:
338,222,85751,1,0,0:0:0:0:
338,222,85901,1,2,0:0:0:0:
413,295,86351,5,0,0:0:0:0:
338,222,86501,2,0,P|307:187|303:85,1,140,4|2,0:0|0:0,0:0:0:0:
193,105,86951,2,0,B|182:226|271:302|271:302|228:281|189:292,1,280,8|0,0:0|0:0,0:0:0:0:
123,236,87701,6,0,P|109:176|107:133,1,105,4|0,0:0|0:0,0:0:0:0:
72,125,88001,2,0,P|75:177|87:228,1,105,8|0,0:0|0:0,0:0:0:0:
100,260,88301,5,8,0:0:0:0:
214,288,88451,1,8,0:0:0:0:
280,188,88601,1,8,0:0:0:0:
298,158,88676,1,0,0:0:0:0:
329,143,88751,1,0,0:0:0:0:
363,142,88826,1,0,0:0:0:0:
395,154,88901,5,4,0:0:0:0:
361,253,89126,1,0,0:0:0:0:
228,90,89351,1,0,0:0:0:0:
336,70,89501,6,0,P|333:120|266:193,1,140,8|8,0:0|0:0,0:0:0:0:
174,203,89951,1,0,0:0:0:0:
315,358,90251,1,0,0:0:0:0:
174,203,90551,5,0,0:0:0:0:
121,112,90701,1,2,0:0:0:0:
165,16,90851,1,0,0:0:0:0:
62,38,91001,2,0,L|40:42,7,17.5,8|0|0|0|8|0|0|0,0:0|0:0|0:0|0:0|0:0|0:0|0:0|0:0,0:0:0:0:
42,67,91301,5,4,0:0:0:0:
12,167,91451,1,8,0:0:0:0:
54,262,91601,1,2,0:0:0:0:
155,288,91751,1,8,0:0:0:0:
252,248,91901,5,2,0:0:0:0:
168,184,92051,1,8,0:0:0:0:
155,288,92201,1,2,0:0:0:0:
243,344,92351,1,0,0:0:0:0:
342,311,92501,6,0,P|369:276|375:243,1,70,4|8,0:0|0:0,0:0:0:0:
472,214,92801,2,0,P|445:179|439:146,1,70,2|8,0:0|0:0,0:0:0:0:
333,161,93101,1,2,0:0:0:0:
263,162,93251,1,8,0:0:0:0:
239,96,93401,1,2,0:0:0:0:
294,53,93551,1,8,0:0:0:0:
351,93,93701,5,4,0:0:0:0:
71,104,94001,1,2,0:0:0:0:
48,206,94151,1,8,0:0:0:0:
137,261,94301,2,0,L|153:181,1,70,2|8,0:0|0:0,0:0:0:0:
30,288,94601,2,0,L|16:356,1,70,2|8,0:0|0:0,0:0:0:0:
120,342,94901,5,2,0:0:0:0:
172,102,95051,1,0,0:0:0:0:
364,305,95351,5,0,0:0:0:0:
364,305,95501,1,8,0:0:0:0:
172,102,96101,6,0,L|146:77,3,35,4|0|2|0,0:0|0:0|0:0|0:0,0:0:0:0:
124,162,96401,2,0,L|98:137,3,35,8|0|2|0,0:0|0:0|0:0|0:0,0:0:0:0:
198,171,96701,6,0,L|223:195,3,35,8|0|2|0,0:0|0:0|0:0|0:0,0:0:0:0:
246,111,97001,2,0,L|271:135,3,35,8|0|2|0,0:0|0:0|0:0|0:0,0:0:0:0:
158,88,97301,6,0,L|132:63,3,35,8|0|2|0,0:0|0:0|0:0|0:0,0:0:0:0:
100,181,97601,2,0,L|74:156,3,35,8|0|2|0,0:0|0:0|0:0|0:0,0:0:0:0:
198,171,97901,6,0,L|223:195,3,35,8|0|2|0,0:0|0:0|0:0|0:0,0:0:0:0:
272,82,98201,2,0,L|297:106,3,35,8|0|2|0,0:0|0:0|0:0|0:0,0:0:0:0:
381,16,98501,6,0,L|440:73,1,70,8|0,0:0|0:0,0:0:0:0:
385,271,98801,2,0,L|326:214,1,70,4|0,0:0|0:0,0:0:0:0:
330,12,99101,6,0,L|389:69,1,70,8|0,0:0|0:0,0:0:0:0:
334,267,99401,2,0,L|275:210,1,70,8|0,0:0|0:0,0:0:0:0:
133,69,99701,2,0,L|98:34,7,35,4|0|0|0|8|0|0|0,0:0|0:0|0:0|0:0|0:0|0:0|0:0|0:0,0:0:0:0:
85,92,100301,6,0,P|112:130|116:197,1,105,2|0,0:0|0:0,0:0:0:0:
118,239,100601,2,0,P|91:201|87:134,1,105,8|0,0:0|0:0,0:0:0:0:
85,92,100901,5,0,0:0:0:0:
185,123,101051,1,0,0:0:0:0:
286,151,101201,1,8,0:0:0:0:
218,28,101351,1,0,0:0:0:0:
63,110,101501,5,8,0:0:0:0:
163,141,101651,1,0,0:0:0:0:
263,169,101801,6,0,L|373:201,1,105,8|0,0:0|0:0,0:0:0:0:
415,211,102101,1,8,0:0:0:0:
324,104,102251,1,0,0:0:0:0:
333,155,102326,2,0,P|332:191|308:232,1,70,0|0,0:0|0:0,0:0:0:0:
288,265,102551,6,0,L|289:316,1,35,0|0,0:0|0:0,0:0:0:0:
236,297,102701,2,0,L|237:348,1,35,8|0,0:0|0:0,0:0:0:0:
184,330,102851,2,0,L|185:381,1,35,0|0,0:0|0:0,0:0:0:0:
111,317,103001,2,0,L|112:368,1,35,2|0,0:0|0:0,0:0:0:0:
60,342,103151,2,0,L|61:393,1,35,0|0,0:0|0:0,0:0:0:0:
8,370,103301,5,8,0:0:0:0:
31,231,103451,1,0,0:0:0:0:
169,253,103601,2,0,P|170:198|188:161,1,70,8|0,0:0|0:0,0:0:0:0:
197,157,103826,1,0,0:0:0:0:
197,87,103901,5,8,0:0:0:0:
225,67,103976,1,0,0:0:0:0:
258,58,104051,1,0,0:0:0:0:
292,61,104126,1,0,0:0:0:0:
324,73,104201,1,8,0:0:0:0:
276,166,104351,1,0,0:0:0:0:
378,142,104501,6,0,P|405:107|411:71,1,70,4|0,0:0|0:0,0:0:0:0:
446,254,104801,1,8,0:0:0:0:
371,135,104951,6,0,P|398:100|404:64,1,70,0|2,0:0|0:0,0:0:0:0:
439,247,105251,1,8,0:0:0:0:
339,345,105401,1,0,0:0:0:0:
197,157,105701,5,0,0:0:0:0:
165,171,105776,1,0,0:0:0:0:
143,198,105851,1,0,0:0:0:0:
136,232,105926,1,0,0:0:0:0:
140,266,106001,1,8,0:0:0:0:
57,152,106151,1,0,0:0:0:0:
225,239,106301,1,2,0:0:0:0:
255,255,106376,1,0,0:0:0:0:
57,152,106601,6,0,L|20:130,3,35,8|0|0|0,0:0|0:0|0:0|0:0,0:0:0:0:
79,129,106901,2,0,L|116:151,1,35,8|0,0:0|0:0,0:0:0:0:
87,98,107051,2,0,L|52:79,1,35,8|0,0:0|0:0,0:0:0:0:
24,181,107201,6,0,L|-2:167,3,17.5,2|0|0|0,0:0|0:0|0:0|0:0,0:0:0:0:
25,222,107351,2,0,L|-1:208,4,17.5,0|0|0|0|0,0:0|0:0|0:0|0:0|0:0,0:0:0:0:
172,315,107651,6,0,L|172:362,1,35,8|0,0:0|0:0,0:0:0:0:
276,256,107801,2,0,L|276:308,1,35,8|0,0:0|0:0,0:0:0:0:
374,192,107951,2,0,L|374:243,1,35,8|0,0:0|0:0,0:0:0:0:
173,288,108101,5,4,0:0:0:0:
233,253,108251,1,0,0:0:0:0:
294,218,108401,1,8,0:0:0:0:
355,184,108551,1,0,0:0:0:0:
390,81,108701,5,2,0:0:0:0:
296,128,108851,1,0,0:0:0:0:
203,176,109001,1,8,0:0:0:0:
110,225,109151,1,0,0:0:0:0:
153,91,109301,2,0,L|194:68,7,35,8|0|0|0|8|0|0|0,0:0|0:0|0:0|0:0|0:0|0:0|0:0|0:0,0:0:0:0:
122,108,109901,5,8,0:0:0:0:
274,23,110051,1,0,0:0:0:0:
274,23,110351,1,0,0:0:0:0:
296,128,110501,5,2,0:0:0:0:
303,162,110651,1,0,0:0:0:0:
311,195,110801,1,0,0:0:0:0:
402,142,110951,1,0,0:0:0:0:
262,156,111101,5,2,0:0:0:0:
269,190,111251,1,0,0:0:0:0:
388,103,111401,2,0,L|376:68,3,35,0|0|0|0,0:0|0:0|0:0|0:0,0:0:0:0:
402,142,111701,5,2,0:0:0:0:
368,42,111851,2,0,L|353:-3,1,35,0|0,0:0|0:0,0:0:0:0:
344,60,112001,2,0,L|358:102,1,35,0|0,0:0|0:0,0:0:0:0:
316,57,112151,5,0,0:0:0:0:
285,73,112226,1,0,0:0:0:0:
250,69,112301,5,2,0:0:0:0:
232,179,112451,1,0,0:0:0:0:
137,118,112601,1,2,0:0:0:0:
164,226,112751,1,0,0:0:0:0:
24,219,112901,5,2,0:0:0:0:
93,340,113051,1,0,0:0:0:0:
232,335,113201,2,0,P|280:315|302:296,1,70,0|2,0:0|0:0,0:0:0:0:
118,308,113501,5,0,0:0:0:0:
257,303,113651,2,0,P|305:283|327:264,1,70,0|2,0:0|0:0,0:0:0:0:
143,276,113951,5,0,0:0:0:0:
240,185,114101,1,0,0:0:0:0:
240,185,114251,1,0,0:0:0:0:
145,231,114401,5,2,0:0:0:0:
242,140,114551,1,0,0:0:0:0:
242,140,114701,1,0,0:0:0:0:
148,187,115001,5,2,0:0:0:0:
340,102,115301,5,0,0:0:0:0:
340,102,115376,1,0,0:0:0:0:
340,102,115451,1,0,0:0:0:0:
340,102,115526,1,0,0:0:0:0:
471,237,115751,1,0,0:0:0:0:
449,141,115901,1,2,0:0:0:0:
449,141,115976,1,0,0:0:0:0:
345,245,116201,6,0,L|314:280,1,35,2|0,0:0|0:0,0:0:0:0:
257,298,116351,2,0,L|288:263,1,35,0|0,0:0|0:0,0:0:0:0:
326,219,116501,5,2,0:0:0:0:
186,224,116651,1,0,0:0:0:0:
125,350,116801,2,0,P|88:327|69:302,1,70,0|2,0:0|0:0,0:0:0:0:
186,224,117251,5,0,0:0:0:0:
186,224,117401,1,2,0:0:0:0:
125,350,117551,5,0,0:0:0:0:
186,224,117701,2,0,L|206:174,2,35,2|0|0,0:0|0:0|0:0,0:0:0:0:
71,306,118001,1,2,0:0:0:0:
210,315,118151,5,0,0:0:0:0:
102,225,118301,1,2,0:0:0:0:
88,200,118451,1,0,0:0:0:0:
82,172,118601,1,0,0:0:0:0:
79,216,118901,5,0,0:0:0:0:
65,191,119201,1,0,0:0:0:0:
59,163,119501,1,0,0:0:0:0:
