osu file format v14

[General]
AudioFilename: audio.mp3
AudioLeadIn: 0
PreviewTime: 4891
Countdown: 0
SampleSet: Normal
StackLeniency: 0.7
Mode: 0
LetterboxInBreaks: 0
WidescreenStoryboard: 0

[Editor]
Bookmarks: 9691,14491,19291,23491,24091,31291,36091,38491,40891,48091,51691,67291,72091,76891,81691,84091,86491,88891,91291,100891,110491,118891
DistanceSpacing: 1.1
BeatDivisor: 2
GridSize: 16
TimelineZoom: 3.299999

[Metadata]
Title:Polssia!
TitleUnicode:Polssia!
Artist:odaxelagnia
ArtistUnicode:odaxelagnia
Creator:deadpon3
Version:Chalwy Normalny na Walbrzych
Source:
Tags:polish breakcore hardcore jungle rave speedcore skrd!!! Krfawy Chalwa MrKOSIEJ XVoIR ReFaller
BeatmapID:1169899
BeatmapSetID:551399

[Difficulty]
HPDrainRate:3
CircleSize:3
OverallDifficulty:4
ApproachRate:5
SliderMultiplier:0.88
SliderTickRate:1

[Events]
//Background and Video events
0,0,"iksde.png",0,0
//Break Periods
2,52921,55925
//Storyboard Layer 0 (Background)
//Storyboard Layer 1 (Fail)
//Storyboard Layer 2 (Pass)
//Storyboard Layer 3 (Foreground)
//Storyboard Sound Samples

[TimingPoints]
91,300,4,1,0,80,1,0
7216,-100,4,1,0,5,0,0
7291,-100,4,1,0,80,0,0
12091,-100,4,1,0,100,0,0
21991,-100,4,1,0,100,0,0
24616,-100,4,1,0,5,0,0
24691,-100,4,1,0,100,0,0
24916,-100,4,1,0,5,0,0
24991,-100,4,1,0,100,0,0
25216,-100,4,1,0,5,0,0
25291,-100,4,1,0,100,0,0
26491,-100,4,1,0,100,0,0
27691,-100,4,1,0,25,0,0
28741,-100,4,1,0,100,0,0
29491,-100,4,1,0,80,0,0
29566,-100,4,1,0,60,0,0
29641,-100,4,1,0,40,0,0
29716,-100,4,1,0,20,0,0
29791,-100,4,1,0,10,0,0
29941,-100,4,1,0,100,0,0
33691,-100,4,1,0,100,0,0
35116,-100,4,1,0,5,0,0
35191,-100,4,1,0,100,0,0
43291,-100,4,1,0,100,0,1
52891,-100,4,1,0,100,0,0
52921,303.030303030303,4,1,0,100,1,0
57125,303.030303030303,4,1,0,100,1,0
57701,300,4,1,0,100,1,0
91301,-100,4,1,0,100,0,1
100901,-100,4,1,0,100,0,0
110501,-100,4,2,0,100,0,0

[Colours]
Combo1 : 255,0,0
Combo2 : 255,255,255

[HitObjects]
99,236,91,6,0,P|142:227|191:238,1,88,2|8,0:0|0:0,0:0:0:0:
276,266,691,2,0,P|318:274|361:265,1,88,2|8,0:0|0:0,0:0:0:0:
443,211,1291,2,0,B|464:163|450:128|450:128|393:128|359:90,1,176,2|2,0:0|0:0,0:0:0:0:
289,39,2191,1,4,0:0:0:0:
220,107,2491,6,0,B|173:120|173:120|122:116,1,88,2|8,0:0|0:0,0:0:0:0:
51,168,3091,2,0,B|47:207|47:207|60:254,1,88,2|8,0:0|0:0,0:0:0:0:
126,326,3691,2,0,L|227:341,1,88,2|8,0:0|0:0,0:0:0:0:
309,341,4291,2,0,P|342:303|342:250,1,88,4|8,0:0|0:0,0:0:0:0:
337,219,4741,1,0,0:0:0:0:
324,172,4891,6,0,L|293:81,1,88,4|8,0:0|0:0,0:0:0:0:
211,40,5491,2,0,P|169:59|116:56,1,88,4|8,0:0|0:0,0:0:0:0:
50,118,6091,2,0,B|50:207|50:207|50:256|104:284,1,176,2|2,0:0|0:0,0:0:0:0:
175,329,6991,1,8,0:0:0:0:
255,275,7291,6,0,P|331:257|424:301,1,176,4|2,0:0|0:0,0:0:0:0:
492,232,8191,1,8,0:0:0:0:
473,136,8491,2,0,L|422:103,1,44,2|0,0:0|0:0,0:0:0:0:
387,112,8791,2,0,L|336:79,1,44,8|0,0:0|0:0,0:0:0:0:
301,88,9091,2,0,P|256:66|204:71,1,88,2|8,0:0|0:0,0:0:0:0:
142,126,9691,6,0,L|95:215,1,88,4|8,0:0|0:0,0:0:0:0:
192,237,10291,2,0,L|239:148,1,88,4|8,0:0|0:0,0:0:0:0:
280,243,10891,2,0,P|258:294|133:303,1,176,4|4,0:0|0:0,0:0:0:0:
58,278,11791,1,8,0:0:0:0:
77,183,12091,6,0,B|60:97|60:97|100:105|155:83,1,176,4|8,0:0|0:0,0:0:0:0:
240,63,12991,1,4,0:0:0:0:
335,79,13291,2,0,P|350:113|353:134,1,44,0|0,0:0|0:0,0:0:0:0:
344,167,13591,2,0,P|350:188|360:207,1,44,0|0,0:0|0:0,0:0:0:0:
393,242,13891,1,8,0:0:0:0:
324,310,14191,1,4,0:0:0:0:
227,305,14491,6,0,L|126:292,1,88,4|8,0:0|0:0,0:0:0:0:
92,302,14941,1,0,0:0:0:0:
57,268,15091,2,0,B|49:225|49:225|58:176,1,88,4|8,0:0|0:0,0:0:0:0:
115,103,15691,2,0,P|159:91|214:100,1,88,4|8,0:0|0:0,0:0:0:0:
245,114,16141,1,0,0:0:0:0:
290,130,16291,2,0,P|333:134|375:122,1,88,8|4,0:0|0:0,0:0:0:0:
457,173,16891,6,0,B|476:303|476:303|454:286|433:282,1,176,4|4,0:0|0:0,0:0:0:0:
339,276,17791,1,8,0:0:0:0:
246,305,18091,2,0,L|191:306,1,44,4|0,0:0|0:0,0:0:0:0:
155,317,18391,2,0,L|100:316,1,44,8|0,0:0|0:0,0:0:0:0:
71,288,18691,2,0,P|47:250|47:199,1,88,8|8,0:0|0:0,0:0:0:0:
90,122,19291,6,0,L|181:106,1,88,4|8,0:0|0:0,0:0:0:0:
222,121,19741,1,0,0:0:0:0:
259,90,19891,2,0,P|300:74|351:81,1,88,4|8,0:0|0:0,0:0:0:0:
415,142,20491,2,0,B|442:187|442:187|442:235,1,88,4|8,0:0|0:0,0:0:0:0:
460,267,20941,1,0,0:0:0:0:
430,305,21091,2,0,P|389:314|342:299,1,88,8|8,0:0|0:0,0:0:0:0:
267,243,21691,5,4,0:0:0:0:
189,300,21991,1,8,0:0:0:0:
135,219,22291,1,8,0:0:0:0:
216,166,22591,1,8,0:0:0:0:
285,99,22891,2,0,L|340:93,1,44,4|0,0:0|0:0,0:0:0:0:
373,113,23191,2,0,L|428:119,1,44,8|0,0:0|0:0,0:0:0:0:
449,153,23491,2,0,P|469:192|456:253,1,88,2|2,0:0|0:0,0:0:0:0:
393,300,24091,6,0,L|307:317,1,88,4|8,0:0|0:0,0:0:0:0:
260,303,24541,1,0,0:0:0:0:
179,249,24841,1,0,0:0:0:0:
179,249,24991,2,0,P|162:187|170:158,2,88,8|4|8,0:0|0:0|0:0,0:0:0:0:
116,323,25891,1,4,0:0:0:0:
48,253,26191,1,8,0:0:0:0:
83,163,26491,6,0,P|104:109|173:79,1,132,4|0,0:0|0:0,0:0:0:0:
264,76,27241,1,0,0:0:0:0:
264,76,27391,2,0,B|310:84|351:71|351:71|329:106|355:161,1,176,8|0,0:0|0:0,0:0:0:0:
371,199,28141,1,0,0:0:0:0:
354,244,28291,2,0,P|316:276|273:284,1,88,0|0,0:0|0:0,0:0:0:0:
182,286,28891,6,0,P|110:304|61:350,2,132,4|0|0,0:0|0:0|0:2,0:0:0:0:
278,274,30091,2,0,B|336:201|304:136|304:136|270:67|303:27|303:27|356:32|373:73,2,352,4|4|8,0:0|0:0|0:0,0:0:0:0:
219,351,32791,1,8,0:0:0:0:
130,311,33091,2,0,P|102:272|95:217,1,88,2|8,0:0|0:0,0:0:0:0:
28,162,33691,6,0,P|87:134|182:195,1,176,4|4,0:0|0:0,0:0:0:0:
234,261,34591,1,8,0:0:0:0:
316,210,34891,2,0,L|372:123,1,88,4|8,0:0|0:0,0:0:0:0:
306,57,35491,2,0,L|250:144,1,88,4|8,0:0|0:0,0:0:0:0:
189,199,36091,6,0,B|141:274|141:274|193:280|214:321,1,176,4|4,0:0|0:0,0:0:0:0:
302,352,36991,1,8,0:0:0:0:
386,304,37291,2,0,L|391:249,1,44,4|0,0:0|0:0,0:0:0:0:
355,225,37591,2,0,L|350:170,1,44,8|0,0:0|0:0,0:0:0:0:
370,137,37891,1,4,0:0:0:0:
301,68,38191,1,8,0:0:0:0:
230,134,38491,6,0,P|177:138|112:96,2,132,4|0|8,0:0|0:0|0:2,0:0:0:0:
296,204,39691,2,0,L|313:298,1,88,4|8,0:0|0:0,0:0:0:0:
407,308,40291,2,0,L|390:214,1,88,4|8,0:0|0:0,0:0:0:0:
348,134,40891,6,0,P|296:113|211:194,1,176,4|4,0:0|0:0,0:0:0:0:
146,253,41791,1,8,0:0:0:0:
60,207,42091,2,0,P|48:185|47:156,1,44,4|0,0:0|0:0,0:0:0:0:
47,118,42391,2,0,P|54:93|73:72,1,44,8|0,0:0|0:0,0:0:0:0:
111,63,42691,2,0,P|151:76|201:61,1,88,8|8,0:0|0:0,0:0:0:0:
291,63,43291,6,0,P|330:92|356:180,1,132,0|2,0:0|0:0,0:0:0:0:
353,215,43891,2,0,L|345:263,1,44,4|0,0:0|0:0,0:0:0:0:
311,292,44191,2,0,L|303:340,1,44,8|0,0:0|0:0,0:0:0:0:
261,359,44491,6,0,P|218:361|149:294,1,132,4|2,0:0|0:0,0:0:0:0:
134,262,45091,1,4,0:0:0:0:
101,226,45241,1,0,0:0:0:0:
112,178,45391,2,0,L|88:126,1,44,4|0,0:0|0:0,0:0:0:0:
104,90,45691,6,0,P|151:45|233:55,1,132,4|0,0:0|0:0,0:0:0:0:
261,62,46291,2,0,L|321:69,1,44,0|0,0:0|0:0,0:0:0:0:
338,101,46591,2,0,L|398:108,1,44,8|0,0:0|0:0,0:0:0:0:
422,131,46891,6,0,B|433:182|433:182|427:227,1,88,4|8,0:0|0:0,0:0:0:0:
352,278,47491,2,0,B|341:227|341:227|347:182,1,88,4|8,0:0|0:0,0:0:0:0:
267,134,48091,6,0,P|191:129|129:166,1,132,4|0,0:0|0:0,0:0:0:0:
104,182,48691,2,0,P|79:192|58:210,1,44,4|0,0:0|0:0,0:0:0:0:
57,250,48991,2,0,P|67:275|85:296,1,44,8|0,0:0|0:0,0:0:0:0:
114,320,49291,6,0,L|246:349,1,132,4|0,0:0|0:0,0:0:0:0:
291,348,49891,1,4,0:0:0:0:
336,364,50041,1,2,0:0:0:0:
372,332,50191,2,0,L|429:321,1,44,8|0,0:0|0:0,0:0:0:0:
449,289,50491,6,0,P|471:232|446:169,1,132,4|0,0:0|0:0,0:0:0:0:
403,144,51091,2,0,P|381:128|370:109,1,44,8|0,0:0|0:0,0:0:0:0:
359,67,51391,2,0,P|346:49|328:37,1,44,8|0,0:0|0:0,0:0:0:0:
256,192,51691,12,0,52591,0:0:0:0:
82,204,57125,6,0,B|126:190|126:210|170:195,1,88,2|8,0:0|0:0,0:0:0:0:
255,207,57701,6,0,P|301:250|298:317,2,132,4|0|8,0:0|0:0|0:0,0:0:0:0:
169,160,58901,2,0,P|131:129|122:76,1,88,8|8,0:0|0:0,0:0:0:0:
157,3,59501,2,0,P|195:34|204:87,1,88,8|8,0:0|0:0,0:0:0:0:
263,147,60101,6,0,L|365:166,2,88,8|2|8,0:0|0:0|0:0,0:0:0:0:
169,160,61001,1,8,0:0:0:0:
106,234,61301,2,0,P|104:310|196:313,1,176,4|8,0:0|0:0,0:0:0:0:
279,289,62201,1,2,0:0:0:0:
375,300,62501,6,0,P|394:322|402:352,2,44,4|0|8,0:0|0:0|0:0,0:0:0:0:
360,204,63101,2,0,P|326:175|309:134,1,88,8|2,0:0|0:0,0:0:0:0:
268,47,63701,1,4,0:0:0:0:
174,71,64001,1,8,0:0:0:0:
102,135,64301,1,2,0:0:0:0:
84,230,64601,1,8,0:0:0:0:
104,324,64901,6,0,B|89:347|89:347|72:361,2,44,8|0|8,0:0|0:0|0:0,0:0:0:0:
187,275,65501,2,0,L|224:187,1,88,8|8,0:0|0:0,0:0:0:0:
317,184,66101,2,0,L|280:272,1,88,8|0,0:0|0:0,0:0:0:0:
302,309,66551,2,0,L|280:362,1,44,0|2,0:0|0:0,0:0:0:0:
397,191,67301,6,0,P|365:122|271:119,1,176,8|8,0:0|0:0,0:0:0:0:
192,169,68201,1,0,0:0:0:0:
227,259,68501,2,0,B|207:302|207:302|171:325,1,88,0|8,0:0|0:0,0:0:0:0:
124,331,68951,1,0,0:0:0:0:
82,306,69101,2,0,B|65:261|65:261|74:219,1,88,8|8,0:0|0:0,0:0:0:0:
129,141,69701,6,0,L|161:51,1,88,2|8,0:0|0:0,0:0:0:0:
253,42,70301,2,0,P|296:54|338:42,1,88,2|8,0:0|0:0,0:0:0:0:
431,64,70901,2,0,L|460:146,1,88,2|8,0:0|0:0,0:0:0:0:
464,195,71351,1,0,0:0:0:0:
453,242,71501,1,2,0:0:0:0:
274,316,72101,5,2,0:0:0:0:
187,272,72401,2,0,P|147:245|126:195,2,88,8|2|8,0:0|0:0|0:0,0:0:0:0:
182,369,73301,2,0,P|79:314|33:163,1,264,2|8,0:0|0:0,0:0:0:0:
35,84,74501,5,8,0:0:0:0:
120,38,74801,2,0,L|219:26,1,88,2|8,0:0|0:0,0:0:0:0:
298,62,75401,1,8,0:0:0:0:
350,143,75701,2,0,P|354:184|342:231,2,88,2|8|0,0:0|0:0|0:0,0:0:0:0:
350,336,76901,6,0,P|262:294|248:203,1,176,4|2,0:0|0:0,0:0:0:0:
193,141,77801,1,8,0:0:0:0:
149,227,78101,2,0,P|121:307|42:339,1,176,8|8,0:0|0:0,0:0:0:0:
53,243,79001,1,8,0:0:0:0:
13,154,79301,6,0,B|31:112|31:112|69:90,1,88,4|8,0:0|0:0,0:0:0:0:
108,64,79751,1,0,0:0:0:0:
144,95,79901,2,0,B|186:113|186:113|208:151,1,88,2|8,0:0|0:0,0:0:0:0:
290,198,80501,2,0,P|342:204|393:163,2,88,4|8|2,0:0|0:0|0:0,0:0:0:0:
213,256,81401,1,8,0:0:0:0:
136,315,81701,6,0,B|88:310|53:338|53:338|53:299|19:254,1,176,2|0,0:0|0:0,0:0:0:0:
213,256,82901,2,0,B|261:261|296:233|296:233|296:272|330:317,1,176,2|2,0:0|0:0,0:0:0:0:
416,350,83801,1,8,0:0:0:0:
477,275,84101,6,0,P|484:210|451:154,2,132,8|0|8,0:0|0:0|0:0,0:0:0:0:
451,316,85151,2,0,B|402:315|373:348|373:348|339:313|289:314,1,176,0|0,0:0|0:0,0:0:0:0:
245,319,85901,1,2,0:0:0:0:
107,183,86501,6,0,L|73:81,1,88,4|2,0:0|0:0,0:0:0:0:
156,41,87101,2,0,L|190:143,1,88,2|8,0:0|0:0,0:0:0:0:
188,221,87701,2,0,P|163:263|60:261,2,132,4|2|8,0:0|0:0|0:0,0:0:0:0:
265,162,88901,6,0,P|277:124|317:89,1,88,4|2,0:0|0:0,0:0:0:0:
361,175,89501,2,0,P|349:213|309:248,1,88,8|8,0:0|0:0,0:0:0:0:
225,283,90101,2,0,B|139:308|139:308|122:347|122:347|57:307|63:222,1,264,4|8,0:0|0:0,0:0:0:0:
60,139,91301,6,0,P|111:59|213:36,1,176,4|2,0:0|0:0,0:0:0:0:
281,41,92201,1,2,0:0:0:0:
352,106,92501,2,0,L|365:208,1,88,4|2,0:0|0:0,0:0:0:0:
347,239,92951,1,8,0:0:0:0:
325,282,93101,2,0,P|271:293|231:279,1,88,2|2,0:0|0:0,0:0:0:0:
199,257,93551,1,8,0:0:0:0:
158,230,93701,6,0,B|131:211|111:219|111:219|97:214|77:233|77:233|45:232|38:215|38:215|21:210|6:167,1,176,4|2,0:0|0:0,0:0:0:0:
19,86,94601,1,2,0:0:0:0:
101,35,94901,2,0,L|211:25,1,88,2|4,0:0|0:0,0:0:0:0:
233,44,95351,1,0,0:0:0:0:
278,28,95501,2,0,P|327:36|375:26,1,88,8|8,0:0|0:0,0:0:0:0:
412,37,95951,1,0,0:0:0:0:
443,74,96101,6,0,B|444:133|444:133|421:197|421:197|424:251,1,176,4|8,0:0|0:0,0:0:0:0:
381,332,97001,1,8,0:0:0:0:
288,304,97301,2,0,B|250:266|250:266|235:234|235:234|205:218|205:218|153:166,1,176,8|8,0:0|0:0,0:0:0:0:
110,101,98201,1,8,0:0:0:0:
181,35,98501,6,0,P|205:33|236:36,1,44,8|0,0:0|0:0,0:0:0:0:
271,49,98801,2,0,P|292:50|314:48,1,44,4|0,0:0|0:0,0:0:0:0:
362,57,99101,2,0,B|378:76|378:76|391:104,1,44,8|0,0:0|0:0,0:0:0:0:
391,141,99401,2,0,B|399:158|399:158|415:177,1,44,8|0,0:0|0:0,0:0:0:0:
426,224,99701,6,0,P|430:272|402:314,1,88,4|8,0:0|0:0,0:0:0:0:
370,331,100151,1,0,0:0:0:0:
370,331,100301,2,0,L|259:334,1,88,2|8,0:0|0:0,0:0:0:0:
186,317,100901,6,0,P|144:293|129:252,1,88,0|8,0:0|0:0,0:0:0:0:
114,211,101351,1,0,0:0:0:0:
104,163,101501,2,0,P|130:91|223:63,1,176,8|8,0:0|0:0,0:0:0:0:
311,92,102401,5,8,0:0:0:0:
314,188,102701,1,8,0:0:0:0:
218,173,103001,1,2,0:0:0:0:
221,269,103301,6,0,P|245:311|286:326,1,88,8|8,0:0|0:0,0:0:0:0:
327,341,103751,1,0,0:0:0:0:
375,351,103901,2,0,P|447:325|475:232,1,176,8|4,0:0|0:0,0:0:0:0:
446,144,104801,5,8,0:0:0:0:
350,141,105101,1,2,0:0:0:0:
365,237,105401,1,0,0:0:0:0:
268,228,105701,6,0,P|203:205|123:348,1,264,0|8,0:0|0:0,0:0:0:0:
209,304,106901,2,0,L|80:164,1,176,8|0,0:0|0:0,0:0:0:0:
79,78,107801,1,8,0:0:0:0:
161,27,108101,6,0,P|205:19|259:31,1,88,4|8,0:0|0:0,0:0:0:0:
290,49,108551,1,0,0:0:0:0:
332,71,108701,2,0,B|378:79|378:79|422:72,1,88,2|8,0:0|0:0,0:0:0:0:
462,51,109151,1,0,0:0:0:0:
496,84,109301,6,0,L|509:187,1,88,8|8,0:0|0:0,0:0:0:0:
445,246,109901,1,8,0:0:0:0:
258,297,110501,6,0,P|209:293|165:313,3,88,2|0|2|0,0:0|0:0|0:0|0:0,0:0:0:0:
90,355,111701,2,0,P|75:313|80:270,3,88,2|0|2|2,0:0|0:0|0:0|0:0,0:0:0:0:
127,185,112901,2,0,P|131:141|117:100,1,88,2|0,0:0|0:0,0:0:0:0:
179,26,113501,2,0,L|279:17,1,88,0|2,0:0|0:0,0:0:0:0:
310,39,113951,6,0,P|360:99|348:173,1,132,0|2,0:0|0:0,0:0:0:0:
323,240,114701,1,0,0:0:0:0:
391,308,115001,1,2,0:0:0:0:
304,351,115301,6,0,L|110:365,1,176,0|2,0:0|0:0,0:0:0:0:
55,299,116201,1,2,0:0:0:0:
84,260,116351,2,0,P|109:205|78:127,1,132,0|0,0:0|0:0,0:0:0:0:
131,51,117101,2,0,P|176:38|233:54,1,88,0|2,0:0|0:0,0:0:0:0:
305,81,117701,6,0,B|400:119|360:232|360:232|338:268|268:244|288:177|288:177|235:193,1,352,2|0,0:0|0:0,0:0:0:0:
190,261,119201,1,0,0:0:0:0:
