osu file format v14

[General]
AudioFilename: odaxelagnia - HALO (`) RINGCORE - 12 Pianobreak.mp3
AudioLeadIn: 0
PreviewTime: -1
Countdown: 0
SampleSet: None
StackLeniency: 0.7
Mode: 3
LetterboxInBreaks: 0
SpecialStyle: 0
WidescreenStoryboard: 0

[Editor]
DistanceSpacing: 0.6
BeatDivisor: 4
GridSize: 4
TimelineZoom: 1.8

[Metadata]
Title:Pianobreak
TitleUnicode:Pianobreak
Artist:odaxelagnia
ArtistUnicode:odaxelagnia
Creator:SurfChu85
Version:ughh
Source:
Tags:
BeatmapID:1780132
BeatmapSetID:851593

[Difficulty]
HPDrainRate:8
CircleSize:4
OverallDifficulty:8
ApproachRate:5
SliderMultiplier:1.4
SliderTickRate:1

[Events]
//Background and Video events
0,0,"odaxelagnia_-_HALO___RINGCORE_-_cover.png",0,0
//Break Periods
//Storyboard Layer 0 (Background)
//Storyboard Layer 1 (Fail)
//Storyboard Layer 2 (Pass)
//Storyboard Layer 3 (Foreground)
//Storyboard Sound Samples

[TimingPoints]
0,333.333333333333,4,2,0,30,1,0

[HitObjects]
448,192,0,5,0,0:0:0:0:
64,192,0,1,0,0:0:0:0:
320,192,333,1,0,0:0:0:0:
192,192,666,1,0,0:0:0:0:
64,192,1000,1,0,0:0:0:0:
192,192,1250,1,0,0:0:0:0:
448,192,1333,1,0,0:0:0:0:
448,192,1583,1,0,0:0:0:0:
448,192,1916,1,0,0:0:0:0:
320,192,2250,1,0,0:0:0:0:
448,192,2333,1,0,0:0:0:0:
192,192,2583,1,0,0:0:0:0:
192,192,3000,1,0,0:0:0:0:
320,192,3083,1,0,0:0:0:0:
448,192,3166,1,0,0:0:0:0:
64,192,3249,1,0,0:0:0:0:
192,192,3333,1,0,0:0:0:0:
320,192,3583,1,0,0:0:0:0:
192,192,3916,1,0,0:0:0:0:
192,192,4916,1,0,0:0:0:0:
448,192,5333,1,0,0:0:0:0:
192,192,5666,1,0,0:0:0:0:
320,192,5999,1,0,0:0:0:0:
192,192,6249,1,0,0:0:0:0:
64,192,6333,1,0,0:0:0:0:
320,192,6583,1,0,0:0:0:0:
192,192,6916,1,0,0:0:0:0:
192,192,7527,1,0,0:0:0:0:
320,192,7583,1,0,0:0:0:0:
448,192,7916,1,0,0:0:0:0:
64,192,7999,1,0,0:0:0:0:
192,192,7999,128,0,8666:0:0:0:0:
320,192,8333,1,0,0:0:0:0:
64,192,8499,1,0,0:0:0:0:
320,192,8666,128,0,9333:0:0:0:0:
448,192,8666,1,0,0:0:0:0:
192,192,8999,1,0,0:0:0:0:
64,192,9333,128,0,9999:0:0:0:0:
448,192,9333,1,0,0:0:0:0:
320,192,9499,1,0,0:0:0:0:
192,192,9999,128,0,10666:0:0:0:0:
448,192,9999,1,0,0:0:0:0:
320,192,10583,1,0,0:0:0:0:
448,192,10666,1,0,0:0:0:0:
64,192,10666,1,0,0:0:0:0:
192,192,10833,1,0,0:0:0:0:
448,192,10999,1,0,0:0:0:0:
320,192,10999,1,0,0:0:0:0:
64,192,11166,1,0,0:0:0:0:
192,192,11333,1,0,0:0:0:0:
320,192,11333,1,0,0:0:0:0:
64,192,11499,1,0,0:0:0:0:
448,192,11666,1,0,0:0:0:0:
320,192,11666,1,0,0:0:0:0:
192,192,11833,1,0,0:0:0:0:
320,192,11916,1,0,0:0:0:0:
448,192,11999,1,0,0:0:0:0:
64,192,11999,1,0,0:0:0:0:
192,192,12166,1,0,0:0:0:0:
448,192,12249,1,0,0:0:0:0:
320,192,12333,1,0,0:0:0:0:
64,192,12333,1,0,0:0:0:0:
192,192,12499,1,0,0:0:0:0:
64,192,12583,1,0,0:0:0:0:
448,192,12666,1,0,0:0:0:0:
320,192,12666,1,0,0:0:0:0:
64,192,12833,1,0,0:0:0:0:
448,192,12833,1,0,0:0:0:0:
192,192,12916,1,0,0:0:0:0:
64,192,12999,1,0,0:0:0:0:
320,192,12999,1,0,0:0:0:0:
192,192,13166,1,0,0:0:0:0:
320,192,13166,1,0,0:0:0:0:
192,192,13333,1,0,0:0:0:0:
448,192,13333,1,0,0:0:0:0:
448,192,13499,1,0,0:0:0:0:
64,192,13666,1,0,0:0:0:0:
320,192,13666,1,0,0:0:0:0:
192,192,13833,1,0,0:0:0:0:
320,192,13916,1,0,0:0:0:0:
448,192,13999,1,0,0:0:0:0:
64,192,13999,1,0,0:0:0:0:
192,192,14166,1,0,0:0:0:0:
320,192,14249,1,0,0:0:0:0:
64,192,14333,1,0,0:0:0:0:
448,192,14499,1,0,0:0:0:0:
192,192,14583,1,0,0:0:0:0:
320,192,14666,1,0,0:0:0:0:
64,192,14833,1,0,0:0:0:0:
448,192,14999,1,0,0:0:0:0:
192,192,14999,1,0,0:0:0:0:
320,192,15166,1,0,0:0:0:0:
64,192,15333,1,0,0:0:0:0:
320,192,15333,1,0,0:0:0:0:
448,192,15499,1,0,0:0:0:0:
192,192,15583,1,0,0:0:0:0:
320,192,15666,1,0,0:0:0:0:
64,192,15833,1,0,0:0:0:0:
448,192,15944,1,0,0:0:0:0:
320,192,15999,1,0,0:0:0:0:
64,192,15999,1,0,0:0:0:0:
192,192,16166,1,0,0:0:0:0:
448,192,16249,1,0,0:0:0:0:
320,192,16333,1,0,0:0:0:0:
64,192,16333,1,0,0:0:0:0:
192,192,16499,1,0,0:0:0:0:
320,192,16583,1,0,0:0:0:0:
448,192,16666,1,0,0:0:0:0:
64,192,16666,1,0,0:0:0:0:
320,192,16833,1,0,0:0:0:0:
64,192,16916,1,0,0:0:0:0:
192,192,16999,1,0,0:0:0:0:
448,192,17166,1,0,0:0:0:0:
320,192,17249,1,0,0:0:0:0:
192,192,17333,1,0,0:0:0:0:
448,192,17499,1,0,0:0:0:0:
64,192,17666,1,0,0:0:0:0:
320,192,17666,1,0,0:0:0:0:
192,192,17833,1,0,0:0:0:0:
448,192,17916,1,0,0:0:0:0:
320,192,17999,1,0,0:0:0:0:
192,192,18166,1,0,0:0:0:0:
320,192,18249,1,0,0:0:0:0:
64,192,18333,1,0,0:0:0:0:
192,192,18499,1,0,0:0:0:0:
448,192,18583,1,0,0:0:0:0:
320,192,18666,1,0,0:0:0:0:
64,192,18666,1,0,0:0:0:0:
192,192,18833,1,0,0:0:0:0:
448,192,18833,1,0,0:0:0:0:
320,192,18999,1,0,0:0:0:0:
192,192,18999,1,0,0:0:0:0:
320,192,19166,1,0,0:0:0:0:
64,192,19166,1,0,0:0:0:0:
192,192,19333,1,0,0:0:0:0:
448,192,19333,1,0,0:0:0:0:
320,192,19499,1,0,0:0:0:0:
64,192,19499,1,0,0:0:0:0:
320,192,19666,1,0,0:0:0:0:
192,192,19666,1,0,0:0:0:0:
192,192,19833,1,0,0:0:0:0:
64,192,19833,1,0,0:0:0:0:
448,192,19999,1,0,0:0:0:0:
64,192,19999,1,0,0:0:0:0:
320,192,20083,1,0,0:0:0:0:
192,192,20166,1,0,0:0:0:0:
448,192,20166,1,0,0:0:0:0:
64,192,20249,1,0,0:0:0:0:
320,192,20333,1,0,0:0:0:0:
448,192,20333,1,0,0:0:0:0:
320,192,20499,1,0,0:0:0:0:
448,192,20499,1,0,0:0:0:0:
64,192,20666,1,0,0:0:0:0:
192,192,20666,1,0,0:0:0:0:
448,192,20749,1,0,0:0:0:0:
192,192,20833,1,0,0:0:0:0:
320,192,20833,1,0,0:0:0:0:
64,192,20916,1,0,0:0:0:0:
320,192,20999,1,0,0:0:0:0:
448,192,20999,1,0,0:0:0:0:
192,192,21166,1,0,0:0:0:0:
64,192,21333,1,0,0:0:0:0:
320,192,21333,1,0,0:0:0:0:
192,192,21499,1,0,0:0:0:0:
64,192,21666,1,0,0:0:0:0:
448,192,21666,1,0,0:0:0:0:
320,192,21666,1,0,0:0:0:0:
192,192,21833,1,0,0:0:0:0:
320,192,21916,1,0,0:0:0:0:
448,192,21916,1,0,0:0:0:0:
64,192,21999,1,0,0:0:0:0:
192,192,21999,1,0,0:0:0:0:
448,192,22083,1,0,0:0:0:0:
192,192,22166,1,0,0:0:0:0:
64,192,22166,1,0,0:0:0:0:
448,192,22333,1,0,0:0:0:0:
320,192,22333,1,0,0:0:0:0:
64,192,22499,1,0,0:0:0:0:
448,192,22499,1,0,0:0:0:0:
192,192,22499,1,0,0:0:0:0:
320,192,22666,1,0,0:0:0:0:
192,192,22666,1,0,0:0:0:0:
448,192,22749,1,0,0:0:0:0:
64,192,22833,1,0,0:0:0:0:
192,192,22833,1,0,0:0:0:0:
320,192,22916,1,0,0:0:0:0:
448,192,22999,1,0,0:0:0:0:
320,192,23083,1,0,0:0:0:0:
64,192,23083,1,0,0:0:0:0:
192,192,23166,1,0,0:0:0:0:
320,192,23249,1,0,0:0:0:0:
448,192,23249,1,0,0:0:0:0:
192,192,23333,1,0,0:0:0:0:
64,192,23333,1,0,0:0:0:0:
320,192,23499,1,0,0:0:0:0:
64,192,23499,1,0,0:0:0:0:
448,192,23499,1,0,0:0:0:0:
320,192,23666,1,0,0:0:0:0:
192,192,23666,1,0,0:0:0:0:
64,192,23833,1,0,0:0:0:0:
448,192,23833,1,0,0:0:0:0:
192,192,23833,1,0,0:0:0:0:
320,192,23999,1,0,0:0:0:0:
64,192,23999,1,0,0:0:0:0:
320,192,24166,1,0,0:0:0:0:
64,192,24333,1,0,0:0:0:0:
192,192,24333,1,0,0:0:0:0:
448,192,24333,1,0,0:0:0:0:
320,192,24499,1,0,0:0:0:0:
192,192,24583,1,0,0:0:0:0:
64,192,24666,1,0,0:0:0:0:
448,192,24666,1,0,0:0:0:0:
320,192,24749,1,0,0:0:0:0:
192,192,24833,1,0,0:0:0:0:
448,192,24833,1,0,0:0:0:0:
192,192,24999,1,0,0:0:0:0:
64,192,24999,1,0,0:0:0:0:
64,192,25166,1,0,0:0:0:0:
448,192,25166,1,0,0:0:0:0:
320,192,25166,1,0,0:0:0:0:
320,192,25333,1,0,0:0:0:0:
448,192,25416,1,0,0:0:0:0:
192,192,25416,1,0,0:0:0:0:
64,192,25499,1,0,0:0:0:0:
448,192,25583,1,0,0:0:0:0:
320,192,25583,1,0,0:0:0:0:
192,192,25666,1,0,0:0:0:0:
64,192,25666,1,0,0:0:0:0:
192,192,25833,1,0,0:0:0:0:
64,192,25833,1,0,0:0:0:0:
448,192,25999,1,0,0:0:0:0:
320,192,26083,1,0,0:0:0:0:
64,192,26083,1,0,0:0:0:0:
192,192,26166,1,0,0:0:0:0:
64,192,26249,1,0,0:0:0:0:
448,192,26249,1,0,0:0:0:0:
320,192,26333,1,0,0:0:0:0:
192,192,26333,1,0,0:0:0:0:
448,192,26416,1,0,0:0:0:0:
64,192,26499,1,0,0:0:0:0:
192,192,26499,1,0,0:0:0:0:
320,192,26583,1,0,0:0:0:0:
448,192,26583,1,0,0:0:0:0:
64,192,26666,1,0,0:0:0:0:
192,192,26666,1,0,0:0:0:0:
320,192,26833,1,0,0:0:0:0:
64,192,26833,1,0,0:0:0:0:
448,192,26999,1,0,0:0:0:0:
320,192,26999,1,0,0:0:0:0:
192,192,26999,1,0,0:0:0:0:
64,192,27166,1,0,0:0:0:0:
448,192,27249,1,0,0:0:0:0:
192,192,27249,1,0,0:0:0:0:
320,192,27333,1,0,0:0:0:0:
192,192,27416,1,0,0:0:0:0:
64,192,27416,1,0,0:0:0:0:
448,192,27499,1,0,0:0:0:0:
320,192,27499,1,0,0:0:0:0:
192,192,27666,1,0,0:0:0:0:
64,192,27666,1,0,0:0:0:0:
192,192,27833,1,0,0:0:0:0:
64,192,27833,1,0,0:0:0:0:
448,192,27833,1,0,0:0:0:0:
320,192,27999,1,0,0:0:0:0:
192,192,28083,1,0,0:0:0:0:
64,192,28083,1,0,0:0:0:0:
448,192,28166,1,0,0:0:0:0:
64,192,28249,1,0,0:0:0:0:
192,192,28249,1,0,0:0:0:0:
448,192,28333,1,0,0:0:0:0:
320,192,28333,1,0,0:0:0:0:
192,192,28499,1,0,0:0:0:0:
64,192,28499,1,0,0:0:0:0:
448,192,28583,1,0,0:0:0:0:
320,192,28583,1,0,0:0:0:0:
64,192,28749,1,0,0:0:0:0:
320,192,28749,1,0,0:0:0:0:
448,192,28833,1,0,0:0:0:0:
192,192,28833,1,0,0:0:0:0:
320,192,28999,1,0,0:0:0:0:
192,192,29083,1,0,0:0:0:0:
448,192,29083,1,0,0:0:0:0:
64,192,29166,1,0,0:0:0:0:
448,192,29249,1,0,0:0:0:0:
320,192,29249,1,0,0:0:0:0:
192,192,29333,1,0,0:0:0:0:
64,192,29333,1,0,0:0:0:0:
320,192,29499,1,0,0:0:0:0:
192,192,29499,1,0,0:0:0:0:
320,192,29666,1,0,0:0:0:0:
448,192,29666,1,0,0:0:0:0:
64,192,29666,1,0,0:0:0:0:
192,192,29833,1,0,0:0:0:0:
320,192,29916,1,0,0:0:0:0:
64,192,29999,1,0,0:0:0:0:
448,192,29999,1,0,0:0:0:0:
192,192,29999,1,0,0:0:0:0:
192,192,30166,1,0,0:0:0:0:
448,192,30249,1,0,0:0:0:0:
64,192,30249,1,0,0:0:0:0:
320,192,30249,1,0,0:0:0:0:
320,192,30416,1,0,0:0:0:0:
64,192,30499,1,0,0:0:0:0:
192,192,30499,1,0,0:0:0:0:
448,192,30499,1,0,0:0:0:0:
448,192,30666,1,0,0:0:0:0:
320,192,30666,1,0,0:0:0:0:
64,192,30749,1,0,0:0:0:0:
192,192,30749,1,0,0:0:0:0:
448,192,30833,1,0,0:0:0:0:
320,192,30833,1,0,0:0:0:0:
64,192,30916,1,0,0:0:0:0:
192,192,30916,1,0,0:0:0:0:
448,192,30999,1,0,0:0:0:0:
320,192,30999,1,0,0:0:0:0:
448,192,31166,1,0,0:0:0:0:
320,192,31166,1,0,0:0:0:0:
64,192,31333,1,0,0:0:0:0:
192,192,31333,1,0,0:0:0:0:
320,192,31416,1,0,0:0:0:0:
448,192,31499,1,0,0:0:0:0:
192,192,31499,1,0,0:0:0:0:
64,192,31583,1,0,0:0:0:0:
320,192,31666,1,0,0:0:0:0:
448,192,31708,1,0,0:0:0:0:
64,192,31749,1,0,0:0:0:0:
192,192,31791,1,0,0:0:0:0:
320,192,31833,1,0,0:0:0:0:
448,192,31874,1,0,0:0:0:0:
64,192,31916,1,0,0:0:0:0:
192,192,31958,1,0,0:0:0:0:
320,192,31999,1,0,0:0:0:0:
448,192,31999,1,0,0:0:0:0:
192,192,32166,1,0,0:0:0:0:
320,192,32166,1,0,0:0:0:0:
64,192,32333,1,0,0:0:0:0:
192,192,32333,1,0,0:0:0:0:
448,192,32333,1,0,0:0:0:0:
320,192,32499,1,0,0:0:0:0:
192,192,32583,1,0,0:0:0:0:
64,192,32666,1,0,0:0:0:0:
448,192,32666,1,0,0:0:0:0:
192,192,32749,1,0,0:0:0:0:
320,192,32833,1,0,0:0:0:0:
64,192,32833,1,0,0:0:0:0:
192,192,32999,1,0,0:0:0:0:
448,192,32999,1,0,0:0:0:0:
192,192,33166,1,0,0:0:0:0:
64,192,33166,1,0,0:0:0:0:
448,192,33166,1,0,0:0:0:0:
320,192,33333,1,0,0:0:0:0:
64,192,33416,1,0,0:0:0:0:
448,192,33416,1,0,0:0:0:0:
192,192,33499,1,0,0:0:0:0:
448,192,33583,1,0,0:0:0:0:
320,192,33583,1,0,0:0:0:0:
192,192,33666,1,0,0:0:0:0:
64,192,33666,1,0,0:0:0:0:
192,192,33833,1,0,0:0:0:0:
64,192,33833,1,0,0:0:0:0:
320,192,33999,1,0,0:0:0:0:
64,192,34166,1,0,0:0:0:0:
192,192,34166,1,0,0:0:0:0:
320,192,34249,1,0,0:0:0:0:
448,192,34249,1,0,0:0:0:0:
64,192,34333,1,0,0:0:0:0:
192,192,34374,1,0,0:0:0:0:
320,192,34416,1,0,0:0:0:0:
64,192,34499,1,0,0:0:0:0:
448,192,34499,1,0,0:0:0:0:
192,192,34499,1,0,0:0:0:0:
320,192,34583,1,0,0:0:0:0:
64,192,34666,1,0,0:0:0:0:
448,192,34666,1,0,0:0:0:0:
320,192,34833,1,0,0:0:0:0:
192,192,34833,1,0,0:0:0:0:
320,192,34999,1,0,0:0:0:0:
448,192,34999,1,0,0:0:0:0:
192,192,35166,1,0,0:0:0:0:
64,192,35166,1,0,0:0:0:0:
64,192,35333,1,0,0:0:0:0:
448,192,35333,1,0,0:0:0:0:
320,192,35333,1,0,0:0:0:0:
448,192,35499,1,0,0:0:0:0:
64,192,35583,1,0,0:0:0:0:
192,192,35583,1,0,0:0:0:0:
320,192,35666,1,0,0:0:0:0:
448,192,35749,1,0,0:0:0:0:
192,192,35749,1,0,0:0:0:0:
320,192,35833,1,0,0:0:0:0:
64,192,35833,1,0,0:0:0:0:
320,192,35999,1,0,0:0:0:0:
448,192,35999,1,0,0:0:0:0:
64,192,36083,1,0,0:0:0:0:
192,192,36166,1,0,0:0:0:0:
320,192,36166,1,0,0:0:0:0:
448,192,36249,1,0,0:0:0:0:
192,192,36333,1,0,0:0:0:0:
64,192,36333,1,0,0:0:0:0:
192,192,36499,1,0,0:0:0:0:
64,192,36499,1,0,0:0:0:0:
448,192,36666,1,0,0:0:0:0:
320,192,36666,1,0,0:0:0:0:
192,192,36833,1,0,0:0:0:0:
64,192,36833,1,0,0:0:0:0:
320,192,36916,1,0,0:0:0:0:
448,192,36916,1,0,0:0:0:0:
448,192,37083,1,0,0:0:0:0:
320,192,37083,1,0,0:0:0:0:
192,192,37166,1,0,0:0:0:0:
64,192,37166,1,0,0:0:0:0:
320,192,37333,1,0,0:0:0:0:
192,192,37333,1,0,0:0:0:0:
320,192,37499,1,0,0:0:0:0:
320,192,37666,1,0,0:0:0:0:
448,192,37666,1,0,0:0:0:0:
64,192,37666,1,0,0:0:0:0:
192,192,37833,1,0,0:0:0:0:
320,192,37916,1,0,0:0:0:0:
448,192,37999,1,0,0:0:0:0:
64,192,37999,1,0,0:0:0:0:
192,192,38083,1,0,0:0:0:0:
320,192,38166,1,0,0:0:0:0:
448,192,38166,1,0,0:0:0:0:
192,192,38333,1,0,0:0:0:0:
320,192,38333,1,0,0:0:0:0:
192,192,38499,1,0,0:0:0:0:
64,192,38499,1,0,0:0:0:0:
448,192,38499,1,0,0:0:0:0:
320,192,38666,1,0,0:0:0:0:
64,192,38749,1,0,0:0:0:0:
192,192,38749,1,0,0:0:0:0:
448,192,38833,1,0,0:0:0:0:
192,192,38916,1,0,0:0:0:0:
320,192,38916,1,0,0:0:0:0:
64,192,38999,1,0,0:0:0:0:
448,192,38999,1,0,0:0:0:0:
64,192,39166,1,0,0:0:0:0:
448,192,39166,1,0,0:0:0:0:
320,192,39333,1,0,0:0:0:0:
192,192,39333,1,0,0:0:0:0:
192,192,39499,1,0,0:0:0:0:
64,192,39499,1,0,0:0:0:0:
448,192,39499,1,0,0:0:0:0:
320,192,39666,1,0,0:0:0:0:
192,192,39749,1,0,0:0:0:0:
448,192,39833,1,0,0:0:0:0:
64,192,39833,1,0,0:0:0:0:
320,192,39916,1,0,0:0:0:0:
192,192,39999,128,0,41333:0:0:0:0:
64,192,39999,1,0,0:0:0:0:
448,192,40333,128,0,40499:0:0:0:0:
64,192,40499,128,0,41333:0:0:0:0:
448,192,41333,1,0,0:0:0:0:
320,192,41333,1,0,0:0:0:0:
192,192,41416,1,0,0:0:0:0:
64,192,41499,1,0,0:0:0:0:
448,192,41583,1,0,0:0:0:0:
320,192,41666,1,0,0:0:0:0:
192,192,41666,1,0,0:0:0:0:
320,192,41833,1,0,0:0:0:0:
192,192,41833,1,0,0:0:0:0:
448,192,41999,1,0,0:0:0:0:
64,192,41999,128,0,42166:0:0:0:0:
192,192,42166,128,0,42333:0:0:0:0:
320,192,42333,1,0,0:0:0:0:
448,192,42416,1,0,0:0:0:0:
64,192,42499,1,0,0:0:0:0:
192,192,42541,1,0,0:0:0:0:
320,192,42583,1,0,0:0:0:0:
448,192,42624,1,0,0:0:0:0:
192,192,42666,1,0,0:0:0:0:
64,192,42666,1,0,0:0:0:0:
320,192,42833,1,0,0:0:0:0:
448,192,42999,1,0,0:0:0:0:
320,192,42999,1,0,0:0:0:0:
64,192,42999,1,0,0:0:0:0:
192,192,43166,1,0,0:0:0:0:
448,192,43166,1,0,0:0:0:0:
64,192,43166,1,0,0:0:0:0:
320,192,43333,1,0,0:0:0:0:
64,192,43499,1,0,0:0:0:0:
448,192,43499,1,0,0:0:0:0:
192,192,43499,1,0,0:0:0:0:
320,192,43666,1,0,0:0:0:0:
192,192,43666,1,0,0:0:0:0:
64,192,43666,1,0,0:0:0:0:
192,192,43833,1,0,0:0:0:0:
320,192,43999,1,0,0:0:0:0:
448,192,44083,1,0,0:0:0:0:
192,192,44166,1,0,0:0:0:0:
64,192,44166,1,0,0:0:0:0:
320,192,44249,1,0,0:0:0:0:
192,192,44333,1,0,0:0:0:0:
448,192,44333,1,0,0:0:0:0:
64,192,44416,1,0,0:0:0:0:
320,192,44499,1,0,0:0:0:0:
192,192,44499,1,0,0:0:0:0:
448,192,44666,1,0,0:0:0:0:
448,192,44833,1,0,0:0:0:0:
320,192,44833,1,0,0:0:0:0:
64,192,44833,1,0,0:0:0:0:
192,192,44916,1,0,0:0:0:0:
448,192,44999,1,0,0:0:0:0:
64,192,45083,1,0,0:0:0:0:
320,192,45083,1,0,0:0:0:0:
192,192,45166,1,0,0:0:0:0:
320,192,45249,1,0,0:0:0:0:
64,192,45333,1,0,0:0:0:0:
448,192,45333,1,0,0:0:0:0:
192,192,45333,1,0,0:0:0:0:
320,192,45499,1,0,0:0:0:0:
448,192,45666,1,0,0:0:0:0:
64,192,45666,1,0,0:0:0:0:
192,192,45666,1,0,0:0:0:0:
320,192,45833,1,0,0:0:0:0:
192,192,45916,1,0,0:0:0:0:
64,192,45916,1,0,0:0:0:0:
448,192,45999,1,0,0:0:0:0:
64,192,46083,1,0,0:0:0:0:
320,192,46083,1,0,0:0:0:0:
192,192,46166,1,0,0:0:0:0:
448,192,46166,1,0,0:0:0:0:
320,192,46333,1,0,0:0:0:0:
64,192,46333,1,0,0:0:0:0:
448,192,46499,1,0,0:0:0:0:
192,192,46499,1,0,0:0:0:0:
320,192,46499,1,0,0:0:0:0:
192,192,46666,1,0,0:0:0:0:
192,192,46833,1,0,0:0:0:0:
320,192,46999,1,0,0:0:0:0:
192,192,47083,1,0,0:0:0:0:
448,192,47166,1,0,0:0:0:0:
64,192,47249,1,0,0:0:0:0:
192,192,47333,1,0,0:0:0:0:
192,192,47499,1,0,0:0:0:0:
320,192,47666,1,0,0:0:0:0:
320,192,47749,1,0,0:0:0:0:
192,192,47833,1,0,0:0:0:0:
192,192,47916,1,0,0:0:0:0:
64,192,47999,1,0,0:0:0:0:
320,192,47999,1,0,0:0:0:0:
448,192,47999,1,0,0:0:0:0:
320,192,48166,1,0,0:0:0:0:
192,192,48166,1,0,0:0:0:0:
448,192,48333,1,0,0:0:0:0:
64,192,48333,1,0,0:0:0:0:
192,192,48333,1,0,0:0:0:0:
448,192,48499,1,0,0:0:0:0:
64,192,48499,1,0,0:0:0:0:
320,192,48499,1,0,0:0:0:0:
192,192,48666,1,0,0:0:0:0:
320,192,48833,1,0,0:0:0:0:
64,192,48833,1,0,0:0:0:0:
448,192,48833,1,0,0:0:0:0:
192,192,48999,1,0,0:0:0:0:
64,192,48999,1,0,0:0:0:0:
320,192,48999,1,0,0:0:0:0:
320,192,49166,1,0,0:0:0:0:
448,192,49333,1,0,0:0:0:0:
192,192,49416,1,0,0:0:0:0:
320,192,49499,1,0,0:0:0:0:
192,192,49583,1,0,0:0:0:0:
448,192,49666,1,0,0:0:0:0:
64,192,49749,1,0,0:0:0:0:
192,192,49833,1,0,0:0:0:0:
448,192,49916,1,0,0:0:0:0:
320,192,49999,1,0,0:0:0:0:
64,192,49999,1,0,0:0:0:0:
192,192,50166,1,0,0:0:0:0:
320,192,50166,1,0,0:0:0:0:
448,192,50333,1,0,0:0:0:0:
64,192,50333,1,0,0:0:0:0:
320,192,50499,1,0,0:0:0:0:
192,192,50583,1,0,0:0:0:0:
64,192,50666,1,0,0:0:0:0:
320,192,50666,1,0,0:0:0:0:
448,192,50666,1,0,0:0:0:0:
192,192,50833,1,0,0:0:0:0:
64,192,50833,1,0,0:0:0:0:
448,192,50999,1,0,0:0:0:0:
320,192,50999,1,0,0:0:0:0:
192,192,50999,1,0,0:0:0:0:
320,192,51166,1,0,0:0:0:0:
448,192,51166,1,0,0:0:0:0:
64,192,51249,1,0,0:0:0:0:
192,192,51333,1,0,0:0:0:0:
448,192,51416,1,0,0:0:0:0:
320,192,51499,1,0,0:0:0:0:
64,192,51499,1,0,0:0:0:0:
448,192,51666,1,0,0:0:0:0:
192,192,51666,1,0,0:0:0:0:
192,192,51833,1,0,0:0:0:0:
448,192,51833,1,0,0:0:0:0:
64,192,51833,1,0,0:0:0:0:
320,192,51999,1,0,0:0:0:0:
192,192,52083,1,0,0:0:0:0:
64,192,52083,1,0,0:0:0:0:
448,192,52166,1,0,0:0:0:0:
320,192,52166,1,0,0:0:0:0:
192,192,52249,1,0,0:0:0:0:
64,192,52333,1,0,0:0:0:0:
448,192,52333,1,0,0:0:0:0:
192,192,52416,1,0,0:0:0:0:
320,192,52416,1,0,0:0:0:0:
448,192,52499,1,0,0:0:0:0:
192,192,52583,1,0,0:0:0:0:
64,192,52583,1,0,0:0:0:0:
320,192,52666,1,0,0:0:0:0:
448,192,52666,1,0,0:0:0:0:
192,192,52749,1,0,0:0:0:0:
64,192,52833,1,0,0:0:0:0:
448,192,52833,1,0,0:0:0:0:
192,192,52916,1,0,0:0:0:0:
448,192,52999,1,0,0:0:0:0:
320,192,52999,1,0,0:0:0:0:
64,192,53083,1,0,0:0:0:0:
320,192,53166,1,0,0:0:0:0:
192,192,53166,1,0,0:0:0:0:
448,192,53249,1,0,0:0:0:0:
64,192,53333,1,0,0:0:0:0:
320,192,53333,1,0,0:0:0:0:
192,192,53499,1,0,0:0:0:0:
64,192,53499,1,0,0:0:0:0:
192,192,53666,1,0,0:0:0:0:
448,192,53666,1,0,0:0:0:0:
320,192,53666,1,0,0:0:0:0:
320,192,53833,1,0,0:0:0:0:
64,192,53833,1,0,0:0:0:0:
320,192,53999,1,0,0:0:0:0:
448,192,53999,1,0,0:0:0:0:
192,192,54111,1,0,0:0:0:0:
320,192,54111,1,0,0:0:0:0:
192,192,54222,1,0,0:0:0:0:
64,192,54222,1,0,0:0:0:0:
448,192,54333,1,0,0:0:0:0:
320,192,54333,1,0,0:0:0:0:
320,192,54444,1,0,0:0:0:0:
192,192,54444,1,0,0:0:0:0:
192,192,54555,1,0,0:0:0:0:
64,192,54555,1,0,0:0:0:0:
448,192,54666,1,0,0:0:0:0:
448,192,54833,128,0,55999:0:0:0:0:
320,192,54833,1,0,0:0:0:0:
64,192,54999,1,0,0:0:0:0:
320,192,54999,1,0,0:0:0:0:
192,192,55166,1,0,0:0:0:0:
320,192,55249,1,0,0:0:0:0:
64,192,55333,1,0,0:0:0:0:
192,192,55333,1,0,0:0:0:0:
320,192,55583,1,0,0:0:0:0:
64,192,55583,1,0,0:0:0:0:
192,192,55666,1,0,0:0:0:0:
64,192,55749,1,0,0:0:0:0:
320,192,55833,1,0,0:0:0:0:
192,192,55916,1,0,0:0:0:0:
64,192,55999,1,0,0:0:0:0:
320,192,55999,1,0,0:0:0:0:
192,192,56166,1,0,0:0:0:0:
64,192,56333,1,0,0:0:0:0:
192,192,56333,1,0,0:0:0:0:
448,192,56333,1,0,0:0:0:0:
320,192,56499,1,0,0:0:0:0:
192,192,56583,1,0,0:0:0:0:
64,192,56583,1,0,0:0:0:0:
320,192,56666,1,0,0:0:0:0:
448,192,56666,1,0,0:0:0:0:
192,192,56749,1,0,0:0:0:0:
64,192,56833,1,0,0:0:0:0:
448,192,56833,1,0,0:0:0:0:
192,192,56999,1,0,0:0:0:0:
320,192,56999,1,0,0:0:0:0:
448,192,57166,1,0,0:0:0:0:
320,192,57166,1,0,0:0:0:0:
64,192,57166,1,0,0:0:0:0:
192,192,57333,1,0,0:0:0:0:
448,192,57416,1,0,0:0:0:0:
64,192,57499,1,0,0:0:0:0:
320,192,57583,1,0,0:0:0:0:
192,192,57666,1,0,0:0:0:0:
192,192,57833,1,0,0:0:0:0:
320,192,57999,1,0,0:0:0:0:
320,192,58166,1,0,0:0:0:0:
64,192,58333,1,0,0:0:0:0:
64,192,58416,1,0,0:0:0:0:
448,192,58499,1,0,0:0:0:0:
448,192,58583,1,0,0:0:0:0:
64,192,58666,1,0,0:0:0:0:
320,192,58666,1,0,0:0:0:0:
192,192,58666,1,0,0:0:0:0:
448,192,58833,1,0,0:0:0:0:
64,192,58833,1,0,0:0:0:0:
320,192,58999,1,0,0:0:0:0:
192,192,58999,1,0,0:0:0:0:
448,192,58999,1,0,0:0:0:0:
64,192,59166,1,0,0:0:0:0:
448,192,59166,1,0,0:0:0:0:
320,192,59166,1,0,0:0:0:0:
192,192,59333,1,0,0:0:0:0:
320,192,59333,1,0,0:0:0:0:
192,192,59499,1,0,0:0:0:0:
64,192,59499,1,0,0:0:0:0:
448,192,59499,1,0,0:0:0:0:
448,192,59666,1,0,0:0:0:0:
320,192,59666,1,0,0:0:0:0:
64,192,59666,1,0,0:0:0:0:
192,192,59833,1,0,0:0:0:0:
320,192,59833,1,0,0:0:0:0:
192,192,59999,1,0,0:0:0:0:
448,192,59999,1,0,0:0:0:0:
320,192,60166,1,0,0:0:0:0:
64,192,60166,1,0,0:0:0:0:
320,192,60333,1,0,0:0:0:0:
192,192,60333,1,0,0:0:0:0:
64,192,60333,1,0,0:0:0:0:
192,192,60499,1,0,0:0:0:0:
64,192,60583,1,0,0:0:0:0:
448,192,60666,1,0,0:0:0:0:
320,192,60666,1,0,0:0:0:0:
192,192,60749,1,0,0:0:0:0:
64,192,60749,1,0,0:0:0:0:
320,192,60833,1,0,0:0:0:0:
448,192,60833,1,0,0:0:0:0:
192,192,60999,1,0,0:0:0:0:
64,192,60999,1,0,0:0:0:0:
192,192,61166,1,0,0:0:0:0:
448,192,61166,1,0,0:0:0:0:
320,192,61166,1,0,0:0:0:0:
320,192,61333,1,0,0:0:0:0:
64,192,61333,1,0,0:0:0:0:
448,192,61333,1,0,0:0:0:0:
192,192,61499,1,0,0:0:0:0:
64,192,61499,1,0,0:0:0:0:
448,192,61666,1,0,0:0:0:0:
320,192,61666,1,0,0:0:0:0:
192,192,61666,1,0,0:0:0:0:
64,192,61833,1,0,0:0:0:0:
320,192,61916,1,0,0:0:0:0:
192,192,61999,1,0,0:0:0:0:
64,192,61999,1,0,0:0:0:0:
320,192,62083,1,0,0:0:0:0:
448,192,62083,1,0,0:0:0:0:
448,192,62166,1,0,0:0:0:0:
64,192,62166,1,0,0:0:0:0:
192,192,62166,1,0,0:0:0:0:
320,192,62333,1,0,0:0:0:0:
192,192,62499,1,0,0:0:0:0:
64,192,62499,1,0,0:0:0:0:
448,192,62499,1,0,0:0:0:0:
320,192,62666,1,0,0:0:0:0:
64,192,62666,1,0,0:0:0:0:
192,192,62749,1,0,0:0:0:0:
448,192,62833,1,0,0:0:0:0:
320,192,62833,1,0,0:0:0:0:
64,192,62916,1,0,0:0:0:0:
192,192,62999,1,0,0:0:0:0:
448,192,62999,1,0,0:0:0:0:
320,192,62999,1,0,0:0:0:0:
192,192,63166,1,0,0:0:0:0:
448,192,63166,1,0,0:0:0:0:
320,192,63166,1,0,0:0:0:0:
320,192,63333,1,0,0:0:0:0:
64,192,63333,1,0,0:0:0:0:
192,192,63499,1,0,0:0:0:0:
64,192,63499,1,0,0:0:0:0:
320,192,63583,1,0,0:0:0:0:
448,192,63583,1,0,0:0:0:0:
192,192,63666,1,0,0:0:0:0:
192,192,63749,1,0,0:0:0:0:
320,192,63833,1,0,0:0:0:0:
320,192,63916,1,0,0:0:0:0:
448,192,63999,128,0,65333:0:0:0:0:
64,192,63999,128,0,65333:0:0:0:0:
320,192,65333,1,0,0:0:0:0:
192,192,65333,1,0,0:0:0:0:
448,192,65499,1,0,0:0:0:0:
320,192,65499,1,0,0:0:0:0:
192,192,65666,1,0,0:0:0:0:
64,192,65749,1,0,0:0:0:0:
320,192,65833,1,0,0:0:0:0:
192,192,65916,1,0,0:0:0:0:
64,192,65999,1,0,0:0:0:0:
448,192,65999,1,0,0:0:0:0:
64,192,66166,1,0,0:0:0:0:
320,192,66166,1,0,0:0:0:0:
192,192,66333,1,0,0:0:0:0:
320,192,66333,1,0,0:0:0:0:
448,192,66499,1,0,0:0:0:0:
64,192,66499,1,0,0:0:0:0:
64,192,66666,1,0,0:0:0:0:
192,192,66666,1,0,0:0:0:0:
320,192,66833,1,0,0:0:0:0:
448,192,66999,1,0,0:0:0:0:
192,192,66999,1,0,0:0:0:0:
320,192,67166,1,0,0:0:0:0:
64,192,67249,1,0,0:0:0:0:
192,192,67333,1,0,0:0:0:0:
320,192,67333,1,0,0:0:0:0:
320,192,67444,1,0,0:0:0:0:
448,192,67444,1,0,0:0:0:0:
64,192,67555,1,0,0:0:0:0:
192,192,67555,1,0,0:0:0:0:
192,192,67666,1,0,0:0:0:0:
320,192,67666,1,0,0:0:0:0:
320,192,67777,1,0,0:0:0:0:
448,192,67777,1,0,0:0:0:0:
64,192,67888,1,0,0:0:0:0:
192,192,67888,1,0,0:0:0:0:
320,192,67999,1,0,0:0:0:0:
448,192,68083,1,0,0:0:0:0:
192,192,68166,1,0,0:0:0:0:
320,192,68249,1,0,0:0:0:0:
64,192,68333,1,0,0:0:0:0:
192,192,68416,1,0,0:0:0:0:
320,192,68499,1,0,0:0:0:0:
448,192,68583,1,0,0:0:0:0:
64,192,68666,1,0,0:0:0:0:
192,192,68666,1,0,0:0:0:0:
192,192,68833,1,0,0:0:0:0:
320,192,68833,1,0,0:0:0:0:
448,192,68999,1,0,0:0:0:0:
320,192,68999,1,0,0:0:0:0:
64,192,69166,1,0,0:0:0:0:
192,192,69249,1,0,0:0:0:0:
448,192,69333,1,0,0:0:0:0:
64,192,69333,1,0,0:0:0:0:
320,192,69499,1,0,0:0:0:0:
192,192,69666,1,0,0:0:0:0:
320,192,69666,1,0,0:0:0:0:
448,192,69666,1,0,0:0:0:0:
448,192,69833,1,0,0:0:0:0:
192,192,69916,1,0,0:0:0:0:
64,192,69916,1,0,0:0:0:0:
64,192,70083,1,0,0:0:0:0:
192,192,70083,1,0,0:0:0:0:
448,192,70166,1,0,0:0:0:0:
320,192,70166,1,0,0:0:0:0:
64,192,70249,1,0,0:0:0:0:
320,192,70333,1,0,0:0:0:0:
448,192,70333,1,0,0:0:0:0:
192,192,70499,1,0,0:0:0:0:
64,192,70499,1,0,0:0:0:0:
448,192,70583,1,0,0:0:0:0:
320,192,70666,1,0,0:0:0:0:
64,192,70749,1,0,0:0:0:0:
448,192,70833,1,0,0:0:0:0:
192,192,70916,1,0,0:0:0:0:
320,192,70999,1,0,0:0:0:0:
64,192,71083,1,0,0:0:0:0:
192,192,71166,1,0,0:0:0:0:
448,192,71249,1,0,0:0:0:0:
320,192,71333,1,0,0:0:0:0:
64,192,71333,1,0,0:0:0:0:
192,192,71416,1,0,0:0:0:0:
448,192,71499,1,0,0:0:0:0:
320,192,71583,1,0,0:0:0:0:
64,192,71666,1,0,0:0:0:0:
192,192,71666,1,0,0:0:0:0:
448,192,71749,1,0,0:0:0:0:
64,192,71833,1,0,0:0:0:0:
320,192,71916,1,0,0:0:0:0:
192,192,71999,1,0,0:0:0:0:
448,192,71999,1,0,0:0:0:0:
64,192,71999,1,0,0:0:0:0:
192,192,72166,1,0,0:0:0:0:
64,192,72249,1,0,0:0:0:0:
320,192,72249,1,0,0:0:0:0:
448,192,72249,1,0,0:0:0:0:
320,192,72416,1,0,0:0:0:0:
448,192,72499,1,0,0:0:0:0:
192,192,72499,1,0,0:0:0:0:
64,192,72499,1,0,0:0:0:0:
64,192,72666,1,0,0:0:0:0:
192,192,72749,1,0,0:0:0:0:
448,192,72749,1,0,0:0:0:0:
320,192,72749,1,0,0:0:0:0:
448,192,72916,1,0,0:0:0:0:
64,192,72999,1,0,0:0:0:0:
192,192,72999,1,0,0:0:0:0:
320,192,72999,1,0,0:0:0:0:
448,192,73166,1,0,0:0:0:0:
192,192,73333,1,0,0:0:0:0:
320,192,73416,1,0,0:0:0:0:
64,192,73499,1,0,0:0:0:0:
320,192,73583,1,0,0:0:0:0:
192,192,73666,1,0,0:0:0:0:
448,192,73666,1,0,0:0:0:0:
192,192,73833,1,0,0:0:0:0:
448,192,73833,1,0,0:0:0:0:
320,192,73999,1,0,0:0:0:0:
64,192,73999,1,0,0:0:0:0:
448,192,74083,1,0,0:0:0:0:
192,192,74166,1,0,0:0:0:0:
320,192,74249,1,0,0:0:0:0:
448,192,74249,1,0,0:0:0:0:
64,192,74333,1,0,0:0:0:0:
192,192,74416,1,0,0:0:0:0:
320,192,74499,1,0,0:0:0:0:
448,192,74499,1,0,0:0:0:0:
192,192,74583,1,0,0:0:0:0:
64,192,74583,1,0,0:0:0:0:
448,192,74666,1,0,0:0:0:0:
320,192,74666,1,0,0:0:0:0:
448,192,74833,1,0,0:0:0:0:
192,192,74833,1,0,0:0:0:0:
64,192,74999,1,0,0:0:0:0:
320,192,74999,1,0,0:0:0:0:
192,192,75166,1,0,0:0:0:0:
448,192,75249,1,0,0:0:0:0:
320,192,75333,1,0,0:0:0:0:
64,192,75333,1,0,0:0:0:0:
320,192,75499,1,0,0:0:0:0:
64,192,75666,1,0,0:0:0:0:
192,192,75666,1,0,0:0:0:0:
320,192,75749,1,0,0:0:0:0:
448,192,75749,1,0,0:0:0:0:
64,192,75833,1,0,0:0:0:0:
192,192,75833,1,0,0:0:0:0:
320,192,75916,1,0,0:0:0:0:
448,192,75916,1,0,0:0:0:0:
64,192,75999,1,0,0:0:0:0:
192,192,75999,1,0,0:0:0:0:
448,192,76083,1,0,0:0:0:0:
320,192,76166,1,0,0:0:0:0:
192,192,76166,1,0,0:0:0:0:
64,192,76249,1,0,0:0:0:0:
320,192,76333,1,0,0:0:0:0:
448,192,76333,1,0,0:0:0:0:
320,192,76499,1,0,0:0:0:0:
448,192,76499,1,0,0:0:0:0:
448,192,76666,1,0,0:0:0:0:
64,192,76666,1,0,0:0:0:0:
192,192,76749,1,0,0:0:0:0:
320,192,76833,1,0,0:0:0:0:
64,192,76833,1,0,0:0:0:0:
192,192,76916,1,0,0:0:0:0:
448,192,76999,1,0,0:0:0:0:
320,192,76999,1,0,0:0:0:0:
64,192,77083,1,0,0:0:0:0:
192,192,77166,1,0,0:0:0:0:
320,192,77249,1,0,0:0:0:0:
448,192,77333,1,0,0:0:0:0:
64,192,77333,1,0,0:0:0:0:
192,192,77333,1,0,0:0:0:0:
320,192,77499,1,0,0:0:0:0:
64,192,77499,1,0,0:0:0:0:
192,192,77666,1,0,0:0:0:0:
320,192,77666,1,0,0:0:0:0:
448,192,77666,1,0,0:0:0:0:
64,192,77833,1,0,0:0:0:0:
192,192,77916,1,0,0:0:0:0:
320,192,77999,1,0,0:0:0:0:
448,192,77999,1,0,0:0:0:0:
320,192,78166,1,0,0:0:0:0:
64,192,78166,1,0,0:0:0:0:
192,192,78333,1,0,0:0:0:0:
448,192,78333,1,0,0:0:0:0:
320,192,78333,1,0,0:0:0:0:
64,192,78499,1,0,0:0:0:0:
192,192,78499,1,0,0:0:0:0:
448,192,78499,1,0,0:0:0:0:
320,192,78666,1,0,0:0:0:0:
192,192,78749,1,0,0:0:0:0:
448,192,78833,1,0,0:0:0:0:
64,192,78833,1,0,0:0:0:0:
320,192,78916,1,0,0:0:0:0:
192,192,78999,1,0,0:0:0:0:
64,192,78999,1,0,0:0:0:0:
192,192,79166,1,0,0:0:0:0:
64,192,79166,1,0,0:0:0:0:
320,192,79333,1,0,0:0:0:0:
64,192,79333,1,0,0:0:0:0:
448,192,79499,1,0,0:0:0:0:
320,192,79499,1,0,0:0:0:0:
192,192,79499,1,0,0:0:0:0:
192,192,79666,1,0,0:0:0:0:
320,192,79749,1,0,0:0:0:0:
448,192,79833,1,0,0:0:0:0:
64,192,79833,1,0,0:0:0:0:
192,192,79916,1,0,0:0:0:0:
320,192,79999,1,0,0:0:0:0:
64,192,79999,1,0,0:0:0:0:
448,192,79999,1,0,0:0:0:0:
192,192,80166,1,0,0:0:0:0:
448,192,80166,1,0,0:0:0:0:
192,192,80333,1,0,0:0:0:0:
320,192,80333,1,0,0:0:0:0:
64,192,80333,1,0,0:0:0:0:
320,192,80499,1,0,0:0:0:0:
448,192,80583,1,0,0:0:0:0:
192,192,80666,1,0,0:0:0:0:
64,192,80666,1,0,0:0:0:0:
320,192,80749,1,0,0:0:0:0:
192,192,80833,1,0,0:0:0:0:
448,192,80833,1,0,0:0:0:0:
320,192,80999,1,0,0:0:0:0:
64,192,80999,1,0,0:0:0:0:
64,192,81166,1,0,0:0:0:0:
192,192,81166,1,0,0:0:0:0:
320,192,81166,1,0,0:0:0:0:
192,192,81333,1,0,0:0:0:0:
448,192,81416,1,0,0:0:0:0:
64,192,81499,1,0,0:0:0:0:
192,192,81499,1,0,0:0:0:0:
320,192,81583,1,0,0:0:0:0:
192,192,81666,1,0,0:0:0:0:
448,192,81666,1,0,0:0:0:0:
448,192,81833,1,0,0:0:0:0:
192,192,81833,1,0,0:0:0:0:
320,192,81999,1,0,0:0:0:0:
64,192,82166,1,0,0:0:0:0:
192,192,82166,1,0,0:0:0:0:
448,192,82166,1,0,0:0:0:0:
320,192,82333,1,0,0:0:0:0:
192,192,82416,1,0,0:0:0:0:
448,192,82499,1,0,0:0:0:0:
320,192,82583,1,0,0:0:0:0:
192,192,82666,1,0,0:0:0:0:
448,192,82666,1,0,0:0:0:0:
64,192,82833,1,0,0:0:0:0:
320,192,82833,1,0,0:0:0:0:
64,192,82999,1,0,0:0:0:0:
320,192,82999,1,0,0:0:0:0:
192,192,82999,1,0,0:0:0:0:
448,192,83166,1,0,0:0:0:0:
192,192,83249,1,0,0:0:0:0:
64,192,83333,1,0,0:0:0:0:
320,192,83333,1,0,0:0:0:0:
448,192,83416,1,0,0:0:0:0:
192,192,83499,1,0,0:0:0:0:
64,192,83499,1,0,0:0:0:0:
320,192,83666,1,0,0:0:0:0:
192,192,83666,1,0,0:0:0:0:
448,192,83833,1,0,0:0:0:0:
320,192,83833,1,0,0:0:0:0:
64,192,83833,1,0,0:0:0:0:
192,192,83999,1,0,0:0:0:0:
64,192,84083,1,0,0:0:0:0:
448,192,84166,1,0,0:0:0:0:
320,192,84166,1,0,0:0:0:0:
192,192,84249,1,0,0:0:0:0:
64,192,84333,1,0,0:0:0:0:
448,192,84333,1,0,0:0:0:0:
64,192,84499,1,0,0:0:0:0:
448,192,84499,1,0,0:0:0:0:
320,192,84666,1,0,0:0:0:0:
192,192,84666,1,0,0:0:0:0:
448,192,84833,1,0,0:0:0:0:
320,192,84833,1,0,0:0:0:0:
64,192,84833,1,0,0:0:0:0:
192,192,84999,1,0,0:0:0:0:
320,192,85083,1,0,0:0:0:0:
448,192,85166,1,0,0:0:0:0:
192,192,85166,1,0,0:0:0:0:
320,192,85249,128,0,87999:0:0:0:0:
64,192,85249,128,0,87999:0:0:0:0:
