osu file format v14

[General]
AudioFilename: audio.mp3
AudioLeadIn: 0
PreviewTime: 163741
Countdown: 0
SampleSet: Soft
StackLeniency: 0.7
Mode: 0
LetterboxInBreaks: 0
WidescreenStoryboard: 0

[Editor]
DistanceSpacing: 1
BeatDivisor: 4
GridSize: 8
TimelineZoom: 3.900001

[Metadata]
Title:#sawg (Wan Bushi Remix)
TitleUnicode:#sawg (Wan Bushi Remix)
Artist:odaxelagnia
ArtistUnicode:odaxelagnia
Creator:deadpon3
Version:#extra
Source:
Tags:skrd skrd!!! dancecorps shitmusic strong remixes breakcore lolicore shakira dare taylor swift shake it off andy milonakis
BeatmapID:1428949
BeatmapSetID:670068

[Difficulty]
HPDrainRate:5
CircleSize:4.1
OverallDifficulty:8.4
ApproachRate:9.5
SliderMultiplier:1.4
SliderTickRate:1

[Events]
//Background and Video events
0,0,"andy milonakis irl.jpg",0,0
//Break Periods
2,276477,283842
//Storyboard Layer 0 (Background)
//Storyboard Layer 1 (Fail)
//Storyboard Layer 2 (Pass)
//Storyboard Layer 3 (Foreground)
//Storyboard Sound Samples

[TimingPoints]
-15,292.682926829268,4,2,0,100,1,0
8180,-133.333333333333,4,2,0,5,0,0
9350,-166.666666666667,4,2,0,69,0,0
18716,-142.857142857143,4,2,0,69,0,0
25741,-125,4,2,0,69,0,0
28082,-125,4,2,0,69,0,0
36277,-166.666666666667,4,2,0,69,0,0
37448,-166.666666666667,4,2,0,30,0,0
38033,-200,4,2,0,30,0,0
39497,-200,4,2,0,10,0,0
39789,-200,4,2,0,30,0,0
49741,-166.666666666667,4,2,0,30,0,0
50326,-166.666666666667,4,2,0,40,0,0
51497,-142.857142857143,4,2,0,50,0,0
52082,-125,4,2,0,55,0,0
52667,-100,4,2,0,60,0,0
55594,-83.3333333333333,4,2,0,69,0,0
56180,-133.333333333333,4,2,0,69,0,0
59984,-133.333333333333,4,2,0,40,0,0
60131,-133.333333333333,4,2,0,69,0,0
60277,-133.333333333333,4,2,0,69,0,0
65545,-125,4,2,0,69,0,0
78424,-100,4,2,0,69,0,0
79594,-100,4,2,0,63,0,0
80180,-100,4,2,0,57,0,0
80765,-100,4,2,0,54,0,0
81350,-100,4,2,0,51,0,0
84131,-100,4,2,0,5,0,0
84277,-100,4,2,0,69,0,0
93204,-100,4,2,0,69,0,0
93936,-83.3333333333333,4,2,0,69,0,0
94228,-100,4,2,0,69,0,0
96863,-83.3333333333333,4,2,0,69,0,0
98033,-100,4,2,0,69,0,0
98619,-76.9230769230769,4,2,0,69,0,0
102863,-133.333333333333,4,2,0,5,0,0
103009,-83.3333333333333,4,2,0,69,0,1
120570,-125,4,2,0,69,0,0
126277,-125,4,2,0,5,0,0
126424,-125,4,2,0,40,0,0
128765,-100,4,2,0,60,0,0
131106,-125,4,2,0,40,0,0
135789,-125,4,2,0,60,0,0
154375,-125,4,2,0,5,0,0
154521,-166.666666666667,4,2,0,69,0,0
156570,-166.666666666667,4,2,0,45,0,0
156863,-166.666666666667,4,2,0,69,0,0
159204,-100,4,2,0,69,0,0
161545,-83.3333333333333,4,2,0,69,0,0
163887,-125,4,2,0,50,0,0
167033,-125,4,2,0,5,0,0
167106,-125,4,2,0,50,0,0
171058,-100,4,2,0,69,0,0
173253,-83.3333333333333,4,2,0,69,0,0
191984,-100,4,2,0,69,0,0
206033,-76.9230769230769,4,2,0,69,0,1
214814,-71.4285714285714,4,2,0,69,0,1
215399,-76.9230769230769,4,2,0,69,0,1
224180,-71.4285714285714,4,2,0,69,0,1
224765,-133.333333333333,4,2,0,69,0,0
233545,-400,4,2,0,69,0,0
233765,-400,4,2,0,5,0,0
233838,-400,4,2,0,5,0,0
233984,-200,4,2,0,5,0,0
234131,-100,4,2,0,69,0,0
271009,-100,4,2,0,40,0,0
271594,-100,4,2,0,69,0,0
285643,-100,4,2,0,69,0,0
289741,-166.666666666667,4,2,0,69,0,0
290911,-142.857142857143,4,2,0,69,0,0
291497,-100,4,2,0,69,0,0
295009,-133.333333333333,4,2,0,69,0,0
298814,-133.333333333333,4,2,0,40,0,0
298960,-133.333333333333,4,2,0,69,0,0
299106,-133.333333333333,4,2,0,69,0,0
303204,-90.9090909090909,4,2,0,69,0,0
304228,-83.3333333333333,4,2,0,5,0,0
304375,-83.3333333333333,4,2,0,69,0,1
321936,-100,4,2,0,69,0,0
333058,-133.333333333333,4,2,0,69,0,0
333277,-133.333333333333,4,2,0,5,0,0
333350,-100,4,2,0,69,0,0
339497,-133.333333333333,4,2,0,69,0,0
351204,-100,4,2,0,69,0,0
369936,-133.333333333333,4,2,0,69,0,0

[Colours]
Combo1 : 128,128,255
Combo2 : 64,0,128
Combo3 : 255,94,255
Combo4 : 255,255,15

[HitObjects]
256,192,8180,12,0,9058,0:0:0:0:
119,142,9350,6,0,L|262:147,1,125.999996154785,2|0,0:0|0:0,0:0:0:0:
144,55,9936,2,0,L|49:69,1,83.9999974365235,8|0,0:0|0:0,0:0:0:0:
25,240,10521,6,0,P|12:201|18:160,1,83.9999974365235,2|0,0:0|0:0,0:0:0:0:
168,313,10960,1,0,0:0:0:0:
168,313,11106,2,0,L|76:307,1,83.9999974365235,8|0,0:0|0:0,0:0:0:0:
244,146,11692,6,0,P|270:202|265:264,1,125.999996154785,2|0,0:0|0:0,0:0:0:0:
84,307,12277,2,0,L|168:313,1,83.9999974365235,8|0,0:0|0:0,0:0:0:0:
172,126,12863,6,0,L|88:131,1,83.9999974365235,2|0,0:0|0:0,0:0:0:0:
291,220,13302,1,0,0:0:0:0:
291,220,13448,2,0,L|375:226,1,83.9999974365235,8|0,0:0|0:0,0:0:0:0:
468,225,14033,6,0,B|458:169|458:169|473:90,1,125.999996154785,2|0,0:0|0:0,0:0:0:0:
374,225,14619,2,0,L|389:318,1,83.9999974365235,8|0,0:0|0:0,0:0:0:0:
299,111,15204,6,0,L|284:204,1,83.9999974365235,2|0,0:0|0:0,0:0:0:0:
387,307,15643,1,0,0:0:0:0:
387,307,15789,2,0,L|374:225,1,83.9999974365235,8|0,0:0|0:0,0:0:0:0:
193,129,16375,6,0,B|183:189|183:189|197:265,1,125.999996154785,2|0,0:0|0:0,0:0:0:0:
194,335,16960,2,0,B|201:290|201:290|191:234,1,83.9999974365235,8|0,0:0|0:0,0:0:0:0:
20,230,17545,6,0,L|123:230,1,83.9999974365235,2|0,0:0|0:0,0:0:0:0:
299,111,18131,1,4,0:0:0:0:
104,230,18424,1,0,0:0:0:0:
347,166,18716,6,0,L|335:55,1,97.9999970092774,2|0,0:0|0:0,0:0:0:0:
153,54,19302,2,0,B|205:51|205:51|252:31,1,97.9999970092774,8|0,0:0|0:0,0:0:0:0:
46,11,19741,1,0,0:0:0:0:
93,132,19887,6,0,L|103:229,1,97.9999970092774,2|0,0:0|0:0,0:0:0:0:
254,324,20472,1,8,0:0:0:0:
97,327,20765,1,0,0:0:0:0:
175,298,20911,1,0,0:0:0:0:
254,324,21058,5,2,0:0:0:0:
284,169,21350,1,0,0:0:0:0:
254,324,21643,1,8,0:0:0:0:
284,169,21936,1,0,0:0:0:0:
97,327,22228,5,2,0:0:0:0:
175,298,22374,1,0,0:0:0:0:
254,324,22521,1,8,0:0:0:0:
336,335,22667,1,0,0:0:0:0:
404,287,22814,2,0,P|453:276|474:280,1,48.9999985046387,8|0,0:0|0:0,0:0:0:0:
484,375,23106,2,0,P|441:348|429:330,1,48.9999985046387
509,208,23399,6,0,P|520:160|511:112,1,97.9999970092774,2|0,0:0|0:0,0:0:0:0:
391,64,23838,1,0,0:0:0:0:
305,188,23984,2,0,P|296:233|317:299,1,97.9999970092774,8|0,0:0|0:0,0:0:0:0:
247,133,24424,1,0,0:0:0:0:
247,133,24570,6,0,L|243:84,1,48.9999985046387,2|0,0:0|0:0,0:0:0:0:
387,204,24863,1,8,0:0:0:0:
512,113,25155,1,8,0:0:0:0:
378,288,25448,1,0,0:0:0:0:
387,204,25594,1,0,0:0:0:0:
466,255,25741,6,0,P|475:289|470:324,1,56,2|0,0:0|0:0,0:0:0:0:
387,204,26033,1,0,0:0:0:0:
378,288,26180,1,0,0:0:0:0:
301,206,26326,2,0,P|304:178|316:153,1,56,8|0,0:0|0:0,0:0:0:0:
396,121,26619,1,0,0:0:0:0:
396,121,26765,1,0,0:0:0:0:
505,187,26911,5,2,0:0:0:0:
102,259,27350,1,0,0:0:0:0:
386,303,27789,1,0,0:0:0:0:
160,97,28082,6,0,L|68:90,2,84,2|0|8,0:0|0:0|0:0,0:0:0:0:
315,184,28667,2,0,L|308:211,1,28,2|0,0:0|0:0,0:0:0:0:
377,129,28813,1,0,0:0:0:0:
398,128,28886,1,0,0:0:0:0:
419,126,28960,1,8,0:0:0:0:
229,40,29106,1,0,0:0:0:0:
387,209,29253,6,0,L|479:202,2,84,2|0|8,0:0|0:0|0:0,0:0:0:0:
191,271,29838,2,0,L|197:298,1,28,2|0,0:0|0:0,0:0:0:0:
120,246,29984,1,0,0:0:0:0:
99,245,30057,1,0,0:0:0:0:
78,243,30131,1,8,0:0:0:0:
283,344,30277,1,0,0:0:0:0:
129,132,30424,6,0,L|124:45,1,84,2|0,0:0|0:0,0:0:0:0:
235,227,30863,1,8,0:0:0:0:
33,172,31009,1,0,0:0:0:0:
32,151,31082,1,0,0:0:0:0:
31,130,31155,1,0,0:0:0:0:
30,109,31228,1,0,0:0:0:0:
29,89,31301,1,8,0:0:0:0:
120,282,31448,1,0,0:0:0:0:
256,58,31594,6,0,L|251:141,1,84,2|0,0:0|0:0,0:0:0:0:
121,21,32033,1,8,0:0:0:0:
339,117,32180,1,0,0:0:0:0:
337,137,32253,1,0,0:0:0:0:
336,158,32326,1,0,0:0:0:0:
335,179,32399,1,0,0:0:0:0:
334,200,32472,1,8,0:0:0:0:
201,0,32619,1,0,0:0:0:0:
399,55,32765,6,0,L|482:50,2,84,2|0|8,0:0|0:0|0:0,0:0:0:0:
225,84,33350,1,0,0:0:0:0:
191,110,33423,1,0,0:0:0:0:
197,153,33496,1,0,0:0:0:0:
236,170,33569,1,0,0:0:0:0:
271,144,33642,1,8,0:0:0:0:
124,53,33789,1,0,0:0:0:0:
358,133,33936,6,0,L|441:128,2,84,2|0|8,0:0|0:0|0:0,0:0:0:0:
226,106,34521,1,0,0:0:0:0:
192,132,34594,1,0,0:0:0:0:
198,175,34667,1,0,0:0:0:0:
237,192,34740,1,0,0:0:0:0:
272,166,34813,1,8,0:0:0:0:
125,75,34960,1,0,0:0:0:0:
409,204,35106,6,0,L|492:199,2,84,2|0|8,0:0|0:0|0:0,0:0:0:0:
256,83,35692,2,0,L|258:110,1,28
193,162,35838,1,0,0:0:0:0:
191,175,35911,1,0,0:0:0:0:
190,189,35984,1,0,0:0:0:0:
117,45,36131,1,0,0:0:0:0:
358,133,36277,6,0,L|430:128,2,62.9999980773926,2|0|8,0:0|0:0|0:0,0:0:0:0:
260,38,36863,2,0,L|262:65,1,20.9999993591309
191,102,37009,2,0,L|188:135,2,20.9999993591309,0|0|8,0:0|0:0|0:0,0:0:0:0:
127,15,37302,1,0,0:0:0:0:
96,214,37448,6,0,P|119:261|161:188,1,167.999994873047
58,115,38326,1,0,0:0:0:0:
172,199,38619,6,0,B|263:237|274:154|383:188,1,210
466,221,39789,1,0,0:0:0:0:
375,272,40960,6,0,B|327:293|284:287|284:287|305:294|332:310,1,140,2|0,0:0|0:0,0:0:0:0:
461,221,42131,6,0,B|478:167|445:126|445:126|506:102|514:49,1,210
512,48,43302,1,0,0:0:0:0:
315,21,44472,1,0,0:0:0:0:
138,111,45643,6,0,P|90:115|28:88,2,105,2|0|0,0:0|0:0|0:0,0:0:0:0:
0,234,46814,6,0,P|4:199|19:167,1,70,2|0,0:0|0:0,0:0:0:0:
188,167,47399,2,0,P|202:196|207:236,1,70
91,332,47984,6,0,L|103:228,2,105,2|0|0,0:0|0:0|0:0,0:0:0:0:
399,226,49155,5,2,0:0:0:0:
207,233,49448,1,0,0:0:0:0:
399,226,49741,2,0,L|411:330,1,83.9999974365235
469,74,50326,6,0,L|481:178,1,83.9999974365235,2|0,0:0|0:0,0:0:0:0:
307,234,50765,1,0,0:0:0:0:
307,234,50838,1,0,0:0:0:0:
307,234,50911,2,0,L|297:150,1,83.9999974365235,2|0,0:0|0:0,0:0:0:0:
435,243,51350,1,0,0:0:0:0:
218,331,51497,6,0,L|207:233,1,97.9999970092774,2|0,0:0|0:0,0:0:0:0:
366,301,51936,1,0,0:0:0:0:
113,255,52082,2,0,L|100:140,1,112,2|0,0:0|0:0,0:0:0:0:
218,331,52521,1,0,0:0:0:0:
31,346,52667,6,0,L|18:245,1,70,2|0,0:0|0:0,0:0:0:0:
0,121,52960,1,2,0:0:0:0:
0,121,53106,1,0,0:0:0:0:
266,116,53253,1,2,0:0:0:0:
128,193,53399,1,0,0:0:0:0:
217,330,53545,2,0,L|206:232,1,70,2|0,0:0|0:0,0:0:0:0:
466,173,53838,6,0,P|445:173|421:168,3,35,2|0|0|0,0:0|0:0|0:0|0:0,0:0:0:0:
344,75,54131,2,0,P|365:75|389:80,3,35,2|0|0|0,0:0|0:0|0:0|0:0,0:0:0:0:
319,213,54424,2,0,L|329:257,3,35,2|0|0|0,0:0|0:0|0:0|0:0,0:0:0:0:
219,77,54716,2,0,L|226:42,3,35,2|0|0|0,0:0|0:0|0:0|0:0,0:0:0:0:
171,194,55009,5,2,0:0:0:0:
147,205,55082,1,0,0:0:0:0:
121,210,55155,1,0,0:0:0:0:
95,206,55228,1,0,0:0:0:0:
72,195,55301,1,2,0:0:0:0:
35,234,55375,1,0,0:0:0:0:
33,287,55448,1,0,0:0:0:0:
65,328,55521,1,0,0:0:0:0:
114,348,55594,6,0,P|135:348|159:343,3,41.9999987182618,2|0|0|0,0:0|0:0|0:0|0:0,0:0:0:0:
276,273,55887,2,0,P|295:280|314:291,3,41.9999987182618
449,193,56180,6,0,P|421:235|420:299,1,105.000004005432,2|0,0:0|0:0,0:0:0:0:
449,193,56619,1,0,0:0:0:0:
393,123,56765,2,0,P|376:89|376:50,2,78.7500030040742,8|0|0,0:0|0:0|0:0,0:0:0:0:
417,288,57350,6,0,P|420:236|449:193,1,105.000004005432,2|0,0:0|0:0,0:0:0:0:
322,180,57789,1,0,0:0:0:0:
322,180,57936,2,0,L|244:172,2,78.7500030040742,8|0|0,0:0|0:0|0:0,0:0:0:0:
164,104,58521,6,0,L|36:118,1,105.000004005432,2|0,0:0|0:0,0:0:0:0:
164,104,58960,1,0,0:0:0:0:
244,172,59106,2,0,L|322:180,2,78.7500030040742,8|0|0,0:0|0:0|0:0,0:0:0:0:
164,104,59692,6,0,L|59:115,1,105.000004005432,2|0,0:0|0:0,0:0:0:0:
6,248,60131,1,0,0:0:0:0:
6,248,60277,2,0,P|0:209|6:171,2,78.7500030040742,8|0|0,0:0|0:0|0:0,0:0:0:0:
182,277,60863,6,0,L|78:289,1,105.000004005432,2|0,0:0|0:0,0:0:0:0:
273,201,61302,1,0,0:0:0:0:
273,201,61448,2,0,L|264:289,2,78.7500030040742,8|0|0,0:0|0:0|0:0,0:0:0:0:
450,173,62033,6,0,L|440:278,1,105.000004005432,2|0,0:0|0:0,0:0:0:0:
349,328,62472,1,0,0:0:0:0:
349,328,62619,2,0,L|356:247,2,78.7500030040742,8|0|0,0:0|0:0|0:0,0:0:0:0:
449,173,63204,6,0,L|459:68,1,105.000004005432,2|0,0:0|0:0,0:0:0:0:
369,8,63643,1,0,0:0:0:0:
369,8,63789,2,0,P|330:3|293:16,2,78.7500030040742,8|0|0,0:0|0:0|0:0,0:0:0:0:
197,128,64375,5,2,0:0:0:0:
282,109,64521,1,0,0:0:0:0:
82,14,64667,5,2,0:0:0:0:
167,33,64813,1,0,0:0:0:0:
64,175,64960,5,2,0:0:0:0:
60,148,65106,1,0,0:0:0:0:
57,122,65253,1,2,0:0:0:0:
214,273,65545,6,0,P|166:289|104:267,1,112,2|0,0:0|0:0,0:0:0:0:
306,189,65984,1,0,0:0:0:0:
306,189,66131,2,0,L|316:309,1,112,8|0,0:0|0:0,0:0:0:0:
457,91,66570,5,0,0:0:0:0:
455,109,66643,1,0,0:0:0:0:
453,128,66716,2,0,L|446:207,1,56,2|0,0:0|0:0,0:0:0:0:
422,279,67009,1,8,0:0:0:0:
422,279,67155,1,0,0:0:0:0:
244,119,67302,2,0,P|306:98|362:110,1,112,8|0,0:0|0:0,0:0:0:0:
244,119,67741,1,0,0:0:0:0:
142,77,67887,6,0,L|138:12,1,56,2|0,0:0|0:0,0:0:0:0:
57,114,68180,2,0,P|51:160|56:177,1,56
183,215,68472,2,0,P|165:172|152:159,1,56,8|0,0:0|0:0,0:0:0:0:
47,251,68765,1,0,0:0:0:0:
123,336,68911,5,0,0:0:0:0:
124,321,68984,1,0,0:0:0:0:
126,306,69057,1,2,0:0:0:0:
258,233,69204,1,0,0:0:0:0:
314,350,69350,2,0,P|261:344|240:326,1,56,8|0,0:0|0:0,0:0:0:0:
379,209,69643,2,0,P|400:260|381:315,1,112,8|0,0:0|0:0,0:0:0:0:
379,209,70082,1,0,0:0:0:0:
481,149,70228,6,0,L|494:38,1,112,2|0,0:0|0:0,0:0:0:0:
305,20,70667,1,0,0:0:0:0:
305,20,70814,2,0,P|352:-3|414:4,1,112,8|0,0:0|0:0,0:0:0:0:
366,130,71253,5,0,0:0:0:0:
368,112,71326,1,0,0:0:0:0:
370,93,71399,1,2,0:0:0:0:
385,245,71545,1,0,0:0:0:0:
481,149,71692,1,8,0:0:0:0:
481,149,71838,1,0,0:0:0:0:
274,253,71984,2,0,L|390:245,1,112,8|0,0:0|0:0,0:0:0:0:
184,310,72424,1,0,0:0:0:0:
129,172,72570,6,0,P|115:211|115:231,1,56,2|0,0:0|0:0,0:0:0:0:
15,45,72863,2,0,P|29:84|29:104,1,56
118,179,73155,6,0,P|98:215|94:235,1,56,8|0,0:0|0:0,0:0:0:0:
26,52,73448,2,0,P|46:88|50:108,1,56
16,173,73667,1,0,0:0:0:0:
16,173,73741,1,2,0:0:0:0:
102,301,73887,1,0,0:0:0:0:
225,196,74033,2,0,L|162:193,1,56,8|0,0:0|0:0,0:0:0:0:
316,128,74326,2,0,L|190:122,1,112,8|0,0:0|0:0,0:0:0:0:
417,34,74765,1,0,0:0:0:0:
483,222,74911,6,0,P|470:167|482:113,1,112,2|0,0:0|0:0,0:0:0:0:
363,313,75350,1,0,0:0:0:0:
363,313,75497,2,0,P|418:296|475:312,1,112,8|0,0:0|0:0,0:0:0:0:
280,242,75936,5,0,0:0:0:0:
280,242,76009,1,0,0:0:0:0:
280,242,76082,2,0,P|243:249|208:244,1,56,2|0,0:0|0:0,0:0:0:0:
113,154,76375,2,0,P|150:156|183:170,1,56,8|0,0:0|0:0,0:0:0:0:
94,318,76667,2,0,P|64:293|48:217,1,112,8|0,0:0|0:0,0:0:0:0:
88,77,77106,1,0,0:0:0:0:
300,61,77253,5,2,0:0:0:0:
198,126,77399,1,0,0:0:0:0:
88,77,77545,1,8,0:0:0:0:
316,183,77692,1,0,0:0:0:0:
316,183,77765,1,0,0:0:0:0:
316,183,77838,1,2,0:0:0:0:
300,61,77984,1,8,0:0:0:0:
187,250,78131,5,2,0:0:0:0:
196,290,78204,1,0,0:0:0:0:
223,322,78277,1,8,0:0:0:0:
261,338,78350,1,0,0:0:0:0:
303,336,78424,2,0,P|361:327|398:334,1,70,2|0,0:0|0:0,0:0:0:0:
506,214,78716,2,0,P|447:222|410:215,1,70,8|0,0:0|0:0,0:0:0:0:
318,125,79009,5,0,0:0:0:0:
462,82,79155,1,0,0:0:0:0:
361,215,79302,2,0,L|356:249,2,35
294,122,79594,6,0,L|209:114,1,70,2|0,0:0|0:0,0:0:0:0:
74,218,79887,2,0,L|159:226,1,70,8|0,0:0|0:0,0:0:0:0:
136,60,80180,2,0,L|128:145,1,70,2|0,0:0|0:0,0:0:0:0:
232,280,80472,2,0,L|240:195,1,70,8|0,0:0|0:0,0:0:0:0:
287,52,80765,6,0,L|295:137,1,70,2|0,0:0|0:0,0:0:0:0:
370,282,81058,2,0,L|378:197,1,70,8|0,0:0|0:0,0:0:0:0:
425,54,81351,2,0,L|433:139,1,70,2|0,0:0|0:0,0:0:0:0:
368,302,81643,2,0,L|376:217,1,70,8|0,0:0|0:0,0:0:0:0:
287,52,81936,5,2,0:0:0:0:
304,152,82082,1,0,0:0:0:0:
215,201,82228,1,8,0:0:0:0:
141,129,82375,1,0,0:0:0:0:
186,38,82521,1,2,0:0:0:0:
5,191,82667,5,8,0:0:0:0:
47,58,82813,1,0,0:0:0:0:
186,38,82960,1,8,0:0:0:0:
256,192,83106,12,0,84131,0:0:0:0:
46,160,84277,5,4,0:0:0:0:
246,239,84424,1,0,0:0:0:0:
42,320,84570,2,0,P|53:259|73:226,1,70,8|0,0:0|0:0,0:0:0:0:
161,99,84863,1,2,0:0:0:0:
185,90,84936,1,0,0:0:0:0:
211,90,85009,1,8,0:0:0:0:
347,239,85155,5,2,0:0:0:0:
322,248,85228,1,0,0:0:0:0:
296,251,85301,1,8,0:0:0:0:
270,248,85374,1,0,0:0:0:0:
246,239,85448,2,0,P|256:300|248:338,1,70,2|0,0:0|0:0,0:0:0:0:
160,356,85667,1,0,0:0:0:0:
160,356,85741,2,0,P|171:295|191:262,1,70,8|0,0:0|0:0,0:0:0:0:
431,187,86033,1,2,0:0:0:0:
294,150,86180,1,8,0:0:0:0:
378,348,86326,5,2,0:0:0:0:
375,321,86399,1,0,0:0:0:0:
372,295,86472,1,8,0:0:0:0:
370,269,86545,1,0,0:0:0:0:
367,243,86618,1,2,0:0:0:0:
455,79,86765,1,0,0:0:0:0:
452,96,86838,1,0,0:0:0:0:
450,113,86911,1,8,0:0:0:0:
294,41,87058,1,0,0:0:0:0:
449,267,87204,2,0,L|455:319,2,35,2|0|8,0:0|0:0|0:0,0:0:0:0:
226,147,87497,5,2,0:0:0:0:
191,140,87570,1,0,0:0:0:0:
156,141,87643,1,8,0:0:0:0:
122,150,87716,1,0,0:0:0:0:
91,166,87789,2,0,L|96:83,1,70,2|0,0:0|0:0,0:0:0:0:
136,29,88009,1,0,0:0:0:0:
136,29,88082,1,8,0:0:0:0:
221,233,88228,5,0,0:0:0:0:
227,262,88301,1,0,0:0:0:0:
226,293,88374,1,2,0:0:0:0:
91,166,88521,1,8,0:0:0:0:
91,166,88960,5,4,0:0:0:0:
251,72,89106,2,0,L|249:54,4,17.5,0|0|0|0|8,0:0|0:0|0:0|0:0|0:0,0:0:0:0:
52,17,89399,1,0,0:0:0:0:
196,217,89545,5,2,0:0:0:0:
197,234,89618,1,0,0:0:0:0:
198,251,89691,1,8,0:0:0:0:
39,325,89838,1,2,0:0:0:0:
40,308,89911,1,0,0:0:0:0:
41,291,89984,1,8,0:0:0:0:
277,334,90131,6,0,L|369:319,1,70,2|0,0:0|0:0,0:0:0:0:
420,351,90350,1,0,0:0:0:0:
420,351,90424,1,8,0:0:0:0:
456,161,90570,1,0,0:0:0:0:
456,161,90643,1,0,0:0:0:0:
456,161,90716,2,0,L|471:253,1,70,2|8,0:0|0:0,0:0:0:0:
501,60,91009,1,2,0:0:0:0:
501,60,91082,1,0,0:0:0:0:
501,60,91155,1,8,0:0:0:0:
220,52,91302,5,2,0:0:0:0:
365,3,91448,1,0,0:0:0:0:
270,183,91594,2,0,L|279:104,1,70,8|0,0:0|0:0,0:0:0:0:
111,237,91887,6,0,L|113:254,4,17.5,2|0|0|0|8,0:0|0:0|0:0|0:0|0:0,0:0:0:0:
25,112,92180,1,2,0:0:0:0:
173,149,92326,1,8,0:0:0:0:
173,149,92399,1,0,0:0:0:0:
173,149,92472,1,2,0:0:0:0:
47,317,92619,6,0,L|49:335,4,17.5,0|0|0|0|8,0:0|0:0|0:0|0:0|0:0,0:0:0:0:
150,256,92911,1,8,0:0:0:0:
180,248,92984,1,0,0:0:0:0:
209,253,93057,1,2,0:0:0:0:
344,337,93204,5,8,0:0:0:0:
314,345,93277,1,0,0:0:0:0:
285,340,93350,1,0,0:0:0:0:
416,250,93497,1,8,0:0:0:0:
446,242,93570,1,0,0:0:0:0:
475,247,93643,1,2,0:0:0:0:
475,247,93936,6,0,P|455:192|470:137,1,83.9999974365235,4|0,0:0|0:0,0:0:0:0:
500,49,94228,1,2,0:0:0:0:
500,49,94302,1,0,0:0:0:0:
500,49,94375,1,8,0:0:0:0:
362,98,94521,5,2,0:0:0:0:
337,106,94594,1,0,0:0:0:0:
311,109,94667,1,8,0:0:0:0:
284,107,94740,1,0,0:0:0:0:
259,100,94814,2,0,P|273:148|264:191,1,70,2|0,0:0|0:0,0:0:0:0:
173,96,95033,1,0,0:0:0:0:
173,96,95106,2,0,P|176:46|199:8,1,70,8|0,0:0|0:0,0:0:0:0:
310,0,95399,1,2,0:0:0:0:
310,0,95545,1,8,0:0:0:0:
372,154,95692,5,2,0:0:0:0:
375,181,95765,1,0,0:0:0:0:
378,207,95838,1,8,0:0:0:0:
380,233,95911,1,0,0:0:0:0:
383,259,95984,1,2,0:0:0:0:
461,90,96131,1,2,0:0:0:0:
461,90,96204,1,0,0:0:0:0:
461,90,96277,1,8,0:0:0:0:
275,134,96424,1,0,0:0:0:0:
465,292,96570,5,2,0:0:0:0:
462,266,96643,1,0,0:0:0:0:
460,240,96716,1,8,0:0:0:0:
307,328,96863,5,2,0:0:0:0:
280,326,96936,1,0,0:0:0:0:
254,324,97009,1,8,0:0:0:0:
228,322,97082,1,0,0:0:0:0:
202,320,97155,2,0,L|103:313,1,83.9999974365235,10|0,0:0|0:0,0:0:0:0:
25,223,97375,1,0,0:0:0:0:
51,220,97448,2,0,L|149:213,1,83.9999974365235,10|0,0:0|0:0,0:0:0:0:
227,125,97668,1,0,0:0:0:0:
201,122,97741,2,0,L|123:116,1,41.9999987182618,10|0,0:0|0:0,0:0:0:0:
64,37,97887,1,8,0:0:0:0:
327,197,98033,5,2,0:0:0:0:
345,170,98106,1,0,0:0:0:0:
354,138,98179,1,8,0:0:0:0:
353,105,98252,1,0,0:0:0:0:
341,75,98326,1,4,0:0:0:0:
246,251,98472,6,0,L|249:281,4,17.5,0|0|0|0|8,0:0|0:0|0:0|0:0|0:0,0:0:0:0:
436,227,98765,1,0,0:0:0:0:
362,330,98911,1,2,0:0:0:0:
362,330,98984,1,0,0:0:0:0:
362,330,99057,1,8,0:0:0:0:
235,178,99204,2,0,L|227:117,2,45.4999979171754,2|0|8,0:0|0:0|0:0,0:0:0:0:
44,304,99497,6,0,P|33:249|45:201,1,90.9999958343508,2|0,0:0|0:0,0:0:0:0:
74,148,99716,1,0,0:0:0:0:
74,148,99790,1,8,0:0:0:0:
182,331,99936,2,0,L|176:376,2,45.4999979171754,0|0|2,0:0|0:0|0:0,0:0:0:0:
354,207,100228,1,8,0:0:0:0:
302,332,100375,1,2,0:0:0:0:
302,332,100448,1,0,0:0:0:0:
302,332,100521,1,8,0:0:0:0:
151,127,100667,5,2,0:0:0:0:
197,255,100814,1,8,0:0:0:0:
358,32,100960,5,2,0:0:0:0:
312,160,101107,1,8,0:0:0:0:
256,16,101253,1,2,0:0:0:0:
256,192,101545,12,0,102863,0:0:0:0:
152,73,103009,5,4,0:0:0:0:
266,194,103155,2,0,L|271:226,4,20.9999993591309,0|0|0|0|8,0:0|0:0|0:0|0:0|0:0,0:0:0:0:
322,82,103448,1,0,0:0:0:0:
148,261,103594,2,0,L|140:309,2,41.9999987182618,2|0|8,0:0|0:0|0:0,0:0:0:0:
422,319,103887,5,2,0:0:0:0:
390,314,103960,1,0,0:0:0:0:
359,310,104033,1,8,0:0:0:0:
328,306,104106,1,0,0:0:0:0:
297,302,104179,1,2,0:0:0:0:
213,197,104326,6,0,L|209:171,4,20.9999993591309,0|0|0|0|8,0:0|0:0|0:0|0:0|0:0,0:0:0:0:
86,291,104619,1,0,0:0:0:0:
44,137,104765,2,0,L|48:111,4,20.9999993591309,2|0|0|0|8,0:0|0:0|0:0|0:0|0:0,0:0:0:0:
171,43,105058,5,2,0:0:0:0:
211,55,105131,1,0,0:0:0:0:
252,58,105204,1,8,0:0:0:0:
294,51,105277,1,0,0:0:0:0:
332,35,105350,1,2,0:0:0:0:
450,112,105497,2,0,L|456:51,2,41.9999987182618,0|0|8,0:0|0:0|0:0,0:0:0:0:
370,245,105789,5,2,0:0:0:0:
367,224,105862,1,0,0:0:0:0:
364,203,105936,2,0,L|360:163,4,20.9999993591309,0|0|0|0|8,0:0|0:0|0:0|0:0|0:0,0:0:0:0:
454,313,106228,6,0,L|450:272,1,41.9999987182618,2|0,0:0|0:0,0:0:0:0:
365,367,106375,2,0,L|369:325,1,41.9999987182618,8|0,0:0|0:0,0:0:0:0:
285,275,106521,2,0,P|234:268|181:286,1,83.9999974365235,2|0,0:0|0:0,0:0:0:0:
145,319,106741,1,0,0:0:0:0:
145,319,106814,1,8,0:0:0:0:
35,209,106960,2,0,L|29:148,2,41.9999987182618,0|0|2,0:0|0:0|0:0,0:0:0:0:
69,26,107253,1,8,0:0:0:0:
195,124,107399,5,2,0:0:0:0:
226,121,107472,1,0,0:0:0:0:
257,119,107545,1,8,0:0:0:0:
289,117,107618,1,0,0:0:0:0:
320,115,107691,1,4,0:0:0:0:
487,57,107838,6,0,L|483:17,4,20.9999993591309,0|0|0|0|8,0:0|0:0|0:0|0:0|0:0,0:0:0:0:
337,0,108131,1,0,0:0:0:0:
412,206,108277,2,0,L|418:145,2,41.9999987182618,2|0|8,0:0|0:0|0:0,0:0:0:0:
394,333,108570,1,0,0:0:0:0:
512,286,108716,1,8,0:0:0:0:
298,212,108863,5,2,0:0:0:0:
187,326,109009,2,0,L|191:366,4,20.9999993591309,0|0|0|0|8,0:0|0:0|0:0|0:0|0:0,0:0:0:0:
150,136,109302,1,0,0:0:0:0:
71,250,109448,2,0,L|67:290,4,20.9999993591309,2|0|0|0|8,0:0|0:0|0:0|0:0|0:0,0:0:0:0:
154,101,109741,2,0,L|160:40,2,41.9999987182618,2|0|8,0:0|0:0|0:0,0:0:0:0:
311,79,110033,5,2,0:0:0:0:
207,218,110180,2,0,L|203:258,4,20.9999993591309,0|0|0|0|8,0:0|0:0|0:0|0:0|0:0,0:0:0:0:
460,154,110472,1,0,0:0:0:0:
460,154,110545,1,0,0:0:0:0:
460,154,110619,2,0,L|464:194,4,20.9999993591309,2|0|0|0|8,0:0|0:0|0:0|0:0|0:0,0:0:0:0:
356,287,110911,2,0,L|345:247,2,41.9999987182618,2|0|8,0:0|0:0|0:0,0:0:0:0:
219,132,111204,6,0,L|116:123,1,83.9999974365235,2|0,0:0|0:0,0:0:0:0:
45,221,111424,1,0,0:0:0:0:
45,221,111497,2,0,L|148:212,1,83.9999974365235,8|0,0:0|0:0,0:0:0:0:
236,255,111716,1,0,0:0:0:0:
246,280,111789,1,2,0:0:0:0:
248,308,111862,1,0,0:0:0:0:
240,335,111935,1,8,0:0:0:0:
8,295,112082,1,2,0:0:0:0:
120,384,112228,1,8,0:0:0:0:
41,142,112375,5,4,0:0:0:0:
151,202,112521,2,0,L|148:222,4,20.9999993591309,0|0|0|0|8,0:0|0:0|0:0|0:0|0:0,0:0:0:0:
224,69,112814,1,0,0:0:0:0:
327,170,112960,2,0,L|333:211,2,41.9999987182618,2|0|8,0:0|0:0|0:0,0:0:0:0:
442,269,113253,5,2,0:0:0:0:
439,242,113326,1,0,0:0:0:0:
436,216,113399,1,8,0:0:0:0:
434,190,113472,1,0,0:0:0:0:
431,164,113545,1,2,0:0:0:0:
309,281,113692,6,0,L|306:319,4,20.9999993591309,0|0|0|0|8,0:0|0:0|0:0|0:0|0:0,0:0:0:0:
452,354,113984,1,0,0:0:0:0:
224,252,114131,2,0,L|215:221,4,20.9999993591309,2|0|0|0|8,0:0|0:0|0:0|0:0|0:0,0:0:0:0:
406,95,114424,5,2,0:0:0:0:
366,109,114497,1,0,0:0:0:0:
324,111,114570,1,8,0:0:0:0:
284,99,114643,1,0,0:0:0:0:
246,81,114716,2,0,P|194:66|129:86,1,83.9999974365235,2|0,0:0|0:0,0:0:0:0:
107,116,114936,1,0,0:0:0:0:
107,116,115009,1,8,0:0:0:0:
131,297,115155,5,0,0:0:0:0:
131,297,115228,1,0,0:0:0:0:
131,297,115302,2,0,L|127:317,4,20.9999993591309,2|0|0|0|8,0:0|0:0|0:0|0:0|0:0,0:0:0:0:
263,230,115594,5,2,0:0:0:0:
257,190,115667,1,0,0:0:0:0:
254,154,115740,1,8,0:0:0:0:
251,117,115813,1,0,0:0:0:0:
246,81,115886,1,2,0:0:0:0:
95,44,116033,1,0,0:0:0:0:
95,44,116106,1,0,0:0:0:0:
95,44,116180,1,8,0:0:0:0:
140,196,116326,2,0,L|144:154,2,41.9999987182618,0|0|2,0:0|0:0|0:0,0:0:0:0:
246,81,116619,1,8,0:0:0:0:
82,291,116765,6,0,L|79:250,1,41.9999987182618,2|0,0:0|0:0,0:0:0:0:
189,326,116911,2,0,L|171:287,1,41.9999987182618,8|0,0:0|0:0,0:0:0:0:
271,265,117058,1,4,0:0:0:0:
389,318,117204,6,0,L|394:357,4,20.9999993591309,0|0|0|0|8,0:0|0:0|0:0|0:0|0:0,0:0:0:0:
429,126,117497,1,0,0:0:0:0:
351,212,117643,2,0,L|348:232,4,20.9999993591309,2|0|0|0|8,0:0|0:0|0:0|0:0|0:0,0:0:0:0:
293,72,117936,5,2,0:0:0:0:
261,69,118009,1,0,0:0:0:0:
230,67,118082,1,8,0:0:0:0:
198,64,118155,1,0,0:0:0:0:
167,62,118228,1,2,0:0:0:0:
98,146,118375,6,0,L|100:166,4,20.9999993591309,0|0|0|0|8,0:0|0:0|0:0|0:0|0:0,0:0:0:0:
20,60,118668,1,0,0:0:0:0:
60,252,118814,2,0,L|55:291,4,20.9999993591309,2|0|0|0|8,0:0|0:0|0:0|0:0|0:0,0:0:0:0:
181,339,119106,1,2,0:0:0:0:
181,339,119180,1,0,0:0:0:0:
181,339,119253,1,8,0:0:0:0:
283,266,119399,5,2,0:0:0:0:
399,312,119545,2,0,L|404:351,4,20.9999993591309,0|0|0|0|8,0:0|0:0|0:0|0:0|0:0,0:0:0:0:
456,87,119838,1,0,0:0:0:0:
357,173,119984,2,0,L|352:212,4,20.9999993591309,2|0|0|0|8,0:0|0:0|0:0|0:0|0:0,0:0:0:0:
282,55,120277,1,2,0:0:0:0:
282,55,120350,1,0,0:0:0:0:
282,55,120424,1,8,0:0:0:0:
459,190,120570,5,2,0:0:0:0:
256,192,121741,12,0,126277,0:0:0:0:
107,50,126424,5,2,0:0:0:0:
110,147,126570,2,0,L|112:178,2,28
105,34,126863,1,2,0:0:0:0:
111,168,127155,2,0,L|114:223,2,56
31,298,127594,5,2,0:0:0:0:
131,350,127741,1,0,0:0:0:0:
3,316,127887,1,0,0:0:0:0:
209,268,128033,1,0,0:0:0:0:
223,267,128326,2,0,L|278:264,2,56
446,148,128765,5,4,0:0:0:0:
364,337,128911,1,0,0:0:0:0:
247,186,129058,1,8,0:0:0:0:
249,156,129131,1,0,0:0:0:0:
252,127,129204,2,0,L|257:62,2,35
379,118,129497,6,0,L|361:120,4,17.5,8|0|0|0|2,0:0|0:0|0:0|0:0|0:0,0:0:0:0:
449,144,129716,2,0,L|483:149,2,35,0|8|0,0:0|0:0|0:0,0:0:0:0:
393,192,129936,5,2,0:0:0:0:
490,268,130082,2,0,L|496:303,2,35,0|0|8,0:0|0:0|0:0,0:0:0:0:
383,308,130375,1,0,0:0:0:0:
381,323,130448,1,0,0:0:0:0:
380,339,130521,2,0,L|376:381,2,35,2|0|8,0:0|0:0|0:0,0:0:0:0:
284,250,130814,1,2,0:0:0:0:
405,192,130960,1,8,0:0:0:0:
172,259,131106,6,0,L|299:248,1,112,2|0,0:0|0:0,0:0:0:0:
97,194,131545,2,0,P|73:249|82:301,1,112
237,174,131984,1,2,0:0:0:0:
128,77,132131,1,0,0:0:0:0:
248,189,132277,6,0,L|258:272,2,84,2|0|0,0:0|0:0|0:0,0:0:0:0:
469,42,133009,5,0,0:0:0:0:
352,50,133156,1,2,0:0:0:0:
419,149,133302,1,0,0:0:0:0:
255,105,133448,6,0,P|165:104|140:114,1,112,2|0,0:0|0:0,0:0:0:0:
68,207,133887,2,0,L|59:81,1,112,2|0,0:0|0:0,0:0:0:0:
27,282,134326,2,0,P|65:292|91:291,1,56,2|0,0:0|0:0,0:0:0:0:
233,200,134619,5,2,0:0:0:0:
39,131,134765,1,0,0:0:0:0:
39,131,134838,1,0,0:0:0:0:
39,131,134911,1,2,0:0:0:0:
240,80,135058,1,0,0:0:0:0:
81,292,135204,6,0,L|74:219,1,56,2|0,0:0|0:0,0:0:0:0:
213,302,135424,1,0,0:0:0:0:
213,302,135497,2,0,L|209:358,1,56
366,244,135789,5,4,0:0:0:0:
219,189,135936,1,0,0:0:0:0:
219,189,136009,1,0,0:0:0:0:
219,189,136082,1,8,0:0:0:0:
359,85,136228,5,0,0:0:0:0:
359,85,136302,1,0,0:0:0:0:
359,85,136375,2,0,L|356:52,3,28,2|0|0|0,0:0|0:0|0:0|0:0,0:0:0:0:
317,0,136667,1,8,0:0:0:0:
480,128,136814,5,0,0:0:0:0:
480,128,136887,1,0,0:0:0:0:
480,128,136960,1,2,0:0:0:0:
335,203,137106,2,0,L|338:176,2,28,0|0|8,0:0|0:0|0:0,0:0:0:0:
451,274,137399,5,0,0:0:0:0:
453,288,137472,1,0,0:0:0:0:
455,301,137545,2,0,L|460:332,1,28,2|0,0:0|0:0,0:0:0:0:
382,336,137692,2,0,L|387:367,1,28
306,318,137838,1,8,0:0:0:0:
224,227,137984,5,8,0:0:0:0:
224,227,138058,1,0,0:0:0:0:
224,227,138131,1,2,0:0:0:0:
115,314,138277,2,0,L|112:341,2,28,0|0|8,0:0|0:0|0:0,0:0:0:0:
32,185,138570,5,0,0:0:0:0:
32,185,138644,1,0,0:0:0:0:
32,185,138717,2,0,L|29:152,3,28,2|0|0|0,0:0|0:0|0:0|0:0,0:0:0:0:
43,89,139009,1,8,0:0:0:0:
253,145,139155,5,0,0:0:0:0:
253,145,139228,1,0,0:0:0:0:
253,145,139301,1,2,0:0:0:0:
161,244,139448,2,0,L|164:217,2,28,0|0|8,0:0|0:0|0:0,0:0:0:0:
155,110,139741,5,0,0:0:0:0:
153,96,139814,1,0,0:0:0:0:
151,83,139887,2,0,L|146:52,1,28,2|0,0:0|0:0,0:0:0:0:
224,48,140034,2,0,L|219:17,1,28
300,66,140180,1,8,0:0:0:0:
454,17,140326,5,8,0:0:0:0:
454,17,140399,1,0,0:0:0:0:
454,17,140472,1,2,0:0:0:0:
408,154,140619,2,0,L|403:114,2,28,0|0|8,0:0|0:0|0:0,0:0:0:0:
379,308,140911,6,0,L|351:304,1,28
445,249,141058,2,0,L|472:245,1,28,2|0,0:0|0:0,0:0:0:0:
326,212,141204,2,0,L|286:217,2,28,0|0|8,0:0|0:0|0:0,0:0:0:0:
467,338,141497,5,0,0:0:0:0:
467,338,141570,1,0,0:0:0:0:
467,338,141643,1,2,0:0:0:0:
397,186,141789,2,0,L|400:158,2,28,0|0|8,0:0|0:0|0:0,0:0:0:0:
236,80,142082,5,0,0:0:0:0:
254,77,142155,1,0,0:0:0:0:
273,75,142228,1,2,0:0:0:0:
291,73,142301,1,0,0:0:0:0:
310,71,142374,1,0,0:0:0:0:
328,69,142447,1,0,0:0:0:0:
347,67,142521,1,8,0:0:0:0:
492,128,142667,5,8,0:0:0:0:
492,128,142741,1,0,0:0:0:0:
492,128,142814,1,2,0:0:0:0:
389,225,142960,2,0,L|392:252,2,28,0|0|8,0:0|0:0|0:0,0:0:0:0:
200,190,143253,5,0,0:0:0:0:
304,147,143399,1,2,0:0:0:0:
271,307,143545,6,0,L|273:285,4,14,0|0|0|0|8,0:0|0:0|0:0|0:0|0:0,0:0:0:0:
65,272,143838,1,0,0:0:0:0:
164,351,143984,5,2,0:0:0:0:
91,170,144131,1,0,0:0:0:0:
91,170,144204,1,0,0:0:0:0:
91,170,144277,1,8,0:0:0:0:
266,82,144424,6,0,L|263:109,1,28
191,121,144570,2,0,L|193:148,1,28,2|0,0:0|0:0,0:0:0:0:
124,47,144716,2,0,L|121:74,2,28,0|0|8,0:0|0:0|0:0,0:0:0:0:
352,26,145155,5,4,0:0:0:0:
473,79,145302,1,0,0:0:0:0:
473,79,145375,1,0,0:0:0:0:
473,79,145448,1,8,0:0:0:0:
318,186,145594,6,0,L|315:138,1,28
386,237,145741,1,2,0:0:0:0:
385,250,145814,1,0,0:0:0:0:
384,264,145887,1,0,0:0:0:0:
383,278,145960,1,0,0:0:0:0:
382,292,146033,1,8,0:0:0:0:
483,215,146180,5,0,0:0:0:0:
482,201,146253,1,0,0:0:0:0:
481,187,146326,1,2,0:0:0:0:
278,330,146472,2,0,L|281:378,2,28,0|0|8,0:0|0:0|0:0,0:0:0:0:
130,179,146765,5,0,0:0:0:0:
133,203,146838,1,0,0:0:0:0:
135,227,146911,2,0,L|141:276,1,28,2|0,0:0|0:0,0:0:0:0:
202,295,147058,2,0,L|195:344,2,28,0|0|8,0:0|0:0|0:0,0:0:0:0:
306,185,147350,5,8,0:0:0:0:
306,185,147424,1,0,0:0:0:0:
306,185,147497,1,2,0:0:0:0:
218,112,147643,2,0,L|211:62,2,28,0|0|8,0:0|0:0|0:0,0:0:0:0:
103,49,147936,6,0,L|100:1,1,28
57,131,148083,1,2,0:0:0:0:
56,144,148156,1,0,0:0:0:0:
55,158,148229,1,0,0:0:0:0:
54,172,148302,1,0,0:0:0:0:
53,186,148375,1,8,0:0:0:0:
138,292,148521,5,0,0:0:0:0:
137,278,148594,1,0,0:0:0:0:
136,264,148667,1,2,0:0:0:0:
209,157,148814,2,0,L|212:129,2,28,0|0|8,0:0|0:0|0:0,0:0:0:0:
316,327,149106,5,0,0:0:0:0:
313,302,149179,1,0,0:0:0:0:
311,278,149252,2,0,L|305:228,1,28,2|0,0:0|0:0,0:0:0:0:
368,196,149399,2,0,L|375:147,2,28,0|0|8,0:0|0:0|0:0,0:0:0:0:
228,337,149692,5,8,0:0:0:0:
228,337,149765,1,0,0:0:0:0:
228,337,149838,1,2,0:0:0:0:
412,297,149984,1,0,0:0:0:0:
412,297,150058,1,0,0:0:0:0:
412,297,150131,1,8,0:0:0:0:
264,186,150277,5,0,0:0:0:0:
262,165,150350,1,0,0:0:0:0:
260,144,150423,1,2,0:0:0:0:
259,123,150496,1,0,0:0:0:0:
257,102,150570,2,0,L|255:61,1,28
286,1,150716,1,8,0:0:0:0:
165,118,150863,5,0,0:0:0:0:
165,118,150936,1,0,0:0:0:0:
165,118,151009,1,2,0:0:0:0:
35,57,151155,1,0,0:0:0:0:
35,57,151228,1,0,0:0:0:0:
35,57,151301,1,8,0:0:0:0:
41,171,151448,5,0,0:0:0:0:
42,191,151521,1,0,0:0:0:0:
44,212,151594,1,2,0:0:0:0:
45,233,151667,1,0,0:0:0:0:
48,255,151741,2,0,L|50:296,1,28
91,347,151887,1,8,0:0:0:0:
314,296,152033,5,8,0:0:0:0:
314,296,152106,1,0,0:0:0:0:
314,296,152180,1,2,0:0:0:0:
137,232,152326,1,0,0:0:0:0:
137,232,152399,1,0,0:0:0:0:
137,232,152473,1,8,0:0:0:0:
209,348,152619,5,0,0:0:0:0:
310,159,152765,1,2,0:0:0:0:
207,110,152911,6,0,L|206:88,4,14,0|0|0|0|8,0:0|0:0|0:0|0:0|0:0,0:0:0:0:
215,242,153204,1,0,0:0:0:0:
256,192,153350,12,0,154375,0:0:0:0:
393,142,154521,6,0,L|250:147,1,125.999996154785,2|0,0:0|0:0,0:0:0:0:
368,55,155107,2,0,L|463:69,1,83.9999974365235,8|0,0:0|0:0,0:0:0:0:
487,240,155692,6,0,B|496:197|496:197|485:148,1,83.9999974365235,2|0,0:0|0:0,0:0:0:0:
344,313,156131,1,0,0:0:0:0:
428,307,156277,1,8,0:0:0:0:
271,132,156570,6,0,L|275:114,6,10.4999996795654
268,146,156863,6,0,B|255:201|255:201|269:270,1,125.999996154785,2|0,0:0|0:0,0:0:0:0:
428,307,157448,2,0,L|344:313,1,83.9999974365235,8|0,0:0|0:0,0:0:0:0:
427,191,158034,6,0,L|511:196,1,83.9999974365235,2|0,0:0|0:0,0:0:0:0:
428,77,158472,1,0,0:0:0:0:
428,77,158619,2,0,L|344:71,1,83.9999974365235,8|0,0:0|0:0,0:0:0:0:
256,46,159058,1,0,0:0:0:0:
152,139,159204,5,2,0:0:0:0:
241,228,159350,1,0,0:0:0:0:
241,139,159497,1,8,0:0:0:0:
152,228,159643,1,0,0:0:0:0:
146,112,159789,5,2,0:0:0:0:
247,255,159935,1,0,0:0:0:0:
268,133,160082,1,8,0:0:0:0:
125,234,160228,1,0,0:0:0:0:
147,77,160375,5,2,0:0:0:0:
246,290,160521,1,0,0:0:0:0:
303,134,160668,1,8,0:0:0:0:
90,233,160814,1,0,0:0:0:0:
273,62,160960,5,2,0:0:0:0:
299,59,161033,1,0,0:0:0:0:
325,56,161106,1,0,0:0:0:0:
351,53,161179,1,0,0:0:0:0:
377,51,161253,1,8,0:0:0:0:
260,200,161399,5,0,0:0:0:0:
260,200,161472,1,0,0:0:0:0:
260,200,161545,2,2,P|230:110|302:54,1,167.999994873047,4|8,0:0|0:0,0:0:0:0:
457,141,161984,1,0,0:0:0:0:
339,293,162131,6,0,B|255:316|255:316|174:293,1,167.999994873047,4|8,0:0|0:0,0:0:0:0:
40,111,162716,5,2,0:0:0:0:
61,277,163009,1,0,0:0:0:0:
40,111,163302,6,2,L|62:283,1,167.999994873047
129,326,163741,1,0,0:0:0:0:
272,227,163887,6,0,P|238:221|161:259,1,112,2|0,0:0|0:0,0:0:0:0:
351,318,164326,1,0,0:0:0:0:
351,318,164472,2,0,L|357:255,1,56,8|0,0:0|0:0,0:0:0:0:
370,142,164765,1,0,0:0:0:0:
370,142,165058,6,0,P|328:138|297:147,1,56,2|0,0:0|0:0,0:0:0:0:
434,211,165350,2,0,P|475:203|502:186,1,56
383,70,165643,2,0,B|324:60|277:79|277:79|249:61|212:67,1,168,8|0,0:0|0:0,0:0:0:0:
137,30,166228,6,0,L|29:54,2,84,2|0|0,0:0|0:0|0:0,0:0:0:0:
26,137,166814,2,0,L|107:118,1,84,8|0,0:0|0:0,0:0:0:0:
189,122,167106,2,0,P|201:158|198:184,1,56
106,281,167399,6,0,P|96:233|107:189,2,84,2|0|0,0:0|0:0|0:0,0:0:0:0:
189,329,167984,2,0,L|312:318,1,112,8|0,0:0|0:0,0:0:0:0:
391,237,168424,5,0,0:0:0:0:
391,237,168570,2,0,P|403:275|403:314,1,56,2|0,0:0|0:0,0:0:0:0:
305,179,168863,2,0,P|306:139|320:102,1,56
387,32,169155,1,8,0:0:0:0:
125,75,169448,5,2,0:0:0:0:
192,14,169594,1,0,0:0:0:0:
50,23,169741,2,0,P|27:39|8:60,1,56
53,139,170033,2,0,P|49:167|51:195,1,56
91,262,170326,1,8,0:0:0:0:
385,271,170619,5,2,0:0:0:0:
303,242,170765,1,0,0:0:0:0:
436,203,170911,1,2,0:0:0:0:
336,61,171058,6,0,L|318:63,4,17.5,8|0|0|0|0,0:0|0:0|0:0|0:0|0:0,0:0:0:0:
406,87,171277,2,0,L|440:92,2,35
350,135,171497,5,8,0:0:0:0:
235,202,171643,1,0,0:0:0:0:
220,200,171716,1,0,0:0:0:0:
204,199,171789,2,0,L|162:195,3,35,8|0|0|0,0:0|0:0|0:0|0:0,0:0:0:0:
292,275,172082,5,2,0:0:0:0:
428,277,172667,6,2,B|358:257|358:302|290:274,1,140
393,354,173106,1,0,0:0:0:0:
334,202,173253,5,4,0:0:0:0:
336,191,173326,1,0,0:0:0:0:
337,181,173399,2,0,L|345:123,1,41.9999987182618
373,54,173545,2,0,B|415:60|415:60|485:48,1,83.9999974365235,8|0,0:0|0:0,0:0:0:0:
512,116,173765,1,0,0:0:0:0:
512,116,173838,2,0,L|451:127,1,41.9999987182618,2|0,0:0|0:0,0:0:0:0:
412,193,173984,2,0,L|454:201,1,41.9999987182618,8|0,0:0|0:0,0:0:0:0:
314,116,174130,5,0,0:0:0:0:
300,118,174203,1,0,0:0:0:0:
286,120,174277,2,0,L|245:125,1,41.9999987182618,8|0,0:0|0:0,0:0:0:0:
147,195,174424,1,2,0:0:0:0:
75,96,174570,5,0,0:0:0:0:
77,82,174643,1,0,0:0:0:0:
79,69,174717,2,0,L|83:30,4,20.9999993591309,8|0|0|0|0,0:0|0:0|0:0|0:0|0:0,0:0:0:0:
9,207,175009,6,0,L|7:165,1,41.9999987182618,2|0,0:0|0:0,0:0:0:0:
67,271,175155,2,0,L|55:311,1,41.9999987182618,8|0,0:0|0:0,0:0:0:0:
146,249,175302,5,0,0:0:0:0:
173,252,175375,1,0,0:0:0:0:
199,253,175448,1,8,0:0:0:0:
225,255,175521,1,0,0:0:0:0:
251,257,175594,1,2,0:0:0:0:
365,331,175741,6,0,L|366:311,4,20.9999993591309,0|0|0|0|8,0:0|0:0|0:0|0:0|0:0,0:0:0:0:
421,118,176033,1,0,0:0:0:0:
421,118,176106,1,0,0:0:0:0:
421,118,176180,1,2,0:0:0:0:
251,257,176326,1,8,0:0:0:0:
468,243,176472,1,0,0:0:0:0:
287,126,176619,6,0,L|292:97,2,20.9999993591309,8|0|0,0:0|0:0|0:0,0:0:0:0:
235,173,176765,1,2,0:0:0:0:
209,175,176838,1,0,0:0:0:0:
183,177,176911,1,0,0:0:0:0:
157,178,176984,1,0,0:0:0:0:
130,181,177057,1,8,0:0:0:0:
25,80,177204,5,0,0:0:0:0:
27,94,177277,1,0,0:0:0:0:
29,107,177351,2,0,L|33:149,2,41.9999987182618,2|0|8,0:0|0:0|0:0,0:0:0:0:
165,43,177643,1,0,0:0:0:0:
15,0,177789,1,8,0:0:0:0:
142,176,177936,6,0,P|136:236|118:268,1,83.9999974365235,4|0,0:0|0:0,0:0:0:0:
63,309,178155,1,0,0:0:0:0:
34,317,178228,2,0,P|18:258|24:221,1,83.9999974365235,8|0,0:0|0:0,0:0:0:0:
59,161,178448,1,0,0:0:0:0:
68,141,178521,2,0,L|70:94,2,41.9999987182618,2|0|8,0:0|0:0|0:0,0:0:0:0:
177,343,178814,5,0,0:0:0:0:
142,176,178960,1,8,0:0:0:0:
274,259,179106,5,2,0:0:0:0:
305,255,179179,1,0,0:0:0:0:
336,252,179252,1,0,0:0:0:0:
368,249,179325,1,0,0:0:0:0:
399,246,179398,1,8,0:0:0:0:
474,150,179545,5,0,0:0:0:0:
474,150,179619,1,0,0:0:0:0:
474,150,179692,1,2,0:0:0:0:
458,346,179838,2,0,L|454:301,2,41.9999987182618,8|0|0,0:0|0:0|0:0,0:0:0:0:
375,159,180131,5,8,0:0:0:0:
372,138,180204,1,0,0:0:0:0:
369,117,180277,2,0,L|362:59,1,41.9999987182618,2|0,0:0|0:0,0:0:0:0:
294,42,180424,2,0,L|297:-16,2,41.9999987182618,0|0|8,0:0|0:0|0:0,0:0:0:0:
242,182,180716,6,0,L|236:223,1,41.9999987182618
159,127,180863,2,0,L|161:168,2,41.9999987182618,2|0|8,0:0|0:0|0:0,0:0:0:0:
120,39,181155,5,0,0:0:0:0:
92,53,181228,1,0,0:0:0:0:
71,76,181301,1,8,0:0:0:0:
60,105,181374,1,0,0:0:0:0:
61,137,181448,6,0,L|69:205,1,41.9999987182618,2|0,0:0|0:0,0:0:0:0:
34,256,181594,2,0,L|43:298,1,41.9999987182618
126,295,181741,2,0,L|123:337,1,41.9999987182618,8|0,0:0|0:0,0:0:0:0:
219,270,181887,2,0,L|210:311,1,41.9999987182618
191,179,182033,6,0,P|186:138|208:86,1,83.9999974365235,4|8,0:0|0:0,0:0:0:0:
245,36,182253,1,0,0:0:0:0:
245,36,182326,1,0,0:0:0:0:
415,53,182472,1,8,0:0:0:0:
328,219,182619,5,2,0:0:0:0:
319,115,182765,1,0,0:0:0:0:
426,306,182911,1,8,0:0:0:0:
462,181,183057,1,0,0:0:0:0:
335,320,183204,2,0,L|339:368,2,41.9999987182618,2|0|8,0:0|0:0|0:0,0:0:0:0:
227,166,183497,5,0,0:0:0:0:
166,322,183643,1,8,0:0:0:0:
166,322,183716,1,0,0:0:0:0:
166,322,183789,1,2,0:0:0:0:
63,201,183936,5,0,0:0:0:0:
62,189,184009,1,0,0:0:0:0:
60,178,184083,2,0,L|56:142,4,20.9999993591309,8|0|0|0|0,0:0|0:0|0:0|0:0|0:0,0:0:0:0:
254,31,184375,6,0,L|154:23,1,83.9999974365235,2|8,0:0|0:0,0:0:0:0:
113,85,184594,1,0,0:0:0:0:
110,104,184667,2,0,L|210:112,1,83.9999974365235,0|8,0:0|0:0,0:0:0:0:
384,150,184960,5,2,0:0:0:0:
396,184,185033,1,0,0:0:0:0:
377,215,185106,1,0,0:0:0:0:
341,221,185180,1,0,0:0:0:0:
314,197,185253,1,8,0:0:0:0:
328,20,185399,6,0,L|330:-7,4,20.9999993591309,0|0|0|0|2,0:0|0:0|0:0|0:0|0:0,0:0:0:0:
316,123,185692,1,8,0:0:0:0:
445,39,185838,2,0,L|450:18,4,20.9999993591309,0|0|0|0|8,0:0|0:0|0:0|0:0|0:0,0:0:0:0:
396,184,186131,5,2,0:0:0:0:
246,34,186277,1,0,0:0:0:0:
246,34,186350,1,0,0:0:0:0:
246,34,186424,1,8,0:0:0:0:
390,95,186570,5,0,0:0:0:0:
210,180,186716,1,2,0:0:0:0:
210,180,186789,1,0,0:0:0:0:
210,180,186863,1,8,0:0:0:0:
24,88,187009,5,0,0:0:0:0:
153,35,187155,1,8,0:0:0:0:
27,190,187302,5,4,0:0:0:0:
153,249,187448,2,0,L|173:251,4,20.9999993591309
115,350,187741,5,0,0:0:0:0:
20,291,187887,2,0,L|0:293,4,20.9999993591309,2|0|0|0|8,0:0|0:0|0:0|0:0|0:0,0:0:0:0:
221,328,188180,5,0,0:0:0:0:
338,252,188326,2,0,L|357:256,2,20.9999993591309,8|0|0,0:0|0:0|0:0,0:0:0:0:
306,246,188472,1,0,0:0:0:0:
183,160,188619,2,0,L|162:165,2,20.9999993591309
214,156,188765,1,0,0:0:0:0:
345,94,188911,5,0,0:0:0:0:
456,183,189058,2,0,L|476:179,4,20.9999993591309,2|0|0|0|8,0:0|0:0|0:0|0:0|0:0,0:0:0:0:
338,252,189350,5,0,0:0:0:0:
214,156,189497,2,0,L|195:160,2,20.9999993591309,8|0|0,0:0|0:0|0:0,0:0:0:0:
213,144,189643,6,0,B|213:112|213:112|238:45,1,83.9999974365235,2|0,0:0|0:0,0:0:0:0:
395,37,189936,1,8,0:0:0:0:
342,178,190082,1,0,0:0:0:0:
342,178,190155,1,0,0:0:0:0:
342,178,190228,1,2,0:0:0:0:
309,20,190375,6,0,L|307:-2,4,20.9999993591309,8|0|0|0|0,0:0|0:0|0:0|0:0|0:0,0:0:0:0:
423,129,190667,1,8,0:0:0:0:
209,229,190814,6,0,P|152:227|115:205,1,83.9999974365235,2|0,0:0|0:0,0:0:0:0:
54,148,191033,1,0,0:0:0:0:
41,135,191106,2,0,P|91:110|129:108,1,83.9999974365235,8|0,0:0|0:0,0:0:0:0:
256,160,191399,1,2,0:0:0:0:
232,35,191545,1,0,0:0:0:0:
232,35,191619,1,0,0:0:0:0:
232,35,191692,1,8,0:0:0:0:
376,141,191984,5,2,0:0:0:0:
403,60,192277,1,8,0:0:0:0:
273,189,192424,6,0,L|274:206,2,17.5
277,222,192570,2,0,P|337:240|398:217,1,105,2|0,0:0|0:0,0:0:0:0:
436,287,192863,2,0,P|388:272|340:290,1,70,8|0,0:0|0:0,0:0:0:0:
307,324,193082,1,0,0:0:0:0:
307,324,193155,1,2,0:0:0:0:
392,164,193302,1,0,0:0:0:0:
302,109,193448,6,0,L|284:107,2,17.5,8|0|0,0:0|0:0|0:0,0:0:0:0:
359,54,193594,2,0,L|393:51,2,35
277,19,193887,1,0,0:0:0:0:
390,199,194033,2,0,L|392:182,3,17.5,8|0|0|0,0:0|0:0|0:0|0:0,0:0:0:0:
211,104,194326,6,0,P|140:92|78:141,1,140,2|8,0:0|0:0,0:0:0:0:
131,270,194765,2,0,L|147:279,2,17.5
160,285,194911,2,0,B|172:224|172:224|161:182,1,105,2|0,0:0|0:0,0:0:0:0:
85,127,195204,2,0,P|53:139|18:137,1,70,8|0,0:0|0:0,0:0:0:0:
0,60,195424,1,0,0:0:0:0:
0,60,195497,1,2,0:0:0:0:
149,17,195643,1,0,0:0:0:0:
179,129,195789,6,0,L|182:111,2,17.5,8|0|0,0:0|0:0|0:0,0:0:0:0:
133,198,195936,2,0,L|137:232,2,35
85,127,196228,1,0,0:0:0:0:
218,241,196375,2,0,L|215:258,2,17.5
304,30,196667,5,4,0:0:0:0:
438,191,196814,1,0,0:0:0:0:
438,191,196887,1,0,0:0:0:0:
438,191,196960,1,8,0:0:0:0:
250,161,197106,1,0,0:0:0:0:
434,14,197253,2,0,P|451:64|445:104,1,70,2|0,0:0|0:0,0:0:0:0:
337,231,197545,2,0,P|342:178|365:144,1,70,8|0,0:0|0:0,0:0:0:0:
446,275,197765,5,0,0:0:0:0:
458,299,197838,2,0,L|377:292,1,70,2|0,0:0|0:0,0:0:0:0:
318,333,198058,1,0,0:0:0:0:
318,333,198131,1,8,0:0:0:0:
181,261,198277,6,0,L|164:264,4,17.5,0|0|0|0|2,0:0|0:0|0:0|0:0|0:0,0:0:0:0:
379,186,198570,1,0,0:0:0:0:
221,145,198716,6,0,L|204:142,2,17.5,8|0|0,0:0|0:0|0:0,0:0:0:0:
284,106,198863,2,0,L|318:99,1,35,8|0,0:0|0:0,0:0:0:0:
174,47,199009,5,2,0:0:0:0:
108,183,199155,2,0,L|114:217,2,35,0|0|8,0:0|0:0|0:0,0:0:0:0:
23,40,199448,1,0,0:0:0:0:
14,54,199521,1,0,0:0:0:0:
7,69,199594,2,0,P|-4:117|3:146,1,70,2|0,0:0|0:0,0:0:0:0:
191,187,199887,2,0,P|180:138|162:115,1,70,8|0,0:0|0:0,0:0:0:0:
84,198,200106,5,0,0:0:0:0:
79,223,200180,2,0,L|73:267,1,35,2|0,0:0|0:0,0:0:0:0:
55,357,200326,1,0,0:0:0:0:
0,213,200472,1,8,0:0:0:0:
167,288,200619,6,0,L|170:271,2,17.5
233,325,200766,2,0,L|240:359,2,35,2|0|0,0:0|0:0|0:0,0:0:0:0:
459,233,201058,6,0,L|476:236,2,17.5,8|0|0,0:0|0:0|0:0,0:0:0:0:
382,191,201204,2,0,L|348:198,1,35,8|0,0:0|0:0,0:0:0:0:
385,275,201350,5,2,0:0:0:0:
485,101,201497,1,0,0:0:0:0:
485,101,201570,1,0,0:0:0:0:
485,101,201643,1,8,0:0:0:0:
284,125,201789,1,0,0:0:0:0:
382,300,201936,2,0,L|389:206,1,70,2|0,0:0|0:0,0:0:0:0:
260,84,202228,2,0,L|265:153,1,70,8|0,0:0|0:0,0:0:0:0:
226,223,202448,5,0,0:0:0:0:
226,223,202521,1,2,0:0:0:0:
133,85,202667,2,0,L|135:50,2,35,0|0|8,0:0|0:0|0:0,0:0:0:0:
24,174,202960,6,0,L|22:156,4,17.5,0|0|0|0|2,0:0|0:0|0:0|0:0|0:0,0:0:0:0:
116,249,203253,1,0,0:0:0:0:
52,60,203399,6,0,L|56:43,2,17.5,8|0|0,0:0|0:0|0:0,0:0:0:0:
133,85,203545,2,0,L|135:119,1,35,8|0,0:0|0:0,0:0:0:0:
210,37,203692,5,2,0:0:0:0:
305,155,203838,2,0,L|301:202,2,35,0|0|8,0:0|0:0|0:0,0:0:0:0:
433,41,204131,1,0,0:0:0:0:
434,58,204204,1,0,0:0:0:0:
435,75,204277,2,0,L|442:164,1,70,2|0,0:0|0:0,0:0:0:0:
369,321,204570,6,0,L|376:231,1,70,8|0,0:0|0:0,0:0:0:0:
307,179,204790,1,0,0:0:0:0:
305,155,204863,1,2,0:0:0:0:
303,132,204936,1,0,0:0:0:0:
301,109,205009,1,0,0:0:0:0:
224,20,205155,1,8,0:0:0:0:
188,155,205302,6,0,L|191:173,2,17.5
238,231,205448,2,0,L|234:265,1,35,8|0,0:0|0:0,0:0:0:0:
158,274,205594,2,0,L|162:309,1,35
83,239,205741,5,2,0:0:0:0:
83,239,206033,5,4,2:2:0:0:
106,114,206180,1,0,2:2:0:0:
162,291,206326,5,8,2:2:0:0:
180,112,206472,1,0,2:2:0:0:
251,314,206619,5,2,2:2:0:0:
254,77,206765,1,0,2:2:0:0:
332,294,206911,5,8,2:2:0:0:
315,40,207058,1,0,2:2:0:0:
266,234,207204,5,2,2:2:0:0:
385,80,207350,1,0,2:2:0:0:
236,166,207497,5,8,2:2:0:0:
409,162,207643,1,0,2:2:0:0:
264,94,207789,5,2,2:2:0:0:
376,229,207936,1,0,2:2:0:0:
321,43,208082,5,8,2:2:0:0:
318,320,208229,1,8,2:2:0:0:
385,80,208375,5,2,2:2:0:0:
441,264,208521,1,0,2:2:0:0:
389,53,208667,5,8,2:2:0:0:
359,272,208814,1,0,2:2:0:0:
314,47,208960,5,2,2:2:0:0:
278,285,209106,1,0,2:2:0:0:
240,50,209253,5,8,2:2:0:0:
196,295,209399,1,0,2:2:0:0:
168,60,209545,5,2,2:2:0:0:
253,216,209692,1,0,2:2:0:0:
96,127,209838,5,8,2:2:0:0:
306,166,209984,1,0,2:2:0:0:
117,269,210131,5,2,2:2:0:0:
318,163,210277,1,0,2:2:0:0:
80,123,210424,1,8,2:2:0:0:
408,248,210570,5,0,0:0:0:0:
408,248,210643,1,0,0:0:0:0:
408,248,210716,2,0,L|418:142,1,90.9999958343508,4|0,0:0|0:0,0:0:0:0:
391,88,210936,1,0,0:0:0:0:
391,88,211009,1,8,0:0:0:0:
155,173,211155,1,0,0:0:0:0:
331,161,211302,5,2,0:0:0:0:
187,52,211448,1,8,0:0:0:0:
187,52,211521,1,0,0:0:0:0:
187,52,211594,1,0,0:0:0:0:
248,211,211741,1,8,0:0:0:0:
44,125,211887,6,0,B|52:76|52:76|90:41,1,90.9999958343508,2|0,0:0|0:0,0:0:0:0:
142,124,212106,1,0,0:0:0:0:
142,124,212180,2,0,L|144:146,4,22.7499989585877,8|0|0|0|0,0:0|0:0|0:0|0:0|0:0,0:0:0:0:
23,212,212472,1,2,0:0:0:0:
123,337,212619,6,0,L|120:359,2,22.7499989585877,8|0|0,0:0|0:0|0:0,0:0:0:0:
164,275,212765,1,0,0:0:0:0:
26,232,212911,1,8,0:0:0:0:
136,125,213058,5,2,0:0:0:0:
183,250,213204,2,0,L|227:261,1,45.4999979171754,8|0,0:0|0:0,0:0:0:0:
62,298,213350,2,0,L|39:260,1,45.4999979171754,8|0,0:0|0:0,0:0:0:0:
103,120,213497,1,0,0:0:0:0:
296,145,213643,5,10,0:0:0:0:
293,123,213716,1,0,0:0:0:0:
291,100,213789,1,0,0:0:0:0:
288,78,213862,1,0,0:0:0:0:
286,55,213935,1,8,0:0:0:0:
348,275,214082,6,0,L|340:323,1,45.4999979171754,8|0,0:0|0:0,0:0:0:0:
486,232,214228,1,2,0:0:0:0:
375,124,214375,6,0,L|368:80,1,45.4999979171754,8|0,0:0|0:0,0:0:0:0:
482,251,214521,2,0,L|475:296,1,45.4999979171754,8|0,0:0|0:0,0:0:0:0:
502,144,214667,1,0,0:0:0:0:
170,286,214814,6,0,L|297:274,1,97.9999970092774,4|0,0:0|0:0,0:0:0:0:
387,233,215033,1,0,0:0:0:0:
402,212,215106,2,0,P|411:159|394:113,1,97.9999970092774,8|0,0:0|0:0,0:0:0:0:
170,286,215399,5,4,0:0:0:0:
159,206,215545,1,0,0:0:0:0:
294,278,215692,5,8,0:0:0:0:
316,170,215838,1,0,0:0:0:0:
199,293,215984,5,2,0:0:0:0:
162,133,216131,1,0,0:0:0:0:
307,296,216277,5,8,0:0:0:0:
349,113,216424,1,0,0:0:0:0:
391,286,216570,5,2,0:0:0:0:
274,123,216716,1,0,0:0:0:0:
433,218,216863,5,8,0:0:0:0:
232,185,217009,1,0,0:0:0:0:
421,141,217155,5,2,0:0:0:0:
247,263,217302,1,0,0:0:0:0:
339,77,217448,5,8,0:0:0:0:
317,296,217594,1,8,0:0:0:0:
419,115,217741,5,2,0:0:0:0:
401,327,217887,1,0,0:0:0:0:
310,64,218033,5,8,0:0:0:0:
310,320,218180,1,0,0:0:0:0:
223,72,218326,5,2,0:0:0:0:
223,312,218472,1,0,0:0:0:0:
134,77,218619,5,8,0:0:0:0:
134,307,218765,1,0,0:0:0:0:
160,151,218911,5,2,0:0:0:0:
416,177,219058,1,0,0:0:0:0:
83,246,219204,5,8,0:0:0:0:
405,97,219350,1,0,0:0:0:0:
160,233,219497,5,2,0:0:0:0:
343,45,219643,1,0,0:0:0:0:
83,138,219789,1,8,0:0:0:0:
326,226,219936,5,0,0:0:0:0:
326,226,220009,1,0,0:0:0:0:
326,226,220082,2,0,P|339:171|330:129,1,90.9999958343508,4|0,0:0|0:0,0:0:0:0:
270,87,220302,1,0,0:0:0:0:
270,87,220375,1,8,0:0:0:0:
133,170,220521,1,0,0:0:0:0:
226,228,220667,5,2,0:0:0:0:
123,51,220814,1,8,0:0:0:0:
123,51,220887,1,0,0:0:0:0:
123,51,220960,1,0,0:0:0:0:
6,137,221106,1,8,0:0:0:0:
132,257,221253,2,0,B|144:220|144:220|131:162,1,90.9999958343508,2|0,0:0|0:0,0:0:0:0:
59,244,221472,5,0,0:0:0:0:
59,244,221545,2,0,L|57:268,4,22.7499989585877,8|0|0|0|0,0:0|0:0|0:0|0:0|0:0,0:0:0:0:
190,343,221838,1,2,0:0:0:0:
286,237,221984,6,0,L|284:214,4,22.7499989585877,8|0|0|0|0,0:0|0:0|0:0|0:0|0:0,0:0:0:0:
380,282,222277,1,8,0:0:0:0:
402,92,222424,5,2,0:0:0:0:
472,213,222570,2,0,L|478:168,1,45.4999979171754,8|0,0:0|0:0,0:0:0:0:
382,298,222716,2,0,L|388:343,1,45.4999979171754,8|0,0:0|0:0,0:0:0:0:
396,68,222863,1,0,0:0:0:0:
256,192,223009,5,8,0:0:0:0:
254,169,223082,1,0,0:0:0:0:
252,146,223155,1,0,0:0:0:0:
250,123,223228,1,0,0:0:0:0:
248,101,223301,1,8,0:0:0:0:
164,275,223448,6,0,L|172:323,1,45.4999979171754,8|0,0:0|0:0,0:0:0:0:
26,232,223594,1,2,0:0:0:0:
137,124,223741,6,0,L|144:80,1,45.4999979171754,8|0,0:0|0:0,0:0:0:0:
30,251,223887,2,0,L|37:296,1,45.4999979171754,8|0,0:0|0:0,0:0:0:0:
10,144,224033,1,0,0:0:0:0:
254,169,224180,6,0,P|268:229|251:282,1,97.9999970092774,4|0,0:0|0:0,0:0:0:0:
202,309,224399,1,0,0:0:0:0:
202,309,224472,1,8,0:0:0:0:
187,44,224765,6,0,L|194:97,1,52.5000020027161,2|0,0:0|0:0,0:0:0:0:
113,108,225058,2,0,L|106:161,1,52.5000020027161
51,58,225350,2,0,P|-2:53|-32:65,2,52.5000020027161,8|0|0,0:0|0:0|0:0,0:0:0:0:
178,172,225789,6,0,P|256:177|295:154,1,105.000004005432,2|0,0:0|0:0,0:0:0:0:
389,138,226228,2,0,P|409:173|410:211,1,52.5000020027161
434,74,226521,2,0,P|454:39|486:19,1,52.5000020027161,8|0,0:0|0:0,0:0:0:0:
357,68,226814,2,0,P|316:67|283:49,1,52.5000020027161
402,165,227106,6,0,B|417:203|417:203|412:269|412:269,1,105.000004005432,2|0,0:0|0:0,0:0:0:0:
317,323,227545,1,0,0:0:0:0:
243,258,227692,2,0,L|307:249,2,52.5000020027161,8|0|0,0:0|0:0|0:0,0:0:0:0:
157,312,228131,6,0,B|142:274|142:274|147:208|147:208,1,105.000004005432,2|0,0:0|0:0,0:0:0:0:
71,294,228570,2,0,L|67:354,1,52.5000020027161
243,258,228863,1,2,0:0:0:0:
157,312,229155,1,0,0:0:0:0:
362,190,229448,6,0,B|366:85,1,105.000004005432,2|0,0:0|0:0,0:0:0:0:
150,190,230619,6,0,B|145:85,1,105.000004005432,2|0,0:0|0:0,0:0:0:0:
453,164,231789,6,0,B|448:268,1,105.000004005432,2|0,0:0|0:0,0:0:0:0:
281,221,232375,6,0,B|277:117,1,105.000004005432,2|0,0:0|0:0,0:0:0:0:
362,190,232960,6,0,B|357:294,1,105.000004005432,2|0,0:0|0:0,0:0:0:0:
156,191,233546,6,0,B|158:155,1,35
273,318,234131,5,2,0:0:0:0:
143,265,234424,1,8,0:0:0:0:
245,170,234570,5,0,0:0:0:0:
244,143,234643,1,0,0:0:0:0:
198,79,234716,2,0,P|265:95|332:77,1,140,2|8,0:0|0:0,0:0:0:0:
512,170,235302,5,2,0:0:0:0:
413,71,235594,1,8,0:0:0:0:
385,209,235741,5,0,0:0:0:0:
391,252,235814,1,0,0:0:0:0:
450,296,235887,2,0,P|400:288|310:320,1,140,2|8,0:0|0:0,0:0:0:0:
201,240,236472,5,2,0:0:0:0:
202,257,236545,1,0,0:0:0:0:
204,274,236618,2,0,L|211:337,1,35
126,165,236765,5,8,0:0:0:0:
125,182,236838,1,0,0:0:0:0:
123,199,236911,2,0,L|116:262,1,35
68,94,237058,5,2,0:0:0:0:
90,81,237131,1,0,0:0:0:0:
116,74,237204,1,0,0:0:0:0:
142,74,237277,1,0,0:0:0:0:
167,80,237350,1,8,0:0:0:0:
256,192,237497,1,8,0:0:0:0:
315,52,237643,5,2,0:0:0:0:
402,157,237789,2,0,L|419:154,4,17.5,0|0|0|0|8,0:0|0:0|0:0|0:0|0:0,0:0:0:0:
345,324,238082,1,0,0:0:0:0:
343,289,238155,1,0,0:0:0:0:
341,254,238228,1,2,0:0:0:0:
341,254,238814,5,2,0:0:0:0:
119,305,238960,1,0,0:0:0:0:
232,347,239106,1,8,0:0:0:0:
251,206,239253,2,0,L|255:153,2,35,0|0|2,0:0|0:0|0:0,0:0:0:0:
29,209,239545,6,0,L|24:263,1,35,8|0,0:0|0:0,0:0:0:0:
83,117,239692,2,0,L|88:171,1,35
32,58,239838,1,8,0:0:0:0:
29,42,239911,1,0,0:0:0:0:
25,25,239984,1,2,0:0:0:0:
197,109,240131,5,0,0:0:0:0:
116,36,240277,1,8,0:0:0:0:
198,228,240424,2,0,L|198:262,2,35,0|0|2,0:0|0:0|0:0,0:0:0:0:
197,127,240716,1,8,0:0:0:0:
34,89,241009,6,0,L|32:67,2,17.5
36,137,241155,1,2,0:0:0:0:
121,197,241302,1,0,0:0:0:0:
197,127,241448,1,8,0:0:0:0:
316,217,241594,1,0,0:0:0:0:
314,193,241667,1,0,0:0:0:0:
312,170,241740,1,2,0:0:0:0:
385,43,241887,6,0,L|384:11,4,17.5,8|0|0|0|0,0:0|0:0|0:0|0:0|0:0,0:0:0:0:
476,148,242180,1,0,0:0:0:0:
478,125,242253,1,0,0:0:0:0:
480,101,242326,1,2,0:0:0:0:
461,274,242472,1,0,0:0:0:0:
349,193,242619,1,8,0:0:0:0:
370,333,242765,2,0,L|373:299,2,35,0|0|2,0:0|0:0|0:0,0:0:0:0:
271,235,243058,6,0,L|268:204,4,17.5,8|0|0|0|0,0:0|0:0|0:0|0:0|0:0,0:0:0:0:
285,129,243350,1,0,0:0:0:0:
418,199,243497,6,0,L|336:191,1,70,2|0,0:0|0:0,0:0:0:0:
481,134,243789,1,8,0:0:0:0:
512,287,243936,1,0,0:0:0:0:
512,287,244009,1,0,0:0:0:0:
512,287,244082,1,2,0:0:0:0:
383,336,244228,6,0,L|378:301,1,35,8|0,0:0|0:0,0:0:0:0:
297,359,244375,2,0,L|301:324,1,35
230,268,244521,1,8,0:0:0:0:
230,268,244594,1,0,0:0:0:0:
230,268,244667,2,0,P|188:260|140:279,1,70,2|0,0:0|0:0,0:0:0:0:
80,353,244960,1,8,0:0:0:0:
21,193,245106,5,0,0:0:0:0:
21,193,245180,1,0,0:0:0:0:
21,193,245253,2,0,L|30:295,1,70,2|8,0:0|0:0,0:0:0:0:
169,105,245545,1,0,0:0:0:0:
40,56,245692,6,0,L|38:38,2,17.5,8|0|0,0:0|0:0|0:0,0:0:0:0:
17,102,245838,1,2,0:0:0:0:
159,212,245984,1,0,0:0:0:0:
27,262,246131,1,8,0:0:0:0:
168,90,246277,2,0,L|166:53,2,35
27,276,246570,2,0,L|25:306,4,17.5,8|0|0|0|0,0:0|0:0|0:0|0:0|0:0,0:0:0:0:
161,334,246863,5,0,0:0:0:0:
161,334,246936,1,0,0:0:0:0:
161,334,247009,2,0,L|242:328,1,70,2|0,0:0|0:0,0:0:0:0:
401,230,247302,1,8,0:0:0:0:
349,334,247448,1,0,0:0:0:0:
349,334,247521,1,0,0:0:0:0:
349,334,247594,1,0,0:0:0:0:
273,198,247741,6,0,L|271:178,4,17.5,8|0|0|0|0,0:0|0:0|0:0|0:0|0:0,0:0:0:0:
432,101,248033,1,8,0:0:0:0:
432,101,248106,1,0,0:0:0:0:
432,101,248180,1,2,0:0:0:0:
207,142,248326,6,0,L|211:122,4,17.5,0|0|0|0|8,0:0|0:0|0:0|0:0|0:0,0:0:0:0:
417,181,248619,1,0,0:0:0:0:
322,47,248765,2,0,L|318:4,2,35,2|0|0,0:0|0:0|0:0,0:0:0:0:
208,164,249058,6,0,L|211:192,4,17.5,8|0|0|0|0,0:0|0:0|0:0|0:0|0:0,0:0:0:0:
192,22,249350,1,2,0:0:0:0:
53,89,249497,1,0,0:0:0:0:
50,103,249570,1,0,0:0:0:0:
48,117,249643,2,0,L|44:143,4,17.5,8|0|0|0|0,0:0|0:0|0:0|0:0|0:0,0:0:0:0:
135,230,249936,2,0,L|134:182,2,35,2|0|0,0:0|0:0|0:0,0:0:0:0:
40,298,250228,6,0,L|43:324,4,17.5,8|0|0|0|8,0:0|0:0|0:0|0:0|0:0,0:0:0:0:
165,352,250521,1,2,0:0:0:0:
239,248,250667,6,0,L|241:230,4,17.5,0|0|0|0|8,0:0|0:0|0:0|0:0|0:0,0:0:0:0:
381,199,250960,1,0,0:0:0:0:
329,344,251106,1,2,0:0:0:0:
326,320,251179,1,0,0:0:0:0:
324,297,251252,1,0,0:0:0:0:
383,179,251399,6,0,L|385:161,4,17.5,8|0|0|0|0,0:0|0:0|0:0|0:0|0:0,0:0:0:0:
333,64,251692,1,2,0:0:0:0:
232,126,251838,6,0,L|234:143,4,17.5,0|0|0|0|8,0:0|0:0|0:0|0:0|0:0,0:0:0:0:
102,42,252131,1,8,0:0:0:0:
62,48,252204,1,0,0:0:0:0:
37,80,252277,1,2,0:0:0:0:
40,120,252350,1,0,0:0:0:0:
68,148,252423,1,0,0:0:0:0:
108,150,252496,1,0,0:0:0:0:
139,125,252570,2,0,L|143:104,4,17.5,8|0|0|0|0,0:0|0:0|0:0|0:0|0:0,0:0:0:0:
97,293,252863,6,0,L|87:222,1,70,2|0,0:0|0:0,0:0:0:0:
189,325,253155,2,0,L|179:254,1,70
19,352,253448,6,0,L|9:281,1,70,2|0,0:0|0:0,0:0:0:0:
97,293,253741,2,0,L|87:222,1,70
49,158,253960,1,0,0:0:0:0:
49,158,254033,1,2,0:0:0:0:
158,18,254180,6,0,L|104:6,1,35
233,54,254326,2,0,L|287:42,2,35
174,115,254545,1,0,0:0:0:0:
168,134,254619,2,0,P|164:167|172:204,1,70,2|0,0:0|0:0,0:0:0:0:
216,266,254838,5,0,0:0:0:0:
216,266,254911,2,0,L|211:313,1,35,2|0,0:0|0:0,0:0:0:0:
296,266,255057,2,0,L|301:313,1,35
340,202,255204,6,0,P|347:168|344:134,1,70,2|0,0:0|0:0,0:0:0:0:
447,239,255497,2,0,L|454:319,1,70,2|0,0:0|0:0,0:0:0:0:
430,75,255789,2,0,L|437:155,1,70,2|0,0:0|0:0,0:0:0:0:
351,32,256082,1,0,0:0:0:0:
351,32,256228,1,0,0:0:0:0:
252,104,256375,6,0,L|162:88,1,70,2|0,0:0|0:0,0:0:0:0:
115,153,256594,1,0,0:0:0:0:
105,185,256667,2,0,L|173:172,1,70
250,252,256960,2,0,P|265:203|251:166,1,70,2|0,0:0|0:0,0:0:0:0:
179,305,257253,1,0,0:0:0:0:
22,151,257545,6,0,L|26:226,1,70,4|0,0:0|0:0,0:0:0:0:
115,124,257838,1,8,0:0:0:0:
116,97,257911,1,0,0:0:0:0:
117,71,257984,1,0,0:0:0:0:
119,45,258057,1,0,0:0:0:0:
120,19,258130,1,2,0:0:0:0:
203,167,258277,6,0,L|200:130,1,35,8|0,0:0|0:0,0:0:0:0:
275,100,258424,2,0,L|278:63,1,35
351,148,258569,5,8,0:0:0:0:
374,148,258642,1,0,0:0:0:0:
397,149,258716,2,0,L|476:152,1,70,2|0,0:0|0:0,0:0:0:0:
349,25,259009,1,8,0:0:0:0:
283,194,259155,5,0,0:0:0:0:
283,194,259228,1,0,0:0:0:0:
283,194,259302,2,0,P|283:254|292:280,1,70,2|8,0:0|0:0,0:0:0:0:
384,335,259594,1,2,0:0:0:0:
499,213,259741,6,0,L|496:195,2,17.5,8|0|0,0:0|0:0|0:0,0:0:0:0:
466,151,259887,1,2,0:0:0:0:
328,96,260033,1,0,0:0:0:0:
491,37,260180,1,8,0:0:0:0:
381,182,260326,2,0,L|377:233,2,35,2|0|2,0:0|0:0|0:0,0:0:0:0:
256,64,260619,2,0,L|252:13,2,35,0|0|8,0:0|0:0|0:0,0:0:0:0:
168,177,260911,6,0,L|166:194,2,17.5
142,129,261058,1,2,0:0:0:0:
17,26,261204,1,0,0:0:0:0:
165,16,261350,1,8,0:0:0:0:
47,153,261497,2,0,L|51:204,2,35,0|0|2,0:0|0:0|0:0,0:0:0:0:
114,266,261789,6,0,L|111:299,4,17.5,0|0|0|0|8,0:0|0:0|0:0|0:0|0:0,0:0:0:0:
51,360,262082,1,0,0:0:0:0:
197,290,262228,6,0,P|229:279|272:281,1,70,2|0,0:0|0:0,0:0:0:0:
371,342,262521,1,8,0:0:0:0:
472,259,262667,2,0,L|470:225,2,35,0|0|2,0:0|0:0|0:0,0:0:0:0:
457,83,262960,6,0,L|461:134,1,35,8|0,0:0|0:0,0:0:0:0:
379,158,263106,2,0,L|375:209,1,35,8|0,0:0|0:0,0:0:0:0:
295,119,263253,5,0,0:0:0:0:
295,119,263326,1,0,0:0:0:0:
295,119,263399,2,0,B|290:91|290:91|299:51,1,70,2|0,0:0|0:0,0:0:0:0:
404,5,263692,1,8,0:0:0:0:
486,107,263838,6,0,L|483:72,2,35,0|0|2,0:0|0:0|0:0,0:0:0:0:
376,192,264131,1,8,0:0:0:0:
487,236,264277,1,0,0:0:0:0:
393,336,264424,2,0,L|394:359,2,17.5,8|0|0,0:0|0:0|0:0,0:0:0:0:
322,297,264570,6,0,L|237:285,1,70,2|0,0:0|0:0,0:0:0:0:
133,348,264863,1,8,0:0:0:0:
47,226,265009,5,0,0:0:0:0:
48,243,265082,1,0,0:0:0:0:
49,260,265155,1,2,0:0:0:0:
152,155,265302,5,0,0:0:0:0:
151,172,265375,1,0,0:0:0:0:
150,189,265448,2,0,L|149:212,4,17.5,8|0|0|0|0,0:0|0:0|0:0|0:0|0:0,0:0:0:0:
53,62,265741,6,0,P|93:48|128:49,1,70,2|0,0:0|0:0,0:0:0:0:
229,104,266033,1,8,0:0:0:0:
71,192,266180,2,0,L|73:158,2,35,0|0|2,0:0|0:0|0:0,0:0:0:0:
168,301,266472,6,0,L|172:333,4,17.5,8|0|0|0|0,0:0|0:0|0:0|0:0|0:0,0:0:0:0:
256,224,266765,1,8,0:0:0:0:
367,327,266911,1,2,0:0:0:0:
466,230,267058,6,0,L|468:212,4,17.5,0|0|0|0|8,0:0|0:0|0:0|0:0|0:0,0:0:0:0:
352,108,267350,1,0,0:0:0:0:
494,71,267497,1,2,0:0:0:0:
494,71,267570,1,0,0:0:0:0:
494,71,267643,1,0,0:0:0:0:
364,256,267789,6,0,L|364:273,4,17.5,8|0|0|0|0,0:0|0:0|0:0|0:0|0:0,0:0:0:0:
239,190,268082,1,2,0:0:0:0:
352,108,268228,5,0,0:0:0:0:
365,105,268301,1,0,0:0:0:0:
379,103,268374,2,0,L|396:98,4,17.5,8|0|0|0|0,0:0|0:0|0:0|0:0|0:0,0:0:0:0:
265,32,268667,2,0,L|228:23,2,35,2|0|0,0:0|0:0|0:0,0:0:0:0:
242,151,268960,6,0,L|243:168,4,17.5,8|0|0|0|0,0:0|0:0|0:0|0:0|0:0,0:0:0:0:
110,100,269253,1,2,0:0:0:0:
25,274,269399,6,0,L|22:290,4,17.5,0|0|0|0|8,0:0|0:0|0:0|0:0|0:0,0:0:0:0:
133,242,269692,1,0,0:0:0:0:
236,307,269838,1,2,0:0:0:0:
236,307,269911,1,0,0:0:0:0:
236,307,269984,1,0,0:0:0:0:
299,214,270131,6,0,L|299:196,4,17.5,8|0|0|0|0,0:0|0:0|0:0|0:0|0:0,0:0:0:0:
406,248,270424,1,2,0:0:0:0:
208,187,270570,2,0,L|203:169,4,17.5,0|0|0|0|8,0:0|0:0|0:0|0:0|0:0,0:0:0:0:
313,58,270863,1,0,0:0:0:0:
446,130,271009,6,0,L|486:127,3,35,2|0|0|0,0:0|0:0|0:0|0:0,0:0:0:0:
351,170,271302,2,0,L|311:173,3,35,2|0|0|0,0:0|0:0|0:0|0:0,0:0:0:0:
424,223,271594,6,0,L|415:293,1,70,2|0,0:0|0:0,0:0:0:0:
323,325,271886,2,0,L|332:255,1,70
502,282,272179,6,0,L|493:352,1,70,2|0,0:0|0:0,0:0:0:0:
415,293,272472,2,0,L|424:223,1,70
487,175,272691,1,0,0:0:0:0:
487,175,272764,1,2,0:0:0:0:
330,146,272911,6,0,L|276:134,1,35
257,208,273057,2,0,L|222:215,1,35
132,181,273204,5,0,0:0:0:0:
127,163,273277,1,0,0:0:0:0:
127,146,273350,2,0,P|125:114|138:78,1,70,2|0,0:0|0:0,0:0:0:0:
216,48,273570,5,0,0:0:0:0:
216,48,273643,2,0,L|211:1,1,35,2|0,0:0|0:0,0:0:0:0:
296,48,273789,2,0,L|301:1,1,35
374,78,273936,6,0,P|386:111|385:146,1,70,2|0,0:0|0:0,0:0:0:0:
252,228,274228,2,0,P|274:201|305:185,1,70
443,259,274521,2,0,P|408:253|379:234,1,70
482,186,274814,1,2,0:0:0:0:
482,186,274960,1,0,0:0:0:0:
331,306,275106,6,0,L|241:322,1,70,2|0,0:0|0:0,0:0:0:0:
183,214,275399,2,0,L|251:227,2,70
85,286,275984,1,0,0:0:0:0:
171,357,276277,5,0,0:0:0:0:
404,120,285643,6,0,P|399:83|409:50,2,70,2|0|8,0:0|0:0|0:0,0:0:0:0:
473,183,286082,2,0,P|478:216|470:254,2,70,0|2|8,0:0|0:0|0:0,0:0:0:0:
377,213,286521,2,0,L|293:198,1,70,2|8,0:0|0:0,0:0:0:0:
262,287,286814,6,0,L|178:302,1,70,2|0,0:0|0:0,0:0:0:0:
65,253,287106,1,8,0:0:0:0:
172,155,287253,1,0,0:0:0:0:
172,155,287326,1,0,0:0:0:0:
172,155,287399,2,0,P|176:193|163:228,1,70,2|8,0:0|0:0,0:0:0:0:
61,132,287692,2,0,P|74:98|101:69,1,70,0|8,0:0|0:0,0:0:0:0:
190,48,287984,6,0,L|266:40,2,70,2|0|8,0:0|0:0|0:0,0:0:0:0:
256,121,288424,2,0,L|332:129,2,70,2|0|8,0:0|0:0|0:0,0:0:0:0:
389,53,288863,2,0,P|411:79|423:112,1,70,2|8,0:0|0:0,0:0:0:0:
374,255,289155,6,0,P|367:220|373:186,1,70,2|0,0:0|0:0,0:0:0:0:
478,157,289448,1,8,0:0:0:0:
325,128,289594,1,0,0:0:0:0:
469,74,289741,6,0,L|481:178,1,83.9999974365235,2|0,0:0|0:0,0:0:0:0:
307,234,290180,1,0,0:0:0:0:
307,234,290253,1,0,0:0:0:0:
307,234,290326,2,0,L|297:150,1,83.9999974365235,2|0,0:0|0:0,0:0:0:0:
423,248,290765,1,0,0:0:0:0:
218,331,290912,6,0,L|207:233,1,97.9999970092774,2|0,0:0|0:0,0:0:0:0:
346,340,291351,1,0,0:0:0:0:
125,264,291497,6,0,L|117:194,1,70,2|0,0:0|0:0,0:0:0:0:
37,258,291789,2,0,L|45:328,1,70,2|0,0:0|0:0,0:0:0:0:
218,331,292082,2,0,L|210:261,1,70,2|0,0:0|0:0,0:0:0:0:
109,124,292375,2,0,L|116:193,1,70,2|0,0:0|0:0,0:0:0:0:
331,105,292667,6,0,L|336:60,3,35
442,173,292960,2,0,L|437:128,3,35
347,227,293253,5,0,0:0:0:0:
315,242,293326,1,0,0:0:0:0:
281,245,293399,1,0,0:0:0:0:
247,235,293472,1,0,0:0:0:0:
174,189,293545,5,0,0:0:0:0:
136,171,293618,1,0,0:0:0:0:
93,171,293691,1,0,0:0:0:0:
54,189,293764,1,0,0:0:0:0:
6,247,293838,5,0,0:0:0:0:
63,193,295009,6,0,P|91:235|92:299,1,105.000004005432,2|0,0:0|0:0,0:0:0:0:
63,193,295448,1,0,0:0:0:0:
119,123,295594,2,0,P|136:89|136:50,2,78.7500030040742,8|0|0,0:0|0:0|0:0,0:0:0:0:
95,288,296179,6,0,P|92:236|63:193,1,105.000004005432,2|0,0:0|0:0,0:0:0:0:
190,180,296618,1,0,0:0:0:0:
190,180,296765,2,0,L|268:172,2,78.7500030040742,8|0|0,0:0|0:0|0:0,0:0:0:0:
348,104,297350,6,0,L|476:118,1,105.000004005432,2|0,0:0|0:0,0:0:0:0:
348,104,297789,1,0,0:0:0:0:
268,172,297935,2,0,L|190:180,2,78.7500030040742,8|0|0,0:0|0:0|0:0,0:0:0:0:
348,104,298521,6,0,L|453:115,1,105.000004005432,2|0,0:0|0:0,0:0:0:0:
505,248,298960,1,0,0:0:0:0:
505,248,299106,2,0,P|510:209|505:171,2,78.7500030040742,8|0|0,0:0|0:0|0:0,0:0:0:0:
330,277,299692,6,0,L|434:289,1,105.000004005432,2|0,0:0|0:0,0:0:0:0:
239,201,300131,1,0,0:0:0:0:
239,201,300277,2,0,L|248:289,2,78.7500030040742,8|0|0,0:0|0:0|0:0,0:0:0:0:
62,173,300862,6,0,L|72:278,1,105.000004005432,2|0,0:0|0:0,0:0:0:0:
163,328,301301,1,0,0:0:0:0:
163,328,301448,2,0,L|156:247,2,78.7500030040742,8|0|0,0:0|0:0|0:0,0:0:0:0:
62,173,302033,6,0,L|52:68,1,105.000004005432,2|0,0:0|0:0,0:0:0:0:
143,8,302472,1,0,0:0:0:0:
143,8,302618,2,0,P|182:3|219:16,2,78.7500030040742,8|0|0,0:0|0:0|0:0,0:0:0:0:
270,85,303204,6,0,L|262:171,1,77.0000023498536,2|0,0:0|0:0,0:0:0:0:
379,130,303424,1,0,0:0:0:0:
392,111,303497,2,0,L|385:35,1,77.0000023498536,8|0,0:0|0:0,0:0:0:0:
339,242,303789,5,2,0:0:0:0:
449,195,303936,1,0,0:0:0:0:
262,161,304082,1,0,0:0:0:0:
262,161,304375,5,4,0:0:0:0:
178,321,304521,2,0,L|183:279,2,41.9999987182618,0|0|8,0:0|0:0|0:0,0:0:0:0:
67,199,304814,2,0,L|62:157,1,41.9999987182618
41,267,304960,1,2,0:0:0:0:
159,86,305106,2,0,L|164:44,2,41.9999987182618,0|0|8,0:0|0:0|0:0,0:0:0:0:
262,161,305399,2,0,L|267:119,1,41.9999987182618
327,202,305545,5,2,0:0:0:0:
347,199,305618,1,0,0:0:0:0:
368,197,305691,1,0,0:0:0:0:
389,195,305764,1,0,0:0:0:0:
410,193,305837,1,8,0:0:0:0:
447,76,305984,2,0,L|442:34,2,41.9999987182618,0|0|2,0:0|0:0|0:0,0:0:0:0:
503,226,306277,2,0,L|508:184,1,41.9999987182618
447,292,306423,1,8,0:0:0:0:
345,121,306570,5,8,0:0:0:0:
347,100,306643,1,0,0:0:0:0:
349,79,306716,1,2,0:0:0:0:
256,264,306863,2,0,L|251:222,2,41.9999987182618,0|0|8,0:0|0:0|0:0,0:0:0:0:
151,83,307155,2,0,L|146:125,1,41.9999987182618
221,30,307302,1,0,0:0:0:0:
61,197,307448,2,0,L|56:155,2,41.9999987182618,0|0|8,0:0|0:0|0:0,0:0:0:0:
163,287,307741,5,0,0:0:0:0:
161,307,307814,1,0,0:0:0:0:
159,328,307887,1,2,0:0:0:0:
297,247,308033,5,0,0:0:0:0:
294,226,308106,1,0,0:0:0:0:
292,205,308180,2,0,L|280:110,1,83.9999974365235,8|0,0:0|0:0,0:0:0:0:
209,73,308399,1,0,0:0:0:0:
211,52,308473,2,0,L|219:-14,1,41.9999987182618,2|0,0:0|0:0,0:0:0:0:
60,101,308692,1,0,0:0:0:0:
60,101,308765,1,0,0:0:0:0:
151,241,308911,5,0,0:0:0:0:
153,220,308984,1,0,0:0:0:0:
155,200,309057,1,2,0:0:0:0:
59,322,309204,2,0,L|54:280,2,41.9999987182618,0|0|8,0:0|0:0|0:0,0:0:0:0:
255,240,309497,2,0,L|250:282,1,41.9999987182618
321,202,309643,1,2,0:0:0:0:
167,118,309789,2,0,L|162:76,2,41.9999987182618,0|0|8,0:0|0:0|0:0,0:0:0:0:
54,232,310082,5,0,0:0:0:0:
57,211,310155,1,0,0:0:0:0:
59,190,310229,2,0,L|68:112,1,41.9999987182618,2|0,0:0|0:0,0:0:0:0:
90,75,310375,1,0,0:0:0:0:
88,54,310448,1,0,0:0:0:0:
86,34,310521,1,8,0:0:0:0:
255,240,310667,6,0,L|260:198,2,41.9999987182618,0|0|2,0:0|0:0|0:0,0:0:0:0:
388,81,310960,2,0,L|383:39,1,41.9999987182618
442,137,311106,1,8,0:0:0:0:
394,253,311253,1,8,0:0:0:0:
394,253,311326,1,0,0:0:0:0:
394,253,311399,1,2,0:0:0:0:
180,178,311545,2,0,L|138:183,2,41.9999987182618,0|0|8,0:0|0:0|0:0,0:0:0:0:
291,95,311838,5,0,0:0:0:0:
289,74,311911,1,0,0:0:0:0:
287,54,311984,1,0,0:0:0:0:
444,191,312131,2,0,L|486:196,1,41.9999987182618
390,138,312277,1,8,0:0:0:0:
333,325,312424,5,0,0:0:0:0:
333,325,312497,1,0,0:0:0:0:
333,325,312570,1,2,0:0:0:0:
174,245,312716,2,0,L|132:250,2,41.9999987182618,0|0|8,0:0|0:0|0:0,0:0:0:0:
27,212,313009,1,0,0:0:0:0:
213,127,313155,1,2,0:0:0:0:
79,36,313302,5,0,0:0:0:0:
43,62,313375,1,0,0:0:0:0:
85,80,313448,1,8,0:0:0:0:
84,315,313741,5,2,0:0:0:0:
205,207,313887,1,0,0:0:0:0:
202,238,313960,1,0,0:0:0:0:
199,269,314033,1,8,0:0:0:0:
197,301,314106,1,0,0:0:0:0:
194,332,314179,1,0,0:0:0:0:
213,127,314326,1,2,0:0:0:0:
348,147,314472,5,0,0:0:0:0:
384,140,314545,1,0,0:0:0:0:
398,106,314618,1,8,0:0:0:0:
377,75,314691,1,0,0:0:0:0:
340,76,314764,1,0,0:0:0:0:
287,290,314911,6,0,L|289:248,1,41.9999987182618,2|0,0:0|0:0,0:0:0:0:
194,332,315058,2,0,L|192:290,1,41.9999987182618
87,293,315204,1,8,0:0:0:0:
213,127,315350,5,0,0:0:0:0:
216,158,315423,1,0,0:0:0:0:
219,189,315496,1,8,0:0:0:0:
123,41,315643,6,0,L|128:-1,1,41.9999987182618
69,97,315789,1,8,0:0:0:0:
251,56,315936,1,0,0:0:0:0:
129,213,316082,5,2,0:0:0:0:
261,273,316228,1,0,0:0:0:0:
292,269,316301,1,0,0:0:0:0:
323,265,316374,1,8,0:0:0:0:
354,261,316447,1,0,0:0:0:0:
386,257,316520,1,0,0:0:0:0:
512,327,316667,1,2,0:0:0:0:
482,146,316814,5,0,0:0:0:0:
487,172,316887,1,0,0:0:0:0:
491,198,316960,1,8,0:0:0:0:
495,225,317033,1,0,0:0:0:0:
499,251,317106,1,0,0:0:0:0:
395,50,317253,5,2,0:0:0:0:
306,174,317399,1,0,0:0:0:0:
306,174,317472,1,0,0:0:0:0:
306,174,317545,1,8,0:0:0:0:
168,97,317692,6,0,L|177:19,1,41.9999987182618
113,10,317838,1,0,0:0:0:0:
113,10,317911,1,0,0:0:0:0:
86,208,318058,1,0,0:0:0:0:
86,208,318131,1,2,0:0:0:0:
271,76,318277,5,0,0:0:0:0:
271,76,318350,1,0,0:0:0:0:
271,76,318424,2,0,L|360:61,1,83.9999974365235,2|0,0:0|0:0,0:0:0:0:
473,100,318643,1,0,0:0:0:0:
496,108,318716,2,0,P|507:50|493:-2,1,83.9999974365235,8|0,0:0|0:0,0:0:0:0:
396,155,318936,1,0,0:0:0:0:
390,174,319009,2,0,P|383:220|395:273,1,83.9999974365235,2|0,0:0|0:0,0:0:0:0:
465,303,319228,1,0,0:0:0:0:
465,303,319302,1,8,0:0:0:0:
256,219,319594,6,0,L|249:335,1,83.9999974365235,2|0,0:0|0:0,0:0:0:0:
159,162,319814,1,0,0:0:0:0:
159,162,319887,2,0,L|166:278,1,83.9999974365235,8|0,0:0|0:0,0:0:0:0:
94,345,320106,5,0,0:0:0:0:
94,345,320180,2,0,L|103:267,1,41.9999987182618,2|0,0:0|0:0,0:0:0:0:
9,183,320399,1,0,0:0:0:0:
9,183,320472,1,2,0:0:0:0:
89,46,320619,5,0,0:0:0:0:
89,46,320692,1,0,0:0:0:0:
89,46,320765,1,2,0:0:0:0:
246,120,320911,2,0,L|241:161,2,41.9999987182618,0|0|8,0:0|0:0|0:0,0:0:0:0:
143,244,321204,5,0,0:0:0:0:
143,244,321277,1,0,0:0:0:0:
143,244,321350,1,2,0:0:0:0:
16,115,321497,2,0,L|11:156,2,41.9999987182618,0|0|8,0:0|0:0|0:0,0:0:0:0:
205,37,321789,1,0,0:0:0:0:
205,37,321863,1,0,0:0:0:0:
205,37,321936,1,0,0:0:0:0:
233,212,322521,6,0,L|122:218,2,93.3333333333333,2|0|0,0:0|0:0|0:0,0:0:0:0:
335,180,323106,6,0,P|326:223|344:275,1,70,2|0,0:0|0:0,0:0:0:0:
409,283,323326,1,0,0:0:0:0:
409,283,323399,1,8,0:0:0:0:
353,80,323545,1,0,0:0:0:0:
353,80,323619,1,0,0:0:0:0:
353,80,323692,1,2,0:0:0:0:
241,178,323838,6,0,L|230:229,1,35
180,126,323984,2,0,L|172:91,2,35,8|0|0,0:0|0:0|0:0,0:0:0:0:
110,237,324277,1,2,0:0:0:0:
8,148,324424,6,0,L|0:113,1,35
84,92,324570,2,0,L|92:57,2,35,8|0|0,0:0|0:0|0:0,0:0:0:0:
36,268,324863,1,2,0:0:0:0:
159,342,325009,1,0,0:0:0:0:
159,342,325082,1,0,0:0:0:0:
159,342,325155,1,8,0:0:0:0:
262,257,325302,5,0,0:0:0:0:
262,257,325375,1,0,0:0:0:0:
262,257,325448,2,0,P|307:249|341:253,1,70,2|0,0:0|0:0,0:0:0:0:
421,283,325667,1,0,0:0:0:0:
442,294,325741,6,0,L|437:204,1,70,8|0,0:0|0:0,0:0:0:0:
407,156,325960,1,0,0:0:0:0:
407,156,326033,1,2,0:0:0:0:
491,59,326180,2,0,L|492:24,2,35,0|0|8,0:0|0:0|0:0,0:0:0:0:
334,107,326472,5,0,0:0:0:0:
334,107,326545,1,0,0:0:0:0:
334,107,326619,2,0,L|263:99,1,70,2|0,0:0|0:0,0:0:0:0:
194,42,326838,1,0,0:0:0:0:
176,38,326911,2,0,P|125:40|88:53,1,70,8|0,0:0|0:0,0:0:0:0:
43,118,327131,1,0,0:0:0:0:
36,152,327204,6,0,P|78:166|142:151,1,105,2|0,0:0|0:0,0:0:0:0:
195,200,327497,2,0,P|163:189|115:200,1,70,8|0,0:0|0:0,0:0:0:0:
74,247,327716,5,0,0:0:0:0:
74,247,327789,1,2,0:0:0:0:
178,337,327936,2,0,L|176:297,2,35,0|0|8,0:0|0:0|0:0,0:0:0:0:
317,200,328228,1,0,0:0:0:0:
317,200,328302,1,0,0:0:0:0:
317,200,328375,1,2,0:0:0:0:
335,302,328521,6,0,L|334:337,1,35
256,337,328667,2,0,L|256:372,2,35,8|0|0,0:0|0:0|0:0,0:0:0:0:
429,299,328960,6,0,L|432:229,1,70,2|0,0:0|0:0,0:0:0:0:
388,166,329180,1,0,0:0:0:0:
388,166,329253,1,8,0:0:0:0:
486,71,329399,2,0,L|480:21,2,35,0|0|2,0:0|0:0|0:0,0:0:0:0:
345,35,329692,1,0,0:0:0:0:
345,35,329765,1,0,0:0:0:0:
345,35,329838,2,0,P|303:34|272:47,1,70,8|0,0:0|0:0,0:0:0:0:
228,98,330058,5,0,0:0:0:0:
228,98,330131,1,2,0:0:0:0:
100,46,330277,2,0,L|106:-4,2,35,0|0|8,0:0|0:0|0:0,0:0:0:0:
29,151,330570,1,0,0:0:0:0:
24,165,330643,1,0,0:0:0:0:
21,180,330716,2,0,P|19:230|31:267,1,70,2|0,0:0|0:0,0:0:0:0:
85,298,330936,1,0,0:0:0:0:
85,298,331009,1,8,0:0:0:0:
250,202,331155,5,0,0:0:0:0:
250,202,331228,1,0,0:0:0:0:
250,202,331301,1,2,0:0:0:0:
219,353,331448,1,0,0:0:0:0:
219,353,331521,1,0,0:0:0:0:
219,353,331594,1,8,0:0:0:0:
387,297,331741,2,0,L|397:343,1,35
448,257,331887,5,2,0:0:0:0:
448,257,331960,2,0,P|463:223|451:165,1,70
442,122,332180,1,8,0:0:0:0:
349,33,332326,2,0,L|347:15,2,17.5
304,92,332472,6,0,L|232:85,1,70,2|0,0:0|0:0,0:0:0:0:
171,124,332692,1,0,0:0:0:0:
171,124,332765,1,8,0:0:0:0:
90,22,332911,1,0,0:0:0:0:
90,22,332984,1,0,0:0:0:0:
90,22,333058,1,2,0:0:0:0:
27,251,333350,6,0,L|23:203,2,35,8|0|0,0:0|0:0|0:0,0:0:0:0:
134,335,333643,1,2,0:0:0:0:
224,210,333789,6,0,L|227:176,1,35
304,254,333936,2,0,L|301:219,2,35,8|0|0,0:0|0:0|0:0,0:0:0:0:
212,331,334228,1,2,0:0:0:0:
41,258,334375,2,0,L|37:210,2,35,0|0|8,0:0|0:0|0:0,0:0:0:0:
94,154,334667,5,0,0:0:0:0:
94,154,334741,1,0,0:0:0:0:
94,154,334814,2,0,P|95:105|113:67,1,70,2|0,0:0|0:0,0:0:0:0:
168,51,335033,1,0,0:0:0:0:
168,51,335106,1,8,0:0:0:0:
256,180,335253,5,0,0:0:0:0:
256,180,335326,1,0,0:0:0:0:
256,180,335399,1,2,0:0:0:0:
339,32,335545,1,0,0:0:0:0:
339,32,335619,1,0,0:0:0:0:
339,32,335692,2,0,L|416:26,1,70,8|0,0:0|0:0,0:0:0:0:
398,177,335984,6,0,P|389:220|407:272,1,70,2|0,0:0|0:0,0:0:0:0:
492,199,336204,1,0,0:0:0:0:
496,178,336277,2,0,P|491:143|473:113,1,70,8|0,0:0|0:0,0:0:0:0:
388,103,336497,1,0,0:0:0:0:
388,103,336570,6,0,P|337:115|288:101,1,105,2|0,0:0|0:0,0:0:0:0:
223,137,336863,2,0,P|257:132|290:143,1,70,8|0,0:0|0:0,0:0:0:0:
322,215,337082,1,0,0:0:0:0:
322,215,337155,1,2,0:0:0:0:
230,291,337302,6,0,L|227:325,2,35,0|0|8,0:0|0:0|0:0,0:0:0:0:
121,175,337594,2,0,L|118:141,2,35,0|0|2,0:0|0:0|0:0,0:0:0:0:
86,319,337887,6,0,L|83:353,1,35
9,273,338033,2,0,L|12:307,2,35,8|0|0,0:0|0:0|0:0,0:0:0:0:
0,182,338326,5,2,0:0:0:0:
133,159,338472,1,0,0:0:0:0:
133,159,338545,1,0,0:0:0:0:
133,159,338619,1,8,0:0:0:0:
59,60,338765,5,0,0:0:0:0:
59,51,338838,1,0,0:0:0:0:
60,42,338911,2,0,L|62:9,2,17.5,2|0|0,0:0|0:0|0:0,0:0:0:0:
135,34,339058,2,0,L|131:-15,1,35
208,70,339204,2,0,L|210:35,2,35,8|0|0,0:0|0:0|0:0,0:0:0:0:
301,109,339497,6,0,L|294:56,1,52.5000020027161,2|0,0:0|0:0,0:0:0:0:
266,194,339789,5,0,0:0:0:0:
263,209,339936,1,0,0:0:0:0:
387,152,340082,6,0,L|380:99,1,52.5000020027161,2|0,0:0|0:0,0:0:0:0:
346,250,340374,5,0,0:0:0:0:
337,290,340521,1,0,0:0:0:0:
211,280,340667,5,2,0:0:0:0:
259,340,340814,1,0,0:0:0:0:
97,234,340960,5,2,0:0:0:0:
86,307,341106,1,0,0:0:0:0:
59,140,341253,5,2,0:0:0:0:
184,102,341399,1,0,0:0:0:0:
37,40,341545,1,0,0:0:0:0:
256,128,341838,5,2,0:0:0:0:
360,68,341984,2,0,L|358:35,2,26.2500010013581,0|0|8,0:0|0:0|0:0,0:0:0:0:
452,107,342277,1,0,0:0:0:0:
450,126,342350,1,0,0:0:0:0:
449,146,342423,1,2,0:0:0:0:
447,165,342496,1,0,0:0:0:0:
446,185,342569,1,0,0:0:0:0:
378,266,342716,1,8,0:0:0:0:
277,190,342863,5,0,0:0:0:0:
275,170,342936,1,0,0:0:0:0:
274,150,343009,1,2,0:0:0:0:
161,86,343155,1,0,0:0:0:0:
79,169,343302,5,8,0:0:0:0:
80,188,343375,1,0,0:0:0:0:
81,208,343448,1,0,0:0:0:0:
83,227,343521,1,0,0:0:0:0:
84,247,343594,1,8,0:0:0:0:
178,312,343741,2,0,L|176:345,2,26.2500010013581,0|0|8,0:0|0:0|0:0,0:0:0:0:
256,224,344033,5,0,0:0:0:0:
256,224,344106,1,0,0:0:0:0:
256,224,344180,1,2,0:0:0:0:
334,312,344326,2,0,L|336:345,2,26.2500010013581,0|0|8,0:0|0:0|0:0,0:0:0:0:
447,230,344619,1,0,0:0:0:0:
448,250,344692,1,0,0:0:0:0:
450,270,344765,1,2,0:0:0:0:
356,120,344911,5,0,0:0:0:0:
355,139,344984,1,0,0:0:0:0:
354,159,345057,1,8,0:0:0:0:
352,178,345130,1,0,0:0:0:0:
351,198,345203,1,0,0:0:0:0:
417,43,345350,5,2,0:0:0:0:
494,133,345497,2,0,L|492:106,2,26.2500010013581,0|0|8,0:0|0:0|0:0,0:0:0:0:
447,230,345789,1,0,0:0:0:0:
333,166,345936,5,8,0:0:0:0:
334,146,346009,1,0,0:0:0:0:
336,127,346082,1,0,0:0:0:0:
337,107,346155,1,0,0:0:0:0:
338,88,346228,1,8,0:0:0:0:
234,23,346375,5,0,0:0:0:0:
234,23,346448,1,0,0:0:0:0:
234,23,346521,1,2,0:0:0:0:
154,150,346667,2,0,L|152:177,2,26.2500010013581,0|0|8,0:0|0:0|0:0,0:0:0:0:
76,81,346960,5,0,0:0:0:0:
75,61,347033,1,0,0:0:0:0:
73,42,347106,1,2,0:0:0:0:
72,22,347179,1,0,0:0:0:0:
71,3,347252,1,0,0:0:0:0:
0,150,347399,1,8,0:0:0:0:
54,267,347545,5,0,0:0:0:0:
54,267,347619,1,0,0:0:0:0:
54,267,347692,1,2,0:0:0:0:
154,150,347838,1,0,0:0:0:0:
163,314,347984,5,8,0:0:0:0:
162,295,348057,1,0,0:0:0:0:
161,275,348130,1,0,0:0:0:0:
159,256,348203,1,0,0:0:0:0:
158,236,348276,1,8,0:0:0:0:
272,176,348424,2,0,L|274:149,2,26.2500010013581,0|0|8,0:0|0:0|0:0,0:0:0:0:
364,290,348716,5,0,0:0:0:0:
363,310,348789,1,0,0:0:0:0:
361,329,348862,1,2,0:0:0:0:
449,177,349009,1,0,0:0:0:0:
450,197,349082,1,0,0:0:0:0:
452,216,349155,1,8,0:0:0:0:
378,89,349302,2,0,L|380:62,2,26.2500010013581,0|0|2,0:0|0:0|0:0,0:0:0:0:
311,179,349594,5,0,0:0:0:0:
291,178,349667,1,0,0:0:0:0:
272,176,349740,1,8,0:0:0:0:
252,175,349813,1,0,0:0:0:0:
233,174,349886,1,8,0:0:0:0:
114,126,351204,6,0,L|106:210,1,70,2|0,0:0|0:0,0:0:0:0:
198,79,351424,2,0,L|206:163,1,70
101,36,351643,2,0,P|54:58|27:103,2,105,8|8|8,0:0|0:0|0:0,0:0:0:0:
131,133,352228,2,0,L|130:168,1,35
62,228,352375,6,0,P|109:213|148:213,1,70,2|0,0:0|0:0,0:0:0:0:
113,303,352594,2,0,P|66:318|27:318,1,70
197,274,352814,2,0,B|249:285|249:285|313:269,2,105,8|8|8,0:0|0:0|0:0,0:0:0:0:
283,349,353399,2,0,L|317:341,1,35
378,207,353545,6,0,L|374:296,1,70,2|0,0:0|0:0,0:0:0:0:
467,342,353765,2,0,L|463:272,1,70
465,181,353984,2,0,P|432:134|385:116,2,105,8|8|8,0:0|0:0|0:0,0:0:0:0:
378,207,354570,2,0,L|336:204,1,35
215,151,354716,6,0,P|260:136|302:139,1,70,2|0,0:0|0:0,0:0:0:0:
282,256,354936,2,0,P|235:246|200:222,1,70
145,135,355155,2,0,P|135:196|151:255,2,105,8|8|8,0:0|0:0|0:0,0:0:0:0:
199,61,355741,5,0,0:0:0:0:
199,61,355814,1,0,0:0:0:0:
199,61,355887,2,0,L|278:52,1,70,2|0,0:0|0:0,0:0:0:0:
394,125,356106,2,0,L|315:116,1,70
238,208,356326,2,0,B|289:197|289:197|365:206,2,105,8|8|8,0:0|0:0|0:0,0:0:0:0:
148,273,356911,5,0,0:0:0:0:
148,273,356984,1,0,0:0:0:0:
148,273,357058,2,0,L|144:189,1,70,2|0,0:0|0:0,0:0:0:0:
54,68,357277,2,0,L|50:152,1,70
64,317,357497,2,0,B|51:272|51:272|67:212,2,105,8|8|8,0:0|0:0|0:0,0:0:0:0:
148,273,358082,5,0,0:0:0:0:
148,273,358155,1,0,0:0:0:0:
148,273,358228,2,0,L|230:264,1,70,2|0,0:0|0:0,0:0:0:0:
303,198,358448,2,0,L|221:189,1,70
379,238,358667,2,0,B|392:193|392:193|376:133,2,105,8|8|8,0:0|0:0|0:0,0:0:0:0:
465,147,359253,5,0,0:0:0:0:
465,147,359326,1,0,0:0:0:0:
465,147,359399,2,0,L|482:79,1,70,2|0,0:0|0:0,0:0:0:0:
465,237,359619,2,0,L|482:304,1,70
396,192,359838,2,0,L|288:192,2,105,8|8|8,0:0|0:0|0:0,0:0:0:0:
343,283,360424,5,0,0:0:0:0:
342,303,360497,1,0,0:0:0:0:
340,322,360570,1,2,0:0:0:0:
224,223,360716,2,0,L|219:182,2,35,0|0|8,0:0|0:0|0:0,0:0:0:0:
148,311,361009,5,0,0:0:0:0:
115,321,361082,1,0,0:0:0:0:
86,304,361155,1,2,0:0:0:0:
79,270,361228,1,0,0:0:0:0:
100,243,361301,1,0,0:0:0:0:
168,147,361448,6,0,L|92:137,1,70,8|0,0:0|0:0,0:0:0:0:
46,86,361667,1,0,0:0:0:0:
46,86,361741,1,2,0:0:0:0:
100,243,361887,1,0,0:0:0:0:
253,225,362033,5,8,0:0:0:0:
279,222,362106,1,0,0:0:0:0:
305,219,362179,1,0,0:0:0:0:
331,216,362252,1,0,0:0:0:0:
357,213,362325,1,8,0:0:0:0:
440,306,362472,2,0,L|433:253,2,35,0|0|8,0:0|0:0|0:0,0:0:0:0:
466,159,362765,5,0,0:0:0:0:
466,159,362838,1,0,0:0:0:0:
466,159,362911,2,0,P|469:106|459:74,1,70,2|0,0:0|0:0,0:0:0:0:
425,33,363131,1,0,0:0:0:0:
425,33,363204,1,8,0:0:0:0:
316,151,363350,2,0,L|311:185,2,35,0|0|2,0:0|0:0|0:0,0:0:0:0:
192,38,363643,2,0,L|187:4,2,35,0|0|8,0:0|0:0|0:0,0:0:0:0:
103,168,363936,5,0,0:0:0:0:
103,168,364009,1,0,0:0:0:0:
103,168,364082,2,0,L|187:161,1,70,2|0,0:0|0:0,0:0:0:0:
239,201,364302,1,0,0:0:0:0:
239,201,364375,1,8,0:0:0:0:
169,328,364521,6,0,L|165:282,1,35
88,288,364667,2,0,L|92:242,2,35,8|0|0,0:0|0:0|0:0,0:0:0:0:
268,286,364960,5,8,0:0:0:0:
294,283,365033,1,0,0:0:0:0:
320,280,365106,1,0,0:0:0:0:
346,277,365179,1,0,0:0:0:0:
372,274,365252,1,2,0:0:0:0:
455,185,365399,2,0,L|458:219,2,35,0|0|8,0:0|0:0|0:0,0:0:0:0:
375,109,365692,5,0,0:0:0:0:
365,76,365765,1,0,0:0:0:0:
382,47,365838,1,2,0:0:0:0:
416,40,365911,1,0,0:0:0:0:
443,61,365984,1,0,0:0:0:0:
455,185,366131,1,8,0:0:0:0:
287,135,366277,5,0,0:0:0:0:
287,135,366350,1,0,0:0:0:0:
287,135,366424,1,2,0:0:0:0:
343,263,366570,1,0,0:0:0:0:
455,184,366716,6,0,L|458:150,1,35,8|0,0:0|0:0,0:0:0:0:
400,100,366863,2,0,L|397:66,2,35,0|0|8,0:0|0:0|0:0,0:0:0:0:
343,263,367155,2,0,L|340:297,2,35,0|0|8,0:0|0:0|0:0,0:0:0:0:
240,209,367448,5,0,0:0:0:0:
240,209,367521,1,0,0:0:0:0:
240,209,367594,2,0,B|149:199,1,70,2|0,0:0|0:0,0:0:0:0:
102,239,367814,1,0,0:0:0:0:
102,239,367887,1,8,0:0:0:0:
43,122,368033,2,0,L|48:87,2,35,8|0|2,0:0|0:0|0:0,0:0:0:0:
193,20,368326,5,0,0:0:0:0:
195,46,368399,1,0,0:0:0:0:
197,72,368472,1,8,0:0:0:0:
199,98,368545,1,0,0:0:0:0:
201,124,368618,1,0,0:0:0:0:
103,22,368765,5,2,0:0:0:0:
284,64,368911,2,0,L|326:59,2,35,0|0|8,0:0|0:0|0:0,0:0:0:0:
121,153,369204,1,8,0:0:0:0:
256,232,369350,1,2,0:0:0:0:
283,263,369423,1,0,0:0:0:0:
268,304,369496,1,0,0:0:0:0:
226,310,369569,1,0,0:0:0:0:
200,276,369642,1,8,0:0:0:0:
391,153,369789,5,0,0:0:0:0:
391,153,369862,1,0,0:0:0:0:
391,153,369935,1,0,0:0:0:0:
