osu file format v14

[General]
AudioFilename: audio.mp3
AudioLeadIn: 0
PreviewTime: 163731
Countdown: 0
SampleSet: Normal
StackLeniency: 0.7
Mode: 1
LetterboxInBreaks: 0
WidescreenStoryboard: 0

[Editor]
DistanceSpacing: 1.2
BeatDivisor: 6
GridSize: 8
TimelineZoom: 4.399999

[Metadata]
Title:#sawg (Wan Bushi Remix)
TitleUnicode:#sawg (Wan Bushi Remix)
Artist:odaxelagnia
ArtistUnicode:odaxelagnia
Creator:Ulqui
Version:#ura
Source:
Tags:breakcore idm swag break shakira dare taylor swift shake it off andy milonakis theme song shitmusic strong remixes
BeatmapID:1559772
BeatmapSetID:739136

[Difficulty]
HPDrainRate:5
CircleSize:4
OverallDifficulty:7
ApproachRate:7
SliderMultiplier:1.4
SliderTickRate:1

[Events]
//Background and Video events
0,0,"background.jpg",0,80
//Break Periods
//Storyboard Layer 0 (Background)
//Storyboard Layer 1 (Fail)
//Storyboard Layer 2 (Pass)
//Storyboard Layer 3 (Foreground)
//Storyboard Sound Samples

[TimingPoints]
-15,292.682926829268,4,1,0,100,1,0
8180,-100,4,1,0,100,0,0
8326,-96.1538461538461,4,1,0,100,0,0
8399,-94.3396226415094,4,1,0,100,0,0
8472,-92.5925925925926,4,1,0,100,0,0
8619,-89.2857142857143,4,1,0,100,0,0
8765,-86.2068965517241,4,1,0,100,0,0
8911,-83.3333333333333,4,1,0,100,0,0
8984,-81.9672131147541,4,1,0,100,0,0
9058,-80.6451612903226,4,1,0,100,0,0
9204,-78.125,4,1,0,100,0,0
9350,-75.7575757575758,4,1,0,100,0,0
9643,-166.666666666667,4,1,0,100,0,0
17838,-142.857142857143,4,1,0,100,0,0
18131,-125,4,1,0,100,0,0
18277,-117.647058823529,4,1,0,100,0,0
18424,-111.111111111111,4,1,0,100,0,0
18570,-105.263157894737,4,1,0,100,0,0
18716,-100,4,1,0,100,0,0
19009,-125,4,1,0,100,0,0
27350,-100,4,1,0,100,0,0
27789,-83.3333333333333,4,1,0,100,0,0
28082,-62.5,4,1,0,100,0,0
28302,-63.2911392405063,4,1,0,100,0,0
28521,-64.1025641025641,4,1,0,100,0,0
28667,-64.9350649350649,4,1,0,100,0,0
29472,-65.7894736842105,4,1,0,100,0,0
29692,-66.6666666666667,4,1,0,100,0,0
29838,-67.5675675675676,4,1,0,100,0,0
30643,-68.4931506849315,4,1,0,100,0,0
30863,-69.4444444444444,4,1,0,100,0,0
31009,-70.4225352112676,4,1,0,100,0,0
31814,-71.4285714285714,4,1,0,100,0,0
32033,-72.463768115942,4,1,0,100,0,0
32180,-73.5294117647059,4,1,0,100,0,0
32984,-74.6268656716418,4,1,0,100,0,0
33204,-75.7575757575758,4,1,0,100,0,0
33350,-76.9230769230769,4,1,0,100,0,0
34155,-78.125,4,1,0,100,0,0
34375,-79.3650793650794,4,1,0,100,0,0
34521,-80.6451612903226,4,1,0,100,0,0
35326,-81.9672131147541,4,1,0,100,0,0
35545,-83.3333333333333,4,1,0,100,0,0
35692,-84.7457627118644,4,1,0,100,0,0
36497,-86.2068965517241,4,1,0,100,0,0
36716,-87.719298245614,4,1,0,100,0,0
36863,-89.2857142857143,4,1,0,100,0,0
37448,-90.9090909090909,4,1,0,100,0,0
37741,-200,4,1,0,100,0,0
46814,-166.666666666667,4,1,0,45,0,0
47106,-162.962962962963,4,1,0,47,0,0
47399,-159.420289855072,4,1,0,49,0,0
47619,-156.028368794326,4,1,0,51,0,0
47838,-152.777777777778,4,1,0,53,0,0
47984,-149.659863945578,4,1,0,55,0,0
48277,-146.666666666667,4,1,0,57,0,0
48570,-143.790849673203,4,1,0,59,0,0
48789,-141.025641025641,4,1,0,61,0,0
49009,-138.364779874214,4,1,0,63,0,0
49155,-135.802469135802,4,1,0,65,0,0
49448,-133.333333333333,4,1,0,68,0,0
49741,-130.952380952381,4,1,0,70,0,0
49960,-128.654970760234,4,1,0,72,0,0
50180,-126.436781609195,4,1,0,74,0,0
50326,-124.293785310734,4,1,0,76,0,0
50619,-122.222222222222,4,1,0,78,0,0
50911,-120.218579234973,4,1,0,80,0,0
51058,-116.279069767442,4,1,0,80,0,0
51131,-116.279069767442,4,1,0,82,0,0
51204,-116.279069767442,4,1,0,84,0,0
51350,-111.111111111111,4,1,0,86,0,0
51424,-111.111111111111,4,1,0,88,0,0
51497,-111.111111111111,4,1,0,90,0,0
51643,-108.695652173913,4,1,0,90,0,0
51789,-106.382978723404,4,1,0,90,0,0
51936,-104.166666666667,4,1,0,90,0,0
52082,-102.040816326531,4,1,0,90,0,0
52228,-100,4,1,0,90,0,0
52375,-98.0392156862745,4,1,0,90,0,0
52521,-96.1538461538461,4,1,0,90,0,0
52667,-94.3396226415094,4,1,0,90,0,0
52814,-92.5925925925926,4,1,0,90,0,0
52960,-90.9090909090909,4,1,0,90,0,0
53106,-89.2857142857143,4,1,0,90,0,0
53253,-87.719298245614,4,1,0,90,0,0
53399,-86.2068965517241,4,1,0,90,0,0
53545,-84.7457627118644,4,1,0,90,0,0
53692,-83.3333333333333,4,1,0,90,0,0
53838,-81.9672131147541,4,1,0,90,0,0
53911,-81.3008130081301,4,1,0,90,0,0
53984,-80.6451612903226,4,1,0,90,0,0
54058,-80,4,1,0,90,0,0
54131,-79.3650793650794,4,1,0,90,0,0
54204,-78.7401574803149,4,1,0,90,0,0
54277,-78.125,4,1,0,90,0,0
54350,-77.5193798449612,4,1,0,90,0,0
54424,-76.9230769230769,4,1,0,90,0,0
54497,-76.3358778625954,4,1,0,90,0,0
54570,-75.7575757575758,4,1,0,90,0,0
54643,-75.187969924812,4,1,0,90,0,0
54716,-74.6268656716418,4,1,0,90,0,0
54789,-74.0740740740741,4,1,0,90,0,0
54863,-73.5294117647059,4,1,0,90,0,0
54936,-72.992700729927,4,1,0,90,0,0
55009,-72.463768115942,4,1,0,90,0,0
55155,-71.4285714285714,4,1,0,90,0,0
55594,-74.0740740740739,4,1,0,90,0,0
55741,-76.9230769230769,4,1,0,90,0,0
55887,-79.9999999999999,4,1,0,90,0,0
56033,-83.3333333333334,4,1,0,90,0,0
56180,-86.9565217391305,4,1,0,90,0,0
64375,-71.4285714285714,4,1,0,90,0,0
64521,-74.0740740740741,4,1,0,90,0,0
64667,-76.9230769230769,4,1,0,90,0,0
64814,-80,4,1,0,90,0,0
64960,-83.3333333333333,4,1,0,90,0,0
65106,-86.9565217391304,4,1,0,90,0,0
65253,-90.9090909090909,4,1,0,90,0,0
65545,-111.111111111111,4,1,0,90,0,0
77106,-99.9999999999999,4,1,0,90,0,0
77253,-90.9090909090908,4,1,0,90,0,0
79814,-100,4,1,0,90,0,0
80765,-90.9090909090909,4,1,0,90,0,0
81936,-66.6666666666667,4,1,0,90,0,0
82082,-71.4285714285714,4,1,0,90,0,0
82228,-76.9230769230769,4,1,0,90,0,0
82375,-83.3333333333333,4,1,0,90,0,0
82521,-90.9090909090909,4,1,0,90,0,0
82667,-100,4,1,0,90,0,0
82814,-111.111111111111,4,1,0,90,0,0
82960,-125,4,1,0,90,0,0
84277,-100,4,1,0,100,0,1
100814,-105.263157894737,4,1,0,100,0,1
100960,-111.111111111111,4,1,0,100,0,1
101106,-117.64705882353,4,1,0,100,0,1
101253,-125,4,1,0,100,0,1
101399,-133.333333333333,4,1,0,40,0,1
101838,-142.857142857143,4,1,0,100,0,0
103009,-90.909090909091,4,1,0,100,0,1
121741,-90.909090909091,4,1,0,100,0,0
126424,-50,4,1,0,100,0,0
126497,-142.857142857143,4,1,0,100,0,0
128326,-125,4,1,0,100,0,0
128472,-111.111111111111,4,1,0,100,0,0
128619,-99.9999999999999,4,1,0,100,0,0
128765,-90.9090909090909,4,1,0,100,0,0
131399,-125,4,1,0,100,0,0
133448,-66.6666666666667,4,1,0,100,0,0
133594,-125,4,1,0,100,0,0
134619,-76.9230769230769,4,1,0,100,0,0
135643,-83.3333333333333,4,1,0,100,0,0
135789,-90.9090909090909,4,1,0,100,0,0
135936,-100,4,1,0,100,0,0
145155,-90.9090909090909,4,1,0,100,0,0
149838,-86.9565217391304,4,1,0,100,0,0
149984,-83.3333333333333,4,1,0,100,0,0
152180,-80,4,1,0,100,0,0
152326,-76.9230769230769,4,1,0,100,0,0
154521,-50,4,1,0,100,0,0
154594,-125,4,1,0,100,0,0
159204,-125,4,1,0,100,0,0
159350,-117.647058823529,4,1,0,100,0,0
159497,-111.111111111111,4,1,0,100,0,0
159643,-105.263157894737,4,1,0,100,0,0
159789,-100,4,1,0,100,0,0
159936,-95.2380952380952,4,1,0,100,0,0
160082,-90.9090909090909,4,1,0,100,0,0
160228,-86.9565217391304,4,1,0,100,0,0
160375,-83.3333333333333,4,1,0,100,0,0
160521,-80,4,1,0,100,0,0
160667,-76.9230769230769,4,1,0,100,0,0
160814,-74.0740740740741,4,1,0,100,0,0
160960,-71.4285714285714,4,1,0,100,0,0
161545,-71.4285714285714,4,1,0,100,0,0
161692,-76.9230769230769,4,1,0,100,0,0
161765,-80,4,1,0,100,0,0
161838,-83.3333333333333,4,1,0,100,0,0
161984,-90.9090909090909,4,1,0,100,0,0
162131,-100,4,1,0,100,0,0
162277,-111.111111111111,4,1,0,100,0,0
162424,-125,4,1,0,100,0,0
162716,-142.857142857143,4,1,0,100,0,0
163009,-62.5,4,1,0,100,0,0
163302,-71.4285714285714,4,1,0,100,0,0
163594,-83.3333333333333,4,1,0,100,0,0
163887,-142.857142857143,4,1,0,100,0,0
170911,-71.4285714285714,4,1,0,100,0,0
171716,-68.9655172413793,4,1,0,100,0,0
171789,-66.6666666666667,4,1,0,100,0,0
171863,-64.5161290322581,4,1,0,100,0,0
171936,-62.5,4,1,0,100,0,0
172009,-60.6060606060606,4,1,0,100,0,0
172082,-58.8235294117647,4,1,0,100,0,0
172375,-100,4,1,0,100,0,0
172667,-50,4,1,0,100,0,0
172960,-60.6060606060606,4,1,0,100,0,0
173253,-76.9230769230769,4,1,0,100,0,1
191984,-83.3333333333333,4,1,0,100,0,0
196667,-83.3333333333333,4,1,0,100,0,1
206033,-90.9090909090909,4,1,0,100,0,0
210570,-89.2857142857143,4,1,0,100,0,0
210643,-87.719298245614,4,1,0,100,0,0
210716,-86.2068965517241,4,1,0,100,0,1
210863,-83.3333333333333,4,1,0,100,0,1
215399,-90.9090909090909,4,1,0,100,0,0
219936,-89.2857142857143,4,1,0,100,0,0
220009,-87.719298245614,4,1,0,100,0,0
220082,-86.2068965517241,4,1,0,100,0,1
220228,-83.3333333333333,4,1,0,100,0,1
224765,-125,4,1,0,100,0,0
229009,-111.111111111111,4,1,0,100,0,0
229155,-100,4,1,0,100,0,0
229302,-90.9090909090909,4,1,0,100,0,0
229448,-83.3333333333333,4,1,0,100,0,0
230619,-71.4285714285714,4,1,0,100,0,0
231789,-62.5,4,1,0,100,0,0
232375,-58.8235294117647,4,1,0,100,0,0
232960,-55.5555555555556,4,1,0,100,0,0
233545,-52.6315789473684,4,1,0,100,0,0
234131,-90.9090909090909,4,1,0,100,0,0
238814,-76.9230769230769,4,1,0,100,0,1
252863,-76.9230769230769,4,1,0,100,0,0
253155,-90.9090909090909,4,1,0,100,0,0
257545,-76.9230769230769,4,1,0,100,0,1
276277,-66.6666666666667,4,1,0,100,0,0
276424,-166.666666666667,4,1,0,40,0,0
285643,-166.666666666667,4,1,0,100,0,0
285936,-142.857142857143,4,1,0,100,0,0
287106,-125,4,1,0,100,0,0
288277,-111.111111111111,4,1,0,100,0,0
289448,-99.9999999999999,4,1,0,100,0,0
290619,-90.9090909090909,4,1,0,100,0,0
291789,-83.3333333333333,4,1,0,100,0,0
292667,-76.9230769230769,4,1,0,100,0,0
293838,-66.6666666666667,4,1,0,100,0,0
295009,-111.111111111111,4,1,0,100,0,0
303204,-90.9090909090908,4,1,0,100,0,0
304375,-83.3333333333333,4,1,0,100,0,1
322521,-125,4,1,0,100,0,1
322716,-111.111111111111,4,1,0,100,0,1
322911,-90.9090909090909,4,1,0,100,0,1
323106,-76.9230769230769,4,1,0,100,0,1
333058,-76.9230769230769,4,1,0,100,0,0
333350,-76.9230769230769,4,1,0,100,0,1
339497,-76.9230769230769,4,1,0,100,0,0
339789,-100,4,1,0,100,0,0
341838,-83.3333333333333,4,1,0,100,0,0
351204,-76.9230769230769,4,1,0,100,0,1
369789,-76.9230769230769,4,1,0,100,0,1
369863,-80,4,1,0,100,0,1
369936,-83.3333333333333,4,1,0,80,0,0
370814,-83.3333333333333,4,1,0,80,0,0
371984,-86.9565217391304,4,1,0,80,0,0
373155,-90.9090909090909,4,1,0,80,0,0
374326,-95.2380952380952,4,1,0,80,0,0
375497,-100,4,1,0,80,0,0
376667,-105.263157894737,4,1,0,80,0,0
377838,-111.111111111111,4,1,0,80,0,0

[Colours]
Combo1 : 255,128,255
Combo2 : 131,105,236

[HitObjects]
200,144,4667,5,0,0:0:0:0:
160,96,4814,1,0,0:0:0:0:
184,168,4960,1,8,0:0:0:0:
200,72,5033,1,8,0:0:0:0:
168,88,5106,1,0,0:0:0:0:
200,80,5180,1,0,0:0:0:0:
168,88,5253,1,8,0:0:0:0:
200,80,5545,1,0,0:0:0:0:
192,80,5619,1,0,0:0:0:0:
192,80,5692,1,8,0:0:0:0:
160,40,5838,1,0,0:0:0:0:
168,64,6131,1,8,0:0:0:0:
192,112,6277,1,0,0:0:0:0:
192,112,6424,1,8,0:0:0:0:
160,64,6570,1,8,0:0:0:0:
160,64,6716,1,0,0:0:0:0:
176,48,6789,1,8,0:0:0:0:
176,40,7009,1,0,0:0:0:0:
176,88,7155,1,8,0:0:0:0:
128,216,7302,1,0,0:0:0:0:
128,216,7375,1,0,0:0:0:0:
128,216,7448,1,0,0:0:0:0:
200,32,7521,1,0,0:0:0:0:
128,216,7594,1,8,0:0:0:0:
176,120,7887,1,0,0:0:0:0:
176,32,7960,1,0,0:0:0:0:
176,120,8033,1,8,0:0:0:0:
176,120,8180,1,0,0:0:0:0:
176,72,8326,1,8,0:0:0:0:
184,48,8399,1,8,0:0:0:0:
176,72,8472,1,0,0:0:0:0:
168,64,8619,1,0,0:0:0:0:
168,64,8765,1,8,0:0:0:0:
224,32,8911,1,0,0:0:0:0:
168,64,8984,1,0,0:0:0:0:
168,64,9058,1,8,0:0:0:0:
176,72,9204,1,8,0:0:0:0:
176,72,9350,1,4,0:0:0:0:
168,120,9643,1,8,0:0:0:0:
168,96,9789,1,8,0:0:0:0:
168,120,9936,1,0,0:0:0:0:
200,88,10228,1,8,0:0:0:0:
200,96,10521,1,0,0:0:0:0:
200,96,10814,1,8,0:0:0:0:
184,120,10960,1,8,0:0:0:0:
200,96,11106,1,0,0:0:0:0:
224,96,11253,1,0,0:0:0:0:
200,96,11399,1,8,0:0:0:0:
200,96,11692,1,4,0:0:0:0:
200,96,11984,1,8,0:0:0:0:
224,96,12131,1,8,0:0:0:0:
200,96,12277,1,0,0:0:0:0:
200,96,12570,1,8,0:0:0:0:
200,96,12863,1,0,0:0:0:0:
160,88,13155,1,8,0:0:0:0:
216,96,13302,1,8,0:0:0:0:
160,88,13448,1,0,0:0:0:0:
216,104,13594,1,0,0:0:0:0:
160,88,13741,1,8,0:0:0:0:
208,96,14033,1,4,0:0:0:0:
208,96,14326,1,8,0:0:0:0:
192,96,14472,1,8,0:0:0:0:
208,96,14619,1,0,0:0:0:0:
208,96,14911,1,8,0:0:0:0:
208,96,15204,1,0,0:0:0:0:
208,96,15497,1,8,0:0:0:0:
216,80,15643,1,8,0:0:0:0:
208,96,15789,1,0,0:0:0:0:
216,80,15936,1,0,0:0:0:0:
208,96,16082,1,8,0:0:0:0:
208,96,16375,1,4,0:0:0:0:
208,96,16667,1,8,0:0:0:0:
200,88,16814,1,8,0:0:0:0:
208,96,16960,1,0,0:0:0:0:
208,96,17253,1,0,0:0:0:0:
176,96,17399,1,8,0:0:0:0:
208,96,17545,1,0,0:0:0:0:
208,96,17838,1,8,0:0:0:0:
208,96,18131,1,4,0:0:0:0:
184,96,18277,1,0,0:0:0:0:
184,96,18424,1,8,0:0:0:0:
184,64,18570,1,8,0:0:0:0:
184,64,18716,1,4,0:0:0:0:
184,64,19009,1,8,0:0:0:0:
184,64,19302,1,0,0:0:0:0:
112,176,19594,1,8,0:0:0:0:
192,104,19741,1,8,0:0:0:0:
112,176,19887,1,0,0:0:0:0:
208,112,20180,1,8,0:0:0:0:
144,136,20472,1,0,0:0:0:0:
192,104,20619,1,0,0:0:0:0:
208,112,20765,1,8,0:0:0:0:
176,80,20911,1,8,0:0:0:0:
160,144,21058,1,4,0:0:0:0:
208,112,21350,1,8,0:0:0:0:
160,144,21643,1,0,0:0:0:0:
176,88,21789,1,0,0:0:0:0:
208,112,21936,1,8,0:0:0:0:
160,144,22228,1,0,0:0:0:0:
176,72,22375,1,0,0:0:0:0:
208,112,22521,1,8,0:0:0:0:
176,96,22667,1,8,0:0:0:0:
160,144,22814,1,0,0:0:0:0:
200,72,22960,1,0,0:0:0:0:
208,120,23106,1,8,0:0:0:0:
184,72,23253,1,8,0:0:0:0:
160,144,23399,1,4,0:0:0:0:
208,120,23692,1,8,0:0:0:0:
184,120,23838,1,8,0:0:0:0:
160,144,23984,1,0,0:0:0:0:
208,120,24277,1,8,0:0:0:0:
192,112,24424,1,8,0:0:0:0:
160,144,24570,1,0,0:0:0:0:
160,112,24716,1,0,0:0:0:0:
208,120,24863,1,8,0:0:0:0:
160,144,25155,1,0,0:0:0:0:
208,120,25448,1,8,0:0:0:0:
160,112,25594,1,8,0:0:0:0:
160,144,25741,1,4,0:0:0:0:
192,112,25887,1,0,0:0:0:0:
208,120,26033,1,8,0:0:0:0:
184,80,26180,1,8,0:0:0:0:
160,144,26326,1,0,0:0:0:0:
152,88,26472,1,8,0:0:0:0:
160,144,26619,1,0,0:0:0:0:
168,96,26765,1,0,0:0:0:0:
168,96,26911,1,8,0:0:0:0:
192,96,27350,1,8,0:0:0:0:
192,96,27789,1,8,0:0:0:0:
168,192,28082,5,4,0:0:0:0:
176,88,28302,1,8,0:0:0:0:
160,88,28521,1,8,0:0:0:0:
160,88,28667,1,0,0:0:0:0:
176,64,28741,1,8,0:0:0:0:
168,56,28887,1,8,0:0:0:0:
168,56,28960,1,0,0:0:0:0:
168,72,29106,1,8,0:0:0:0:
168,72,29253,1,0,0:0:0:0:
184,88,29472,1,8,0:0:0:0:
184,64,29692,1,8,0:0:0:0:
184,64,29838,1,0,0:0:0:0:
184,72,29911,1,0,0:0:0:0:
184,72,30058,1,8,0:0:0:0:
184,48,30131,1,0,0:0:0:0:
184,72,30277,1,8,0:0:0:0:
184,72,30424,1,0,0:0:0:0:
168,72,30643,1,8,0:0:0:0:
184,64,30863,1,0,0:0:0:0:
184,64,31009,1,8,0:0:0:0:
184,64,31082,1,8,0:0:0:0:
184,64,31228,1,0,0:0:0:0:
160,64,31302,1,8,0:0:0:0:
160,72,31448,1,0,0:0:0:0:
160,72,31594,1,8,0:0:0:0:
160,72,31814,1,0,0:0:0:0:
160,72,32033,1,8,0:0:0:0:
184,64,32180,1,0,0:0:0:0:
184,64,32253,1,8,0:0:0:0:
184,64,32399,1,8,0:0:0:0:
184,64,32472,1,0,0:0:0:0:
184,64,32619,1,8,0:0:0:0:
184,64,32765,1,0,0:0:0:0:
192,72,32984,1,0,0:0:0:0:
192,72,33204,1,8,0:0:0:0:
192,72,33350,1,0,0:0:0:0:
192,72,33424,1,0,0:0:0:0:
192,72,33497,1,8,0:0:0:0:
192,72,33570,1,0,0:0:0:0:
192,72,33643,1,8,0:0:0:0:
192,48,33789,1,8,0:0:0:0:
192,48,33936,1,0,0:0:0:0:
184,48,34155,1,0,0:0:0:0:
184,48,34375,1,8,0:0:0:0:
168,64,34521,1,0,0:0:0:0:
168,64,34594,1,0,0:0:0:0:
200,64,34667,1,8,0:0:0:0:
168,64,34741,1,8,0:0:0:0:
168,64,34814,1,0,0:0:0:0:
200,64,34960,1,8,0:0:0:0:
200,64,35106,1,0,0:0:0:0:
192,64,35326,1,0,0:0:0:0:
192,64,35545,1,8,0:0:0:0:
192,64,35692,1,0,0:0:0:0:
192,64,35765,1,8,0:0:0:0:
192,64,35838,1,0,0:0:0:0:
192,64,35911,1,0,0:0:0:0:
168,40,35984,1,8,0:0:0:0:
192,64,36131,1,8,0:0:0:0:
208,104,36277,5,0,0:0:0:0:
208,104,36497,1,0,0:0:0:0:
208,104,36716,1,8,0:0:0:0:
208,104,36863,1,0,0:0:0:0:
208,104,36936,1,0,0:0:0:0:
208,104,37009,1,8,0:0:0:0:
208,104,37082,1,8,0:0:0:0:
208,104,37155,1,0,0:0:0:0:
176,96,37302,1,8,0:0:0:0:
176,104,37448,1,4,0:0:0:0:
176,200,38619,1,0,0:0:0:0:
176,192,39789,1,8,0:0:0:0:
176,192,40960,1,0,0:0:0:0:
256,192,41253,12,0,41838,0:0:0:0:
176,192,42131,5,0,0:0:0:0:
184,136,43302,1,0,0:0:0:0:
176,136,44472,1,8,0:0:0:0:
176,136,45643,1,0,0:0:0:0:
256,192,45936,12,0,46521,0:0:0:0:
192,152,46814,5,0,0:0:0:0:
192,144,47106,1,8,0:0:0:0:
186,112,47399,1,8,0:0:0:0:
186,86,47619,1,8,0:0:0:0:
192,144,47838,1,8,0:0:0:0:
192,144,47984,1,0,0:0:0:0:
192,144,48277,1,8,0:0:0:0:
217,51,48570,1,8,0:0:0:0:
180,87,48789,1,8,0:0:0:0:
192,144,49009,1,8,0:0:0:0:
192,144,49155,1,0,0:0:0:0:
192,144,49448,1,8,0:0:0:0:
200,51,49741,1,8,0:0:0:0:
166,116,49960,1,8,0:0:0:0:
192,160,50180,1,0,0:0:0:0:
192,160,50326,1,8,0:0:0:0:
200,168,50619,1,8,0:0:0:0:
200,160,50911,1,8,0:0:0:0:
216,64,51058,1,0,0:0:0:0:
200,160,51131,1,8,0:0:0:0:
184,136,51204,1,0,0:0:0:0:
184,144,51350,1,0,0:0:0:0:
184,144,51424,1,0,0:0:0:0:
184,144,51497,1,8,0:0:0:0:
184,144,51643,1,0,0:0:0:0:
184,144,51789,1,8,0:0:0:0:
176,136,51936,1,0,0:0:0:0:
176,136,52082,1,8,0:0:0:0:
176,136,52228,1,0,0:0:0:0:
176,136,52375,1,8,0:0:0:0:
176,136,52521,1,0,0:0:0:0:
176,136,52667,1,8,0:0:0:0:
176,136,52814,1,0,0:0:0:0:
176,136,52960,1,8,0:0:0:0:
176,136,53106,1,0,0:0:0:0:
176,136,53253,1,8,0:0:0:0:
168,144,53399,1,0,0:0:0:0:
168,144,53545,1,8,0:0:0:0:
168,144,53692,1,0,0:0:0:0:
168,144,53838,1,8,0:0:0:0:
168,152,53911,1,0,0:0:0:0:
168,160,53984,1,8,0:0:0:0:
168,144,54058,1,0,0:0:0:0:
168,144,54131,1,8,0:0:0:0:
168,152,54204,1,0,0:0:0:0:
168,144,54277,1,8,0:0:0:0:
168,152,54350,1,0,0:0:0:0:
168,160,54424,1,8,0:0:0:0:
168,160,54497,1,0,0:0:0:0:
168,160,54570,1,8,0:0:0:0:
168,160,54643,1,0,0:0:0:0:
168,144,54716,1,8,0:0:0:0:
168,160,54789,1,0,0:0:0:0:
168,144,54863,1,8,0:0:0:0:
168,144,54936,1,0,0:0:0:0:
168,160,55009,1,8,0:0:0:0:
168,160,55155,1,8,0:0:0:0:
184,152,55228,1,8,0:0:0:0:
168,160,55302,1,8,0:0:0:0:
168,112,55448,5,8,0:0:0:0:
168,120,55594,1,8,0:0:0:0:
168,120,55741,1,8,0:0:0:0:
168,128,55887,1,8,0:0:0:0:
168,128,56033,1,8,0:0:0:0:
176,144,56180,1,0,0:0:0:0:
192,96,56472,1,8,0:0:0:0:
192,64,56619,1,0,0:0:0:0:
176,72,56911,1,8,0:0:0:0:
192,96,57058,1,8,0:0:0:0:
192,64,57204,1,0,0:0:0:0:
192,64,57350,1,0,0:0:0:0:
192,120,57643,1,8,0:0:0:0:
192,64,57789,1,0,0:0:0:0:
192,120,58082,1,8,0:0:0:0:
184,64,58228,1,0,0:0:0:0:
192,112,58375,1,8,0:0:0:0:
184,64,58521,1,0,0:0:0:0:
208,112,58814,1,8,0:0:0:0:
184,64,58960,1,0,0:0:0:0:
208,112,59253,1,8,0:0:0:0:
208,112,59399,1,8,0:0:0:0:
184,64,59545,1,0,0:0:0:0:
184,64,59692,1,0,0:0:0:0:
208,112,59984,1,8,0:0:0:0:
176,128,60131,1,0,0:0:0:0:
208,112,60424,1,8,0:0:0:0:
208,112,60570,1,8,0:0:0:0:
208,112,60716,1,8,0:0:0:0:
176,128,60863,1,0,0:0:0:0:
192,128,61155,1,8,0:0:0:0:
176,128,61302,1,0,0:0:0:0:
192,128,61594,1,8,0:0:0:0:
192,128,61741,1,8,0:0:0:0:
176,128,61887,1,0,0:0:0:0:
176,128,62033,1,0,0:0:0:0:
192,128,62326,1,8,0:0:0:0:
176,136,62472,1,0,0:0:0:0:
192,128,62765,1,8,0:0:0:0:
176,136,62911,1,0,0:0:0:0:
168,120,63058,1,8,0:0:0:0:
176,136,63204,1,0,0:0:0:0:
152,128,63497,1,8,0:0:0:0:
184,144,63643,1,0,0:0:0:0:
152,128,63936,1,8,0:0:0:0:
152,128,64082,1,0,0:0:0:0:
184,144,64228,1,0,0:0:0:0:
184,144,64375,1,8,0:0:0:0:
192,112,64521,1,8,0:0:0:0:
192,112,64667,1,8,0:0:0:0:
192,112,64814,1,8,0:0:0:0:
192,112,64960,1,8,0:0:0:0:
192,112,65106,1,0,0:0:0:0:
192,112,65253,1,8,0:0:0:0:
184,128,65545,1,0,0:0:0:0:
184,144,65838,1,0,0:0:0:0:
184,144,65984,1,0,0:0:0:0:
176,128,66131,1,8,0:0:0:0:
192,112,66424,1,0,0:0:0:0:
192,120,66570,1,0,0:0:0:0:
192,120,66716,1,0,0:0:0:0:
160,112,66863,1,8,0:0:0:0:
160,112,67009,1,0,0:0:0:0:
160,112,67155,1,0,0:0:0:0:
160,112,67302,1,12,0:0:0:0:
160,144,67594,1,0,0:0:0:0:
160,144,67741,1,8,0:0:0:0:
160,144,67887,1,0,0:0:0:0:
160,160,68180,1,8,0:0:0:0:
160,160,68326,1,0,0:0:0:0:
160,160,68472,1,8,0:0:0:0:
136,120,68765,1,0,0:0:0:0:
136,120,68911,1,8,0:0:0:0:
136,120,69058,1,0,0:0:0:0:
136,120,69204,1,8,0:0:0:0:
136,120,69350,1,0,0:0:0:0:
136,120,69497,1,0,0:0:0:0:
136,120,69643,1,8,0:0:0:0:
144,120,69936,1,0,0:0:0:0:
144,120,70082,1,0,0:0:0:0:
144,120,70228,1,0,0:0:0:0:
136,112,70521,1,0,0:0:0:0:
136,112,70667,1,0,0:0:0:0:
136,112,70814,1,8,0:0:0:0:
144,112,71106,1,0,0:0:0:0:
144,112,71253,1,0,0:0:0:0:
144,112,71399,1,0,0:0:0:0:
144,112,71545,1,8,0:0:0:0:
144,112,71692,1,0,0:0:0:0:
144,112,71838,1,0,0:0:0:0:
144,112,71984,1,12,0:0:0:0:
200,104,72277,1,0,0:0:0:0:
200,104,72424,1,8,0:0:0:0:
200,104,72570,1,0,0:0:0:0:
160,128,72863,1,8,0:0:0:0:
160,128,73009,1,0,0:0:0:0:
160,128,73155,1,8,0:0:0:0:
216,128,73448,1,0,0:0:0:0:
216,128,73594,1,0,0:0:0:0:
216,128,73741,1,0,0:0:0:0:
216,128,73887,1,8,0:0:0:0:
216,128,74033,1,0,0:0:0:0:
216,128,74180,1,0,0:0:0:0:
216,128,74326,1,8,0:0:0:0:
200,72,74619,1,0,0:0:0:0:
200,72,74765,1,0,0:0:0:0:
200,72,74911,1,4,0:0:0:0:
168,48,75204,1,0,0:0:0:0:
168,128,75350,1,0,0:0:0:0:
168,128,75497,1,8,0:0:0:0:
152,112,75789,1,8,0:0:0:0:
160,112,75936,1,0,0:0:0:0:
160,112,76082,1,0,0:0:0:0:
160,112,76228,1,8,0:0:0:0:
160,112,76375,1,0,0:0:0:0:
160,112,76521,1,0,0:0:0:0:
160,112,76667,1,12,0:0:0:0:
192,80,76960,1,0,0:0:0:0:
192,80,77106,1,0,0:0:0:0:
192,80,77253,1,8,0:0:0:0:
240,80,77326,1,8,0:0:0:0:
176,80,77399,1,0,0:0:0:0:
240,80,77448,1,0,0:0:0:0:
176,80,77497,1,0,0:0:0:0:
176,80,77545,1,8,0:0:0:0:
232,120,77692,1,0,0:0:0:0:
248,120,77765,1,0,0:0:0:0:
232,120,77838,1,8,0:0:0:0:
264,80,77887,1,0,0:0:0:0:
192,24,77936,1,0,0:0:0:0:
160,80,77984,1,8,0:0:0:0:
232,120,78131,1,0,0:0:0:0:
176,40,78204,1,8,0:0:0:0:
160,80,78277,1,0,0:0:0:0:
200,80,78424,1,0,0:0:0:0:
200,80,78570,1,8,0:0:0:0:
256,96,78619,1,8,0:0:0:0:
256,96,78667,1,8,0:0:0:0:
168,72,78716,1,0,0:0:0:0:
288,120,78863,1,0,0:0:0:0:
208,112,79009,1,8,0:0:0:0:
200,112,79058,1,0,0:0:0:0:
200,104,79106,1,0,0:0:0:0:
208,112,79155,1,8,0:0:0:0:
248,144,79302,1,0,0:0:0:0:
248,136,79375,1,0,0:0:0:0:
248,144,79448,1,8,0:0:0:0:
138,166,79497,1,8,0:0:0:0:
138,166,79545,1,8,0:0:0:0:
248,144,79594,1,0,0:0:0:0:
168,72,79814,1,8,0:0:0:0:
176,112,79887,1,0,0:0:0:0:
176,88,80033,1,8,0:0:0:0:
176,112,80180,1,0,0:0:0:0:
184,104,80472,1,0,0:0:0:0:
176,112,80765,1,0,0:0:0:0:
176,144,80911,1,8,0:0:0:0:
176,144,81058,1,0,0:0:0:0:
176,144,81204,1,0,0:0:0:0:
176,144,81350,1,8,0:0:0:0:
152,96,81497,1,8,0:0:0:0:
160,96,81643,1,0,0:0:0:0:
160,96,81789,1,8,0:0:0:0:
160,96,81936,1,0,0:0:0:0:
160,64,82082,1,0,0:0:0:0:
160,64,82228,1,0,0:0:0:0:
160,64,82375,1,0,0:0:0:0:
160,64,82521,1,8,0:0:0:0:
160,64,82667,1,0,0:0:0:0:
160,64,82814,1,0,0:0:0:0:
160,64,82960,1,0,0:0:0:0:
112,200,84277,5,4,0:0:0:0:
200,128,84424,1,0,0:0:0:0:
200,128,84570,1,8,0:0:0:0:
200,112,84716,1,0,0:0:0:0:
200,112,84863,1,0,0:0:0:0:
160,64,84936,1,0,0:0:0:0:
160,64,85009,1,8,0:0:0:0:
176,80,85155,1,0,0:0:0:0:
176,80,85228,1,0,0:0:0:0:
176,80,85302,1,8,0:0:0:0:
176,80,85375,1,8,0:0:0:0:
176,80,85448,1,0,0:0:0:0:
192,40,85594,1,0,0:0:0:0:
168,24,85667,1,0,0:0:0:0:
176,64,85741,1,8,0:0:0:0:
192,72,85887,1,0,0:0:0:0:
192,72,86033,1,0,0:0:0:0:
192,72,86180,1,8,0:0:0:0:
176,40,86326,1,0,0:0:0:0:
168,48,86399,1,0,0:0:0:0:
176,40,86472,1,8,0:0:0:0:
168,48,86545,1,8,0:0:0:0:
176,40,86619,1,0,0:0:0:0:
176,32,86765,1,0,0:0:0:0:
192,48,86838,1,0,0:0:0:0:
176,32,86911,1,8,0:0:0:0:
168,72,87058,1,0,0:0:0:0:
168,72,87204,1,8,0:0:0:0:
168,72,87277,1,0,0:0:0:0:
168,72,87350,1,8,0:0:0:0:
168,72,87497,1,0,0:0:0:0:
176,40,87643,1,8,0:0:0:0:
176,40,87716,1,8,0:0:0:0:
176,40,87789,1,0,0:0:0:0:
160,48,87936,1,8,0:0:0:0:
160,56,88009,1,0,0:0:0:0:
160,48,88082,1,8,0:0:0:0:
160,56,88228,1,0,0:0:0:0:
168,40,88302,1,0,0:0:0:0:
168,40,88375,1,0,0:0:0:0:
144,72,88521,1,8,0:0:0:0:
160,80,88960,1,4,0:0:0:0:
152,112,89106,1,8,0:0:0:0:
192,104,89155,1,0,0:0:0:0:
192,104,89204,1,0,0:0:0:0:
152,112,89253,1,8,0:0:0:0:
192,56,89399,1,0,0:0:0:0:
192,56,89545,1,0,0:0:0:0:
176,48,89619,1,0,0:0:0:0:
176,48,89692,1,8,0:0:0:0:
168,48,89838,1,0,0:0:0:0:
168,48,89911,1,8,0:0:0:0:
168,48,89984,1,0,0:0:0:0:
168,48,90131,1,0,0:0:0:0:
176,32,90277,1,0,0:0:0:0:
176,32,90350,1,0,0:0:0:0:
160,24,90424,1,8,0:0:0:0:
160,80,90570,1,0,0:0:0:0:
160,88,90643,1,8,0:0:0:0:
160,80,90716,1,0,0:0:0:0:
160,72,90789,1,0,0:0:0:0:
160,80,90863,1,8,0:0:0:0:
168,24,91009,1,0,0:0:0:0:
200,48,91082,1,8,0:0:0:0:
200,48,91155,1,0,0:0:0:0:
200,48,91302,1,0,0:0:0:0:
184,80,91448,1,8,0:0:0:0:
184,80,91594,1,0,0:0:0:0:
200,64,91741,1,8,0:0:0:0:
200,64,91887,1,8,0:0:0:0:
208,96,91936,1,0,0:0:0:0:
208,96,91984,1,0,0:0:0:0:
208,96,92033,1,8,0:0:0:0:
208,80,92180,1,0,0:0:0:0:
208,80,92326,1,8,0:0:0:0:
208,80,92399,1,8,0:0:0:0:
176,56,92472,1,0,0:0:0:0:
168,72,92619,1,8,0:0:0:0:
248,104,92667,1,0,0:0:0:0:
248,104,92716,1,0,0:0:0:0:
168,72,92765,1,8,0:0:0:0:
200,88,92911,1,0,0:0:0:0:
200,88,92984,1,0,0:0:0:0:
176,80,93058,1,8,0:0:0:0:
144,80,93106,1,0,0:0:0:0:
144,80,93155,1,0,0:0:0:0:
192,88,93204,1,8,0:0:0:0:
184,120,93277,1,8,0:0:0:0:
184,120,93350,1,0,0:0:0:0:
160,32,93497,1,0,0:0:0:0:
184,120,93570,1,8,0:0:0:0:
160,32,93643,1,0,0:0:0:0:
144,72,93936,1,8,0:0:0:0:
144,72,94082,1,0,0:0:0:0:
184,192,94228,1,0,0:0:0:0:
184,176,94302,1,0,0:0:0:0:
184,192,94375,1,8,0:0:0:0:
176,88,94521,1,0,0:0:0:0:
176,88,94594,1,0,0:0:0:0:
176,88,94667,1,8,0:0:0:0:
176,88,94741,1,8,0:0:0:0:
176,88,94814,1,0,0:0:0:0:
176,48,94960,1,0,0:0:0:0:
176,48,95033,1,0,0:0:0:0:
176,48,95106,1,8,0:0:0:0:
200,56,95253,1,0,0:0:0:0:
200,56,95399,1,0,0:0:0:0:
200,56,95545,1,8,0:0:0:0:
152,80,95692,1,0,0:0:0:0:
152,80,95765,1,0,0:0:0:0:
152,80,95838,1,8,0:0:0:0:
152,80,95911,1,8,0:0:0:0:
152,80,95984,1,0,0:0:0:0:
176,48,96131,1,0,0:0:0:0:
176,48,96204,1,0,0:0:0:0:
176,48,96277,1,8,0:0:0:0:
176,40,96424,1,0,0:0:0:0:
176,40,96570,1,0,0:0:0:0:
168,32,96643,1,0,0:0:0:0:
176,40,96716,1,8,0:0:0:0:
184,8,96863,1,0,0:0:0:0:
176,16,96936,1,8,0:0:0:0:
184,8,97009,1,0,0:0:0:0:
176,16,97082,1,0,0:0:0:0:
184,16,97155,1,8,0:0:0:0:
160,48,97302,1,8,0:0:0:0:
152,48,97375,1,0,0:0:0:0:
160,48,97448,1,8,0:0:0:0:
160,48,97594,1,0,0:0:0:0:
160,48,97741,1,8,0:0:0:0:
168,24,97814,1,0,0:0:0:0:
168,24,97887,1,8,0:0:0:0:
160,48,98033,1,0,0:0:0:0:
160,48,98106,1,0,0:0:0:0:
192,32,98180,1,8,0:0:0:0:
184,48,98253,1,8,0:0:0:0:
184,48,98326,1,0,0:0:0:0:
176,128,98472,1,8,0:0:0:0:
272,96,98521,1,0,0:0:0:0:
272,96,98570,1,0,0:0:0:0:
176,128,98619,1,8,0:0:0:0:
184,96,98765,1,0,0:0:0:0:
184,96,98911,1,0,0:0:0:0:
168,48,98984,1,0,0:0:0:0:
168,56,99058,1,8,0:0:0:0:
168,56,99204,1,0,0:0:0:0:
176,80,99277,1,8,0:0:0:0:
176,88,99350,1,0,0:0:0:0:
176,88,99497,1,0,0:0:0:0:
176,80,99643,1,0,0:0:0:0:
160,40,99716,1,0,0:0:0:0:
176,80,99789,1,8,0:0:0:0:
168,32,99936,1,0,0:0:0:0:
168,40,100009,1,0,0:0:0:0:
168,40,100082,1,0,0:0:0:0:
160,32,100155,1,0,0:0:0:0:
168,32,100228,1,8,0:0:0:0:
168,32,100375,1,0,0:0:0:0:
176,32,100521,1,8,0:0:0:0:
176,32,100594,1,8,0:0:0:0:
176,32,100667,1,0,0:0:0:0:
160,56,100814,1,8,0:0:0:0:
160,56,100960,1,0,0:0:0:0:
160,56,101106,1,0,0:0:0:0:
152,48,101253,1,0,0:0:0:0:
200,56,101399,1,0,0:0:0:0:
224,96,101448,1,0,0:0:0:0:
224,96,101497,1,0,0:0:0:0:
184,80,101545,1,8,0:0:0:0:
256,192,101838,12,0,102716,0:0:0:0:
198,158,103009,5,0,0:0:0:0:
198,158,103155,1,8,0:0:0:0:
304,91,103204,1,0,0:0:0:0:
304,91,103253,1,0,0:0:0:0:
304,91,103302,1,8,0:0:0:0:
189,110,103448,1,0,0:0:0:0:
189,110,103594,1,0,0:0:0:0:
199,44,103667,1,0,0:0:0:0:
199,44,103741,1,8,0:0:0:0:
195,62,103887,1,0,0:0:0:0:
193,72,103960,1,0,0:0:0:0:
195,62,104033,1,8,0:0:0:0:
194,72,104106,1,8,0:0:0:0:
195,62,104180,1,0,0:0:0:0:
191,80,104326,1,8,0:0:0:0:
346,76,104375,1,8,0:0:0:0:
289,58,104424,1,8,0:0:0:0:
191,80,104472,1,0,0:0:0:0:
181,85,104619,1,0,0:0:0:0:
172,55,104692,1,0,0:0:0:0:
181,85,104765,1,8,0:0:0:0:
195,62,104814,1,0,0:0:0:0:
195,62,104863,1,0,0:0:0:0:
195,62,104911,1,8,0:0:0:0:
161,82,105058,1,0,0:0:0:0:
181,114,105131,1,0,0:0:0:0:
181,114,105204,1,8,0:0:0:0:
181,114,105277,1,8,0:0:0:0:
181,114,105350,1,0,0:0:0:0:
207,36,105497,1,0,0:0:0:0:
186,60,105570,1,0,0:0:0:0:
166,75,105643,1,8,0:0:0:0:
193,102,105789,1,0,0:0:0:0:
193,102,105863,1,8,0:0:0:0:
193,102,105936,1,0,0:0:0:0:
265,105,105984,1,0,0:0:0:0:
249,95,106033,1,0,0:0:0:0:
265,105,106082,1,8,0:0:0:0:
191,101,106228,1,0,0:0:0:0:
191,104,106302,1,8,0:0:0:0:
191,101,106375,1,0,0:0:0:0:
191,104,106448,1,0,0:0:0:0:
193,102,106521,1,0,0:0:0:0:
191,76,106667,1,0,0:0:0:0:
190,75,106741,1,0,0:0:0:0:
191,76,106814,1,8,0:0:0:0:
180,90,106960,1,0,0:0:0:0:
180,90,107033,1,0,0:0:0:0:
180,90,107106,1,0,0:0:0:0:
180,92,107180,1,0,0:0:0:0:
180,92,107253,1,8,0:0:0:0:
191,101,107399,1,0,0:0:0:0:
193,102,107545,1,8,0:0:0:0:
188,101,107619,1,8,0:0:0:0:
188,101,107692,1,0,0:0:0:0:
153,170,107838,1,8,0:0:0:0:
201,151,107887,1,0,0:0:0:0:
201,151,107936,1,0,0:0:0:0:
153,50,107984,1,8,0:0:0:0:
151,99,108131,1,0,0:0:0:0:
231,85,108204,1,0,0:0:0:0:
151,99,108277,1,0,0:0:0:0:
154,113,108350,1,0,0:0:0:0:
151,99,108424,1,8,0:0:0:0:
177,100,108570,1,0,0:0:0:0:
176,100,108643,1,8,0:0:0:0:
177,100,108716,1,0,0:0:0:0:
177,100,108863,1,0,0:0:0:0:
166,76,109009,1,8,0:0:0:0:
179,83,109058,1,0,0:0:0:0:
180,84,109106,1,0,0:0:0:0:
166,77,109155,1,8,0:0:0:0:
176,102,109302,1,0,0:0:0:0:
212,87,109375,1,0,0:0:0:0:
176,102,109448,1,8,0:0:0:0:
179,83,109497,1,0,0:0:0:0:
179,83,109545,1,0,0:0:0:0:
195,52,109594,1,8,0:0:0:0:
178,87,109741,1,0,0:0:0:0:
181,136,109814,1,0,0:0:0:0:
181,136,109887,1,8,0:0:0:0:
134,92,110033,1,0,0:0:0:0:
142,104,110180,1,0,0:0:0:0:
231,75,110228,1,0,0:0:0:0:
231,75,110277,1,0,0:0:0:0:
142,104,110326,1,8,0:0:0:0:
146,120,110472,1,0,0:0:0:0:
211,87,110545,1,0,0:0:0:0:
146,120,110619,1,0,0:0:0:0:
229,80,110667,1,0,0:0:0:0:
229,80,110716,1,0,0:0:0:0:
146,120,110765,1,8,0:0:0:0:
146,88,110911,1,0,0:0:0:0:
146,89,110984,1,8,0:0:0:0:
146,89,111058,1,0,0:0:0:0:
146,89,111204,1,0,0:0:0:0:
186,90,111350,1,0,0:0:0:0:
174,91,111424,1,0,0:0:0:0:
186,90,111497,1,8,0:0:0:0:
166,110,111643,1,0,0:0:0:0:
166,112,111716,1,0,0:0:0:0:
172,103,111789,1,0,0:0:0:0:
189,32,111863,1,0,0:0:0:0:
166,112,111936,1,8,0:0:0:0:
164,106,112082,1,0,0:0:0:0:
164,106,112228,1,8,0:0:0:0:
166,82,112302,1,8,0:0:0:0:
164,106,112375,1,0,0:0:0:0:
186,117,112521,1,8,0:0:0:0:
208,99,112570,1,0,0:0:0:0:
208,99,112619,1,0,0:0:0:0:
208,99,112667,1,8,0:0:0:0:
191,140,112814,1,0,0:0:0:0:
189,141,112960,1,0,0:0:0:0:
179,103,113033,1,0,0:0:0:0:
189,141,113106,1,8,0:0:0:0:
178,110,113253,1,0,0:0:0:0:
169,75,113326,1,8,0:0:0:0:
178,110,113399,1,0,0:0:0:0:
178,110,113472,1,0,0:0:0:0:
178,110,113545,1,0,0:0:0:0:
190,178,113692,1,8,0:0:0:0:
172,80,113741,1,0,0:0:0:0:
172,80,113789,1,0,0:0:0:0:
190,178,113838,1,8,0:0:0:0:
166,133,113984,1,0,0:0:0:0:
214,91,114058,1,0,0:0:0:0:
166,133,114131,1,8,0:0:0:0:
172,80,114180,1,0,0:0:0:0:
172,80,114228,1,0,0:0:0:0:
166,133,114277,1,8,0:0:0:0:
144,125,114424,1,0,0:0:0:0:
144,125,114497,1,0,0:0:0:0:
144,125,114570,1,0,0:0:0:0:
144,125,114643,1,0,0:0:0:0:
144,125,114716,1,8,0:0:0:0:
169,82,114863,1,0,0:0:0:0:
169,82,114936,1,0,0:0:0:0:
169,82,115009,1,8,0:0:0:0:
169,82,115155,1,0,0:0:0:0:
169,82,115228,1,0,0:0:0:0:
169,82,115302,1,8,0:0:0:0:
186,102,115350,1,0,0:0:0:0:
186,102,115399,1,0,0:0:0:0:
169,82,115448,1,8,0:0:0:0:
211,37,115594,1,0,0:0:0:0:
216,10,115667,1,0,0:0:0:0:
185,80,115741,1,0,0:0:0:0:
185,80,115814,1,0,0:0:0:0:
185,80,115887,1,8,0:0:0:0:
191,102,116033,1,0,0:0:0:0:
191,102,116106,1,0,0:0:0:0:
191,102,116180,1,8,0:0:0:0:
172,87,116326,1,0,0:0:0:0:
172,87,116399,1,0,0:0:0:0:
172,87,116472,1,0,0:0:0:0:
172,87,116619,1,8,0:0:0:0:
191,91,116765,1,0,0:0:0:0:
191,91,116838,1,0,0:0:0:0:
191,91,116911,1,8,0:0:0:0:
191,91,116984,1,8,0:0:0:0:
191,91,117058,1,0,0:0:0:0:
209,116,117204,1,8,0:0:0:0:
229,73,117253,1,0,0:0:0:0:
229,73,117302,1,0,0:0:0:0:
209,116,117350,1,8,0:0:0:0:
164,67,117497,1,0,0:0:0:0:
182,80,117570,1,0,0:0:0:0:
191,96,117643,1,8,0:0:0:0:
229,73,117692,1,0,0:0:0:0:
229,73,117741,1,0,0:0:0:0:
164,67,117789,1,8,0:0:0:0:
166,107,117936,1,0,0:0:0:0:
166,107,118009,1,0,0:0:0:0:
166,107,118082,1,0,0:0:0:0:
166,107,118155,1,0,0:0:0:0:
166,107,118228,1,8,0:0:0:0:
170,97,118375,1,8,0:0:0:0:
223,77,118424,1,8,0:0:0:0:
223,77,118472,1,8,0:0:0:0:
170,97,118521,1,0,0:0:0:0:
156,82,118667,1,0,0:0:0:0:
182,80,118741,1,0,0:0:0:0:
156,82,118814,1,8,0:0:0:0:
223,77,118863,1,0,0:0:0:0:
223,77,118911,1,0,0:0:0:0:
170,82,118960,1,8,0:0:0:0:
169,85,119106,1,0,0:0:0:0:
179,81,119180,1,0,0:0:0:0:
176,47,119253,1,8,0:0:0:0:
161,76,119399,1,0,0:0:0:0:
171,77,119545,1,0,0:0:0:0:
223,77,119594,1,0,0:0:0:0:
223,77,119643,1,0,0:0:0:0:
171,77,119692,1,8,0:0:0:0:
165,107,119838,1,0,0:0:0:0:
182,80,119911,1,0,0:0:0:0:
166,110,119984,1,8,0:0:0:0:
223,77,120033,1,0,0:0:0:0:
223,77,120082,1,0,0:0:0:0:
181,68,120131,1,8,0:0:0:0:
204,92,120277,1,0,0:0:0:0:
216,62,120350,1,8,0:0:0:0:
197,94,120424,1,0,0:0:0:0:
189,103,120497,1,0,0:0:0:0:
199,94,120570,1,8,0:0:0:0:
223,77,120619,1,0,0:0:0:0:
166,70,120667,1,0,0:0:0:0:
189,27,120716,1,8,0:0:0:0:
189,27,120789,1,0,0:0:0:0:
177,55,120863,1,0,0:0:0:0:
174,90,120936,1,0,0:0:0:0:
174,90,121009,1,8,0:0:0:0:
166,70,121058,1,0,0:0:0:0:
166,70,121106,1,0,0:0:0:0:
174,90,121155,1,0,0:0:0:0:
163,120,121228,1,0,0:0:0:0:
174,59,121302,1,8,0:0:0:0:
228,44,121375,1,0,0:0:0:0:
174,59,121448,1,8,0:0:0:0:
159,80,121594,1,0,0:0:0:0:
159,80,121741,1,8,0:0:0:0:
185,148,122033,1,8,0:0:0:0:
185,148,122326,1,8,0:0:0:0:
185,148,122765,1,8,0:0:0:0:
185,148,123204,1,8,0:0:0:0:
185,148,123497,1,8,0:0:0:0:
176,155,123936,1,8,0:0:0:0:
175,164,124375,1,8,0:0:0:0:
175,164,124667,1,8,0:0:0:0:
175,170,125106,1,8,0:0:0:0:
175,170,125545,5,8,0:0:0:0:
175,170,125838,1,8,0:0:0:0:
191,153,126277,1,8,0:0:0:0:
200,152,126424,5,4,0:0:0:0:
232,168,126716,1,0,0:0:0:0:
192,96,126863,1,8,0:0:0:0:
192,96,127155,1,8,0:0:0:0:
192,96,127302,1,8,0:0:0:0:
192,96,127448,1,0,0:0:0:0:
224,168,127887,1,0,0:0:0:0:
192,48,128033,1,8,0:0:0:0:
192,56,128326,1,8,0:0:0:0:
192,56,128472,1,8,0:0:0:0:
168,80,128619,1,0,0:0:0:0:
192,104,128765,1,4,0:0:0:0:
224,80,128911,1,8,0:0:0:0:
224,80,129058,1,8,0:0:0:0:
224,80,129131,1,0,0:0:0:0:
224,80,129204,1,8,0:0:0:0:
224,80,129277,1,8,0:0:0:0:
224,80,129350,1,0,0:0:0:0:
224,80,129497,1,8,0:0:0:0:
224,88,129545,1,8,0:0:0:0:
224,88,129594,1,8,0:0:0:0:
224,80,129643,1,0,0:0:0:0:
184,64,129716,1,0,0:0:0:0:
176,96,129789,1,8,0:0:0:0:
184,64,129936,1,0,0:0:0:0:
176,96,130082,1,8,0:0:0:0:
176,96,130155,1,0,0:0:0:0:
176,96,130228,1,8,0:0:0:0:
176,96,130375,1,0,0:0:0:0:
176,16,130448,1,0,0:0:0:0:
176,96,130521,1,8,0:0:0:0:
176,80,130594,1,0,0:0:0:0:
176,80,130667,1,8,0:0:0:0:
208,104,130814,1,0,0:0:0:0:
208,104,130960,1,8,0:0:0:0:
208,104,131033,1,8,0:0:0:0:
208,104,131106,1,4,0:0:0:0:
192,32,131399,1,0,0:0:0:0:
192,48,131545,1,8,0:0:0:0:
192,48,131838,1,8,0:0:0:0:
192,48,131984,1,8,0:0:0:0:
192,48,132131,1,0,0:0:0:0:
176,64,132277,1,8,0:0:0:0:
224,88,132424,1,0,0:0:0:0:
208,64,132497,1,8,0:0:0:0:
224,88,132643,1,0,0:0:0:0:
176,64,132716,1,8,0:0:0:0:
192,64,133009,1,8,0:0:0:0:
192,64,133155,1,8,0:0:0:0:
192,64,133302,1,0,0:0:0:0:
200,128,133448,1,4,0:0:0:0:
192,120,133741,1,8,0:0:0:0:
192,120,133887,1,0,0:0:0:0:
192,120,134033,1,8,0:0:0:0:
192,120,134326,1,8,0:0:0:0:
224,80,134619,1,0,0:0:0:0:
200,104,134765,1,0,0:0:0:0:
200,96,134838,1,0,0:0:0:0:
200,96,134911,1,8,0:0:0:0:
200,104,135058,1,0,0:0:0:0:
200,104,135204,1,8,0:0:0:0:
184,72,135277,1,8,0:0:0:0:
184,72,135350,1,0,0:0:0:0:
152,40,135424,1,0,0:0:0:0:
152,40,135497,1,8,0:0:0:0:
152,40,135643,1,8,0:0:0:0:
152,40,135789,1,0,0:0:0:0:
168,40,135936,1,8,0:0:0:0:
168,48,136009,1,8,0:0:0:0:
168,40,136082,1,0,0:0:0:0:
176,48,136228,1,0,0:0:0:0:
152,184,136302,1,0,0:0:0:0:
176,48,136375,1,8,0:0:0:0:
184,48,136448,1,0,0:0:0:0:
184,40,136521,1,8,0:0:0:0:
152,184,136594,1,8,0:0:0:0:
184,40,136667,1,0,0:0:0:0:
176,56,136960,1,0,0:0:0:0:
160,32,137106,1,0,0:0:0:0:
160,64,137180,1,0,0:0:0:0:
160,64,137253,1,8,0:0:0:0:
176,40,137399,1,0,0:0:0:0:
152,184,137472,1,0,0:0:0:0:
176,40,137545,1,8,0:0:0:0:
168,48,137619,1,0,0:0:0:0:
176,40,137692,1,8,0:0:0:0:
208,16,137765,1,0,0:0:0:0:
176,40,137838,1,8,0:0:0:0:
184,48,137984,1,0,0:0:0:0:
184,80,138131,1,8,0:0:0:0:
184,88,138277,1,0,0:0:0:0:
184,88,138350,1,0,0:0:0:0:
184,88,138424,1,8,0:0:0:0:
184,88,138570,1,8,0:0:0:0:
152,184,138643,1,8,0:0:0:0:
184,88,138716,1,0,0:0:0:0:
184,40,138789,1,0,0:0:0:0:
184,88,138863,1,8,0:0:0:0:
184,88,139009,1,8,0:0:0:0:
176,24,139302,1,0,0:0:0:0:
184,128,139448,1,8,0:0:0:0:
184,128,139521,1,0,0:0:0:0:
184,128,139594,1,8,0:0:0:0:
192,144,139741,1,0,0:0:0:0:
144,168,139814,1,0,0:0:0:0:
192,144,139888,1,8,0:0:0:0:
136,72,139960,1,0,0:0:0:0:
192,144,140034,1,8,0:0:0:0:
168,16,140106,1,0,0:0:0:0:
192,144,140180,1,8,0:0:0:0:
152,88,140472,1,0,0:0:0:0:
152,88,140619,1,8,0:0:0:0:
152,88,140692,1,0,0:0:0:0:
152,88,140765,1,8,0:0:0:0:
152,88,140911,1,0,0:0:0:0:
136,176,140984,1,0,0:0:0:0:
152,96,141058,1,8,0:0:0:0:
152,96,141131,1,8,0:0:0:0:
152,96,141204,1,0,0:0:0:0:
200,0,141277,1,0,0:0:0:0:
152,96,141350,1,8,0:0:0:0:
200,56,141497,1,0,0:0:0:0:
152,96,141643,1,8,0:0:0:0:
152,96,141789,1,0,0:0:0:0:
152,96,141863,1,0,0:0:0:0:
152,96,141936,1,8,0:0:0:0:
152,96,142082,1,0,0:0:0:0:
136,176,142155,1,0,0:0:0:0:
152,96,142228,1,8,0:0:0:0:
152,96,142302,1,0,0:0:0:0:
152,96,142375,1,8,0:0:0:0:
184,104,142448,1,0,0:0:0:0:
152,96,142521,1,8,0:0:0:0:
192,16,142667,1,0,0:0:0:0:
152,104,142814,1,8,0:0:0:0:
152,104,142960,1,0,0:0:0:0:
152,104,143033,1,0,0:0:0:0:
152,104,143106,1,8,0:0:0:0:
152,104,143253,1,8,0:0:0:0:
152,104,143399,1,0,0:0:0:0:
192,16,143472,1,0,0:0:0:0:
152,104,143545,1,8,0:0:0:0:
232,80,143594,1,0,0:0:0:0:
232,80,143643,1,0,0:0:0:0:
152,104,143692,1,8,0:0:0:0:
184,112,143838,1,8,0:0:0:0:
192,112,143984,1,0,0:0:0:0:
192,112,144131,1,8,0:0:0:0:
184,120,144204,1,0,0:0:0:0:
160,72,144277,1,8,0:0:0:0:
184,104,144350,1,8,0:0:0:0:
160,72,144424,1,0,0:0:0:0:
184,104,144497,1,0,0:0:0:0:
168,72,144570,1,8,0:0:0:0:
168,72,144643,1,8,0:0:0:0:
168,72,144716,1,0,0:0:0:0:
168,72,144789,1,0,0:0:0:0:
168,72,144863,1,8,0:0:0:0:
184,72,145155,1,0,0:0:0:0:
168,128,145302,1,8,0:0:0:0:
168,136,145375,1,8,0:0:0:0:
168,136,145448,1,0,0:0:0:0:
168,80,145594,1,0,0:0:0:0:
184,104,145667,1,0,0:0:0:0:
168,80,145741,1,8,0:0:0:0:
168,80,145814,1,0,0:0:0:0:
168,80,145887,1,0,0:0:0:0:
168,80,145960,1,0,0:0:0:0:
168,80,146033,1,8,0:0:0:0:
168,80,146180,1,0,0:0:0:0:
168,80,146326,1,0,0:0:0:0:
168,80,146472,1,0,0:0:0:0:
168,80,146545,1,0,0:0:0:0:
168,80,146619,1,8,0:0:0:0:
168,80,146765,1,0,0:0:0:0:
184,104,146838,1,0,0:0:0:0:
168,80,146911,1,8,0:0:0:0:
168,80,146984,1,8,0:0:0:0:
168,80,147058,1,8,0:0:0:0:
168,80,147131,1,0,0:0:0:0:
168,80,147204,1,8,0:0:0:0:
176,88,147350,1,0,0:0:0:0:
192,32,147424,1,8,0:0:0:0:
176,88,147497,1,0,0:0:0:0:
176,88,147643,1,0,0:0:0:0:
176,88,147716,1,0,0:0:0:0:
176,88,147789,1,8,0:0:0:0:
176,88,147936,1,8,0:0:0:0:
184,96,148009,1,0,0:0:0:0:
176,88,148082,1,8,0:0:0:0:
176,88,148155,1,8,0:0:0:0:
176,88,148228,1,0,0:0:0:0:
176,88,148302,1,0,0:0:0:0:
176,88,148375,1,8,0:0:0:0:
176,88,148521,1,8,0:0:0:0:
176,88,148667,1,0,0:0:0:0:
176,88,148814,1,0,0:0:0:0:
176,88,148887,1,0,0:0:0:0:
176,88,148960,1,8,0:0:0:0:
176,88,149106,1,0,0:0:0:0:
184,56,149180,1,0,0:0:0:0:
176,88,149253,1,8,0:0:0:0:
176,88,149326,1,8,0:0:0:0:
176,88,149399,1,0,0:0:0:0:
176,88,149472,1,0,0:0:0:0:
176,88,149545,1,8,0:0:0:0:
176,88,149619,1,0,0:0:0:0:
176,88,149692,1,8,0:0:0:0:
176,88,149838,1,0,0:0:0:0:
176,96,149984,1,8,0:0:0:0:
176,96,150058,1,8,0:0:0:0:
176,96,150131,1,0,0:0:0:0:
176,96,150277,1,0,0:0:0:0:
176,96,150424,1,8,0:0:0:0:
176,96,150497,1,0,0:0:0:0:
176,96,150570,1,8,0:0:0:0:
176,96,150643,1,8,0:0:0:0:
176,96,150716,1,0,0:0:0:0:
176,96,150863,1,8,0:0:0:0:
176,96,151009,1,0,0:0:0:0:
176,96,151155,1,0,0:0:0:0:
176,96,151228,1,0,0:0:0:0:
176,96,151302,1,8,0:0:0:0:
176,96,151448,1,0,0:0:0:0:
184,8,151521,1,0,0:0:0:0:
176,96,151594,1,8,0:0:0:0:
176,96,151667,1,8,0:0:0:0:
176,96,151741,1,0,0:0:0:0:
176,96,151814,1,8,0:0:0:0:
176,96,151887,1,0,0:0:0:0:
176,96,152033,1,0,0:0:0:0:
176,96,152180,1,0,0:0:0:0:
192,72,152326,1,8,0:0:0:0:
192,72,152399,1,0,0:0:0:0:
192,72,152472,1,8,0:0:0:0:
192,72,152619,1,0,0:0:0:0:
192,72,152765,1,8,0:0:0:0:
192,72,152911,1,8,0:0:0:0:
224,80,152960,1,0,0:0:0:0:
224,80,153009,1,0,0:0:0:0:
224,80,153058,1,8,0:0:0:0:
232,80,153204,1,8,0:0:0:0:
176,224,154521,5,4,0:0:0:0:
176,208,154814,1,8,0:0:0:0:
176,208,155106,1,0,0:0:0:0:
200,80,155253,1,0,0:0:0:0:
200,80,155399,1,8,0:0:0:0:
200,80,155692,1,0,0:0:0:0:
200,80,155984,1,8,0:0:0:0:
200,80,156277,1,0,0:0:0:0:
192,128,156424,1,0,0:0:0:0:
176,56,156570,1,8,0:0:0:0:
176,56,156716,1,8,0:0:0:0:
176,96,156863,1,4,0:0:0:0:
192,72,157155,1,8,0:0:0:0:
192,136,157302,1,8,0:0:0:0:
184,96,157448,1,0,0:0:0:0:
200,120,157741,1,8,0:0:0:0:
184,96,158033,1,0,0:0:0:0:
200,120,158326,1,8,0:0:0:0:
184,56,158472,1,8,0:0:0:0:
184,96,158619,1,0,0:0:0:0:
200,120,158911,1,8,0:0:0:0:
184,96,159204,1,4,0:0:0:0:
184,96,159350,1,4,0:0:0:0:
184,96,159497,1,4,0:0:0:0:
184,96,159643,1,4,0:0:0:0:
184,96,159789,1,4,0:0:0:0:
184,96,159936,1,4,0:0:0:0:
184,96,160082,1,4,0:0:0:0:
184,96,160228,1,4,0:0:0:0:
184,96,160375,1,4,0:0:0:0:
184,96,160521,1,4,0:0:0:0:
184,96,160667,1,4,0:0:0:0:
184,96,160814,1,4,0:0:0:0:
184,96,160960,1,8,0:0:0:0:
176,48,161033,1,8,0:0:0:0:
184,96,161106,1,0,0:0:0:0:
176,48,161180,1,0,0:0:0:0:
184,48,161253,1,8,0:0:0:0:
184,96,161399,1,8,0:0:0:0:
184,96,161545,1,4,0:0:0:0:
192,48,161692,1,0,0:0:0:0:
192,48,161765,1,0,0:0:0:0:
176,80,161838,1,8,0:0:0:0:
176,80,161984,1,4,0:0:0:0:
160,24,162131,1,8,0:0:0:0:
176,80,162277,1,0,0:0:0:0:
176,80,162424,1,8,0:0:0:0:
224,96,162716,1,4,0:0:0:0:
216,96,163009,1,8,0:0:0:0:
216,96,163302,1,8,0:0:0:0:
216,96,163594,1,8,0:0:0:0:
216,96,163887,1,0,0:0:0:0:
208,168,164180,1,0,0:0:0:0:
208,168,164472,1,8,0:0:0:0:
192,80,164765,1,0,0:0:0:0:
192,80,165058,1,0,0:0:0:0:
192,80,165204,1,8,0:0:0:0:
192,80,165350,1,0,0:0:0:0:
192,64,165497,1,0,0:0:0:0:
192,64,165643,1,8,0:0:0:0:
208,56,165936,1,8,0:0:0:0:
208,56,166228,1,0,0:0:0:0:
168,56,166521,1,0,0:0:0:0:
184,80,166667,1,0,0:0:0:0:
192,80,166814,1,8,0:0:0:0:
168,64,167106,1,8,0:0:0:0:
184,80,167253,1,8,0:0:0:0:
168,64,167399,1,0,0:0:0:0:
184,80,167545,1,8,0:0:0:0:
184,80,167692,1,0,0:0:0:0:
184,80,167838,1,0,0:0:0:0:
192,88,167984,1,8,0:0:0:0:
160,56,168277,1,0,0:0:0:0:
200,48,168424,1,0,0:0:0:0:
160,56,168570,1,8,0:0:0:0:
184,80,168863,1,8,0:0:0:0:
232,56,169009,1,0,0:0:0:0:
192,88,169155,1,8,0:0:0:0:
192,80,169448,1,8,0:0:0:0:
192,80,169741,1,8,0:0:0:0:
192,80,169887,1,0,0:0:0:0:
192,80,170033,1,8,0:0:0:0:
200,88,170180,1,0,0:0:0:0:
192,88,170326,1,12,0:0:0:0:
176,32,170619,1,8,0:0:0:0:
192,88,170911,1,4,0:0:0:0:
192,88,171058,1,8,0:0:0:0:
184,56,171106,1,0,0:0:0:0:
208,48,171155,1,0,0:0:0:0:
192,88,171204,1,8,0:0:0:0:
224,56,171277,1,8,0:0:0:0:
224,56,171350,1,0,0:0:0:0:
224,56,171424,1,0,0:0:0:0:
224,56,171497,1,8,0:0:0:0:
168,64,171643,1,0,0:0:0:0:
168,64,171716,1,0,0:0:0:0:
168,72,171789,1,8,0:0:0:0:
168,72,171863,1,8,0:0:0:0:
168,64,171936,1,8,0:0:0:0:
176,64,172009,1,8,0:0:0:0:
176,64,172082,1,4,0:0:0:0:
192,88,172375,1,0,0:0:0:0:
192,88,172667,1,12,0:0:0:0:
192,88,172960,1,12,0:0:0:0:
184,144,173253,1,4,0:0:0:0:
168,136,173399,1,0,0:0:0:0:
168,136,173472,1,0,0:0:0:0:
168,136,173545,1,8,0:0:0:0:
160,88,173692,1,0,0:0:0:0:
160,88,173765,1,8,0:0:0:0:
160,88,173838,1,0,0:0:0:0:
192,32,173911,1,0,0:0:0:0:
160,88,173984,1,8,0:0:0:0:
160,80,174058,1,8,0:0:0:0:
160,80,174131,1,0,0:0:0:0:
152,80,174204,1,8,0:0:0:0:
160,56,174350,1,8,0:0:0:0:
160,56,174424,1,0,0:0:0:0:
152,96,174570,1,0,0:0:0:0:
168,48,174643,1,0,0:0:0:0:
152,96,174716,1,8,0:0:0:0:
280,112,174765,1,8,0:0:0:0:
288,112,174814,1,8,0:0:0:0:
288,112,174863,1,0,0:0:0:0:
200,128,174936,1,0,0:0:0:0:
200,128,175009,1,8,0:0:0:0:
160,64,175155,1,8,0:0:0:0:
160,56,175228,1,8,0:0:0:0:
160,64,175302,1,0,0:0:0:0:
168,64,175375,1,8,0:0:0:0:
152,40,175448,1,0,0:0:0:0:
152,40,175521,1,8,0:0:0:0:
152,40,175594,1,0,0:0:0:0:
160,96,175741,1,8,0:0:0:0:
336,104,175789,1,0,0:0:0:0:
336,104,175838,1,0,0:0:0:0:
160,96,175887,1,8,0:0:0:0:
176,128,176033,1,0,0:0:0:0:
176,128,176106,1,8,0:0:0:0:
176,128,176180,1,0,0:0:0:0:
168,72,176326,1,8,0:0:0:0:
168,72,176472,1,0,0:0:0:0:
160,96,176545,1,0,0:0:0:0:
232,128,176619,1,8,0:0:0:0:
232,128,176667,1,8,0:0:0:0:
232,128,176716,1,8,0:0:0:0:
232,128,176765,1,0,0:0:0:0:
168,88,176838,1,0,0:0:0:0:
144,120,176911,1,8,0:0:0:0:
144,120,176984,1,8,0:0:0:0:
144,120,177058,1,0,0:0:0:0:
160,104,177204,1,0,0:0:0:0:
160,104,177277,1,0,0:0:0:0:
160,104,177350,1,8,0:0:0:0:
160,64,177424,1,8,0:0:0:0:
160,24,177497,1,8,0:0:0:0:
160,64,177643,1,8,0:0:0:0:
160,80,177789,1,0,0:0:0:0:
160,80,177863,1,8,0:0:0:0:
160,80,177936,1,0,0:0:0:0:
168,112,178082,1,8,0:0:0:0:
144,16,178155,1,8,0:0:0:0:
168,112,178228,1,0,0:0:0:0:
160,104,178375,1,8,0:0:0:0:
160,104,178448,1,8,0:0:0:0:
160,104,178521,1,0,0:0:0:0:
152,104,178594,1,8,0:0:0:0:
176,40,178741,1,8,0:0:0:0:
152,104,178814,1,0,0:0:0:0:
184,48,178960,1,0,0:0:0:0:
224,160,179106,1,0,0:0:0:0:
152,96,179180,1,0,0:0:0:0:
152,96,179253,1,0,0:0:0:0:
152,96,179326,1,0,0:0:0:0:
152,96,179399,1,8,0:0:0:0:
152,128,179545,1,0,0:0:0:0:
176,80,179619,1,0,0:0:0:0:
152,128,179692,1,8,0:0:0:0:
144,104,179838,1,8,0:0:0:0:
144,112,179911,1,8,0:0:0:0:
144,104,179984,1,0,0:0:0:0:
144,104,180131,1,0,0:0:0:0:
144,136,180204,1,8,0:0:0:0:
144,136,180277,1,0,0:0:0:0:
168,24,180350,1,8,0:0:0:0:
144,120,180424,1,0,0:0:0:0:
136,112,180497,1,0,0:0:0:0:
160,96,180570,1,8,0:0:0:0:
160,64,180716,1,0,0:0:0:0:
144,136,180789,1,0,0:0:0:0:
144,136,180863,1,8,0:0:0:0:
160,104,180936,1,0,0:0:0:0:
160,104,181009,1,8,0:0:0:0:
176,136,181155,1,0,0:0:0:0:
168,104,181228,1,0,0:0:0:0:
176,136,181302,1,8,0:0:0:0:
152,88,181375,1,8,0:0:0:0:
152,88,181448,1,0,0:0:0:0:
136,88,181521,1,8,0:0:0:0:
160,56,181594,1,0,0:0:0:0:
176,64,181667,1,8,0:0:0:0:
184,120,181741,1,0,0:0:0:0:
184,120,181814,1,8,0:0:0:0:
184,120,181887,1,0,0:0:0:0:
184,120,181960,1,0,0:0:0:0:
184,120,182033,1,12,0:0:0:0:
184,96,182180,1,0,0:0:0:0:
184,96,182253,1,0,0:0:0:0:
184,96,182326,1,12,0:0:0:0:
176,56,182472,1,8,0:0:0:0:
168,56,182545,1,8,0:0:0:0:
176,56,182619,1,0,0:0:0:0:
176,104,182765,1,0,0:0:0:0:
176,104,182911,1,8,0:0:0:0:
160,80,183058,1,8,0:0:0:0:
160,80,183204,1,8,0:0:0:0:
160,80,183277,1,8,0:0:0:0:
160,80,183350,1,0,0:0:0:0:
160,96,183424,1,0,0:0:0:0:
160,96,183497,1,8,0:0:0:0:
176,64,183643,1,0,0:0:0:0:
168,24,183716,1,8,0:0:0:0:
218,67,183789,1,0,0:0:0:0:
176,88,183936,1,0,0:0:0:0:
176,88,184009,1,0,0:0:0:0:
176,88,184082,1,8,0:0:0:0:
280,104,184131,1,0,0:0:0:0:
280,104,184180,1,0,0:0:0:0:
184,64,184228,1,8,0:0:0:0:
184,64,184302,1,0,0:0:0:0:
184,64,184375,1,8,0:0:0:0:
192,80,184521,1,8,0:0:0:0:
192,80,184594,1,8,0:0:0:0:
192,80,184667,1,8,0:0:0:0:
168,56,184814,1,0,0:0:0:0:
168,56,184960,1,8,0:0:0:0:
176,88,185033,1,8,0:0:0:0:
176,88,185106,1,0,0:0:0:0:
168,48,185180,1,0,0:0:0:0:
168,48,185253,1,0,0:0:0:0:
216,136,185399,1,8,0:0:0:0:
216,136,185448,1,8,0:0:0:0:
216,136,185497,1,8,0:0:0:0:
192,64,185545,1,0,0:0:0:0:
240,128,185692,1,0,0:0:0:0:
194,131,185765,1,0,0:0:0:0:
240,128,185838,1,8,0:0:0:0:
304,88,185887,1,0,0:0:0:0:
304,88,185936,1,0,0:0:0:0:
296,96,185984,1,8,0:0:0:0:
184,120,186131,1,8,0:0:0:0:
224,128,186277,1,8,0:0:0:0:
224,128,186350,1,0,0:0:0:0:
224,128,186424,1,8,0:0:0:0:
184,88,186570,1,0,0:0:0:0:
184,88,186716,1,8,0:0:0:0:
160,96,186789,1,0,0:0:0:0:
184,88,186863,1,8,0:0:0:0:
184,80,187009,1,8,0:0:0:0:
168,72,187155,1,8,0:0:0:0:
168,72,187228,1,8,0:0:0:0:
168,72,187302,1,0,0:0:0:0:
176,96,187448,1,8,0:0:0:0:
280,80,187497,1,8,0:0:0:0:
280,80,187545,1,8,0:0:0:0:
280,80,187594,1,0,0:0:0:0:
184,80,187741,1,0,0:0:0:0:
194,117,187814,1,0,0:0:0:0:
184,88,187887,1,8,0:0:0:0:
240,104,187936,1,0,0:0:0:0:
240,104,187984,1,0,0:0:0:0:
240,104,188033,1,8,0:0:0:0:
160,104,188180,1,0,0:0:0:0:
224,136,188253,1,0,0:0:0:0:
176,104,188326,1,8,0:0:0:0:
240,96,188375,1,8,0:0:0:0:
240,96,188424,1,8,0:0:0:0:
176,104,188472,1,0,0:0:0:0:
208,152,188619,1,8,0:0:0:0:
288,112,188667,1,8,0:0:0:0:
288,112,188716,1,8,0:0:0:0:
208,160,188765,1,0,0:0:0:0:
168,120,188838,1,8,0:0:0:0:
168,120,188911,1,0,0:0:0:0:
168,120,188984,1,0,0:0:0:0:
168,120,189058,1,8,0:0:0:0:
240,104,189106,1,0,0:0:0:0:
240,104,189155,1,0,0:0:0:0:
240,104,189204,1,8,0:0:0:0:
168,80,189350,1,0,0:0:0:0:
168,88,189497,1,8,0:0:0:0:
152,24,189545,1,8,0:0:0:0:
152,24,189594,1,8,0:0:0:0:
168,88,189643,1,0,0:0:0:0:
224,112,189789,1,0,0:0:0:0:
224,112,189936,1,8,0:0:0:0:
168,88,190082,1,0,0:0:0:0:
160,96,190155,1,0,0:0:0:0:
160,96,190228,1,0,0:0:0:0:
144,120,190375,1,8,0:0:0:0:
280,120,190424,1,8,0:0:0:0:
280,120,190472,1,8,0:0:0:0:
144,120,190521,1,0,0:0:0:0:
144,120,190667,1,0,0:0:0:0:
224,96,190814,1,8,0:0:0:0:
176,112,190960,1,0,0:0:0:0:
168,48,191033,1,0,0:0:0:0:
176,112,191106,1,8,0:0:0:0:
160,136,191253,1,0,0:0:0:0:
160,136,191399,1,8,0:0:0:0:
160,136,191545,1,0,0:0:0:0:
160,136,191619,1,0,0:0:0:0:
160,48,191692,1,8,0:0:0:0:
168,80,191984,1,0,0:0:0:0:
184,136,192277,1,0,0:0:0:0:
224,80,192424,1,8,0:0:0:0:
176,104,192472,1,8,0:0:0:0:
176,112,192521,1,8,0:0:0:0:
184,144,192570,1,0,0:0:0:0:
202,128,192716,1,0,0:0:0:0:
184,152,192789,1,8,0:0:0:0:
184,152,192863,1,0,0:0:0:0:
184,152,193009,1,8,0:0:0:0:
184,152,193082,1,8,0:0:0:0:
184,160,193155,1,0,0:0:0:0:
176,104,193302,1,0,0:0:0:0:
176,104,193448,1,8,0:0:0:0:
192,80,193497,1,0,0:0:0:0:
192,80,193545,1,0,0:0:0:0:
192,80,193594,1,8,0:0:0:0:
184,96,193667,1,8,0:0:0:0:
176,48,193741,1,0,0:0:0:0:
184,96,193887,1,8,0:0:0:0:
184,104,194033,1,8,0:0:0:0:
304,96,194082,1,8,0:0:0:0:
296,96,194131,1,8,0:0:0:0:
184,104,194326,1,0,0:0:0:0:
192,80,194619,1,0,0:0:0:0:
168,88,194765,1,8,0:0:0:0:
168,88,194814,1,8,0:0:0:0:
168,88,194863,1,8,0:0:0:0:
192,80,194911,1,0,0:0:0:0:
194,131,195058,1,0,0:0:0:0:
168,136,195131,1,8,0:0:0:0:
168,136,195204,1,0,0:0:0:0:
160,80,195350,1,8,0:0:0:0:
168,112,195424,1,8,0:0:0:0:
168,96,195497,1,0,0:0:0:0:
144,120,195643,1,0,0:0:0:0:
144,128,195789,1,8,0:0:0:0:
248,120,195838,1,0,0:0:0:0:
248,120,195887,1,0,0:0:0:0:
248,120,195936,1,8,0:0:0:0:
248,112,196009,1,8,0:0:0:0:
200,144,196082,1,0,0:0:0:0:
224,128,196228,1,8,0:0:0:0:
224,128,196375,1,8,0:0:0:0:
296,88,196424,1,8,0:0:0:0:
280,88,196472,1,8,0:0:0:0:
168,64,196667,1,4,0:0:0:0:
208,136,196814,1,8,0:0:0:0:
184,48,196887,1,0,0:0:0:0:
208,136,196960,1,0,0:0:0:0:
184,112,197106,1,0,0:0:0:0:
184,112,197253,1,8,0:0:0:0:
194,131,197326,1,0,0:0:0:0:
184,80,197399,1,8,0:0:0:0:
194,131,197472,1,8,0:0:0:0:
184,80,197545,1,0,0:0:0:0:
184,80,197692,1,0,0:0:0:0:
184,80,197765,1,8,0:0:0:0:
184,80,197838,1,0,0:0:0:0:
184,80,197984,1,8,0:0:0:0:
184,80,198058,1,0,0:0:0:0:
184,80,198131,1,0,0:0:0:0:
200,40,198277,1,8,0:0:0:0:
328,96,198326,1,8,0:0:0:0:
328,96,198375,1,8,0:0:0:0:
200,40,198424,1,0,0:0:0:0:
208,104,198570,1,0,0:0:0:0:
152,48,198716,1,8,0:0:0:0:
288,112,198765,1,0,0:0:0:0:
288,112,198814,1,0,0:0:0:0:
288,112,198863,1,8,0:0:0:0:
152,152,198936,1,8,0:0:0:0:
152,152,199009,1,0,0:0:0:0:
152,64,199155,1,8,0:0:0:0:
152,64,199228,1,0,0:0:0:0:
152,64,199302,1,0,0:0:0:0:
176,56,199448,1,0,0:0:0:0:
184,72,199521,1,8,0:0:0:0:
176,128,199594,1,0,0:0:0:0:
194,128,199667,1,8,0:0:0:0:
168,80,199741,1,0,0:0:0:0:
176,56,199814,1,0,0:0:0:0:
168,80,199887,1,8,0:0:0:0:
184,120,200033,1,0,0:0:0:0:
184,48,200106,1,8,0:0:0:0:
184,120,200180,1,0,0:0:0:0:
184,64,200253,1,0,0:0:0:0:
184,64,200326,1,8,0:0:0:0:
160,96,200472,1,8,0:0:0:0:
160,96,200619,1,8,0:0:0:0:
256,128,200667,1,8,0:0:0:0:
256,128,200716,1,8,0:0:0:0:
256,128,200765,1,0,0:0:0:0:
208,112,200838,1,0,0:0:0:0:
208,112,200911,1,8,0:0:0:0:
208,112,201058,1,0,0:0:0:0:
288,88,201106,1,0,0:0:0:0:
288,88,201155,1,8,0:0:0:0:
288,88,201204,1,0,0:0:0:0:
184,112,201277,1,8,0:0:0:0:
184,112,201350,1,0,0:0:0:0:
152,88,201497,1,8,0:0:0:0:
152,88,201570,1,0,0:0:0:0:
152,88,201643,1,0,0:0:0:0:
128,96,201789,1,0,0:0:0:0:
128,96,201936,1,8,0:0:0:0:
194,127,202009,1,0,0:0:0:0:
168,88,202082,1,8,0:0:0:0:
194,127,202155,1,8,0:0:0:0:
168,88,202227,1,0,0:0:0:0:
168,88,202375,1,0,0:0:0:0:
152,32,202448,1,8,0:0:0:0:
168,88,202521,1,0,0:0:0:0:
192,106,202594,1,0,0:0:0:0:
192,96,202667,1,8,0:0:0:0:
192,96,202741,1,0,0:0:0:0:
192,96,202814,1,0,0:0:0:0:
288,88,202960,1,8,0:0:0:0:
184,64,203009,1,8,0:0:0:0:
288,88,203058,1,8,0:0:0:0:
192,96,203106,1,0,0:0:0:0:
208,112,203253,1,8,0:0:0:0:
208,112,203399,1,0,0:0:0:0:
264,112,203448,1,0,0:0:0:0:
264,112,203497,1,8,0:0:0:0:
264,112,203545,1,0,0:0:0:0:
224,112,203619,1,8,0:0:0:0:
264,112,203692,1,0,0:0:0:0:
168,88,203838,1,8,0:0:0:0:
136,112,203911,1,0,0:0:0:0:
136,112,203984,1,0,0:0:0:0:
144,112,204131,1,0,0:0:0:0:
144,104,204204,1,8,0:0:0:0:
144,112,204277,1,0,0:0:0:0:
192,102,204350,1,8,0:0:0:0:
192,112,204424,1,0,0:0:0:0:
192,112,204497,1,0,0:0:0:0:
192,112,204570,1,8,0:0:0:0:
200,64,204716,1,0,0:0:0:0:
192,48,204789,1,0,0:0:0:0:
200,64,204863,1,0,0:0:0:0:
200,56,204936,1,0,0:0:0:0:
200,56,205009,1,8,0:0:0:0:
192,64,205155,1,8,0:0:0:0:
192,64,205302,1,8,0:0:0:0:
160,48,205350,1,0,0:0:0:0:
160,48,205399,1,0,0:0:0:0:
192,64,205448,1,8,0:0:0:0:
144,80,205521,1,8,0:0:0:0:
136,80,205594,1,0,0:0:0:0:
144,80,205667,1,0,0:0:0:0:
144,80,205741,1,8,0:0:0:0:
221,245,206033,5,4,0:0:0:0:
240,151,206180,1,8,0:0:0:0:
211,42,206253,1,8,0:0:0:0:
240,151,206326,1,0,0:0:0:0:
204,132,206472,1,8,0:0:0:0:
191,96,206619,1,0,0:0:0:0:
202,55,206692,1,0,0:0:0:0:
204,132,206765,1,8,0:0:0:0:
202,55,206838,1,8,0:0:0:0:
200,106,206911,1,0,0:0:0:0:
204,132,207058,1,8,0:0:0:0:
202,110,207204,1,0,0:0:0:0:
201,56,207277,1,0,0:0:0:0:
236,113,207350,1,8,0:0:0:0:
246,107,207497,1,0,0:0:0:0:
202,55,207570,1,0,0:0:0:0:
236,113,207643,1,8,0:0:0:0:
181,46,207716,1,8,0:0:0:0:
246,107,207789,1,0,0:0:0:0:
236,113,207936,1,8,0:0:0:0:
196,57,208009,1,8,0:0:0:0:
246,107,208082,1,0,0:0:0:0:
242,111,208228,1,0,0:0:0:0:
246,107,208375,1,0,0:0:0:0:
227,113,208521,1,8,0:0:0:0:
194,58,208594,1,8,0:0:0:0:
206,107,208667,1,0,0:0:0:0:
226,113,208814,1,8,0:0:0:0:
206,107,208960,1,0,0:0:0:0:
196,57,209033,1,0,0:0:0:0:
226,114,209106,1,8,0:0:0:0:
194,58,209180,1,8,0:0:0:0:
206,107,209253,1,0,0:0:0:0:
226,114,209399,1,8,0:0:0:0:
187,50,209472,1,8,0:0:0:0:
206,107,209545,1,0,0:0:0:0:
226,114,209692,1,8,0:0:0:0:
187,52,209765,1,8,0:0:0:0:
257,94,209838,1,0,0:0:0:0:
226,114,209984,1,8,0:0:0:0:
257,94,210131,1,0,0:0:0:0:
188,63,210204,1,0,0:0:0:0:
226,114,210277,1,8,0:0:0:0:
187,63,210350,1,8,0:0:0:0:
257,94,210424,1,0,0:0:0:0:
187,53,210570,1,8,0:0:0:0:
186,60,210643,1,8,0:0:0:0:
174,8,210716,1,0,0:0:0:0:
196,81,210863,1,0,0:0:0:0:
196,81,210936,1,0,0:0:0:0:
196,81,211009,1,8,0:0:0:0:
200,60,211155,1,0,0:0:0:0:
200,60,211302,1,0,0:0:0:0:
200,60,211448,1,0,0:0:0:0:
187,53,211521,1,8,0:0:0:0:
187,49,211594,1,0,0:0:0:0:
169,41,211741,1,8,0:0:0:0:
169,41,211887,1,0,0:0:0:0:
191,72,212033,1,0,0:0:0:0:
188,29,212106,1,0,0:0:0:0:
191,39,212180,1,8,0:0:0:0:
192,72,212228,1,8,0:0:0:0:
179,47,212277,1,8,0:0:0:0:
255,74,212326,1,0,0:0:0:0:
201,52,212472,1,0,0:0:0:0:
189,42,212545,1,0,0:0:0:0:
201,52,212619,1,8,0:0:0:0:
245,39,212667,1,8,0:0:0:0:
245,39,212716,1,8,0:0:0:0:
201,52,212765,1,0,0:0:0:0:
195,46,212911,1,0,0:0:0:0:
195,46,213058,1,8,0:0:0:0:
186,173,213131,1,8,0:0:0:0:
176,133,213204,1,0,0:0:0:0:
176,133,213277,1,0,0:0:0:0:
176,133,213350,1,0,0:0:0:0:
176,133,213424,1,0,0:0:0:0:
176,133,213497,1,8,0:0:0:0:
170,38,213643,1,0,0:0:0:0:
161,36,213716,1,0,0:0:0:0:
165,32,213789,1,0,0:0:0:0:
176,32,213863,1,0,0:0:0:0:
165,33,213936,1,8,0:0:0:0:
176,50,214082,1,0,0:0:0:0:
172,48,214155,1,8,0:0:0:0:
176,50,214228,1,0,0:0:0:0:
176,51,214375,1,0,0:0:0:0:
170,38,214448,1,0,0:0:0:0:
179,31,214521,1,8,0:0:0:0:
170,38,214594,1,0,0:0:0:0:
163,50,214667,1,8,0:0:0:0:
169,40,214741,1,8,0:0:0:0:
169,40,214814,1,0,0:0:0:0:
171,48,214960,1,8,0:0:0:0:
171,47,215033,1,8,0:0:0:0:
171,48,215106,1,0,0:0:0:0:
180,36,215399,1,4,0:0:0:0:
194,129,215545,1,8,0:0:0:0:
169,64,215619,1,8,0:0:0:0:
221,213,215692,1,0,0:0:0:0:
194,129,215838,1,8,0:0:0:0:
221,213,215984,1,0,0:0:0:0:
168,75,216058,1,0,0:0:0:0:
194,129,216131,1,8,0:0:0:0:
168,75,216204,1,8,0:0:0:0:
221,213,216277,1,0,0:0:0:0:
194,129,216424,1,8,0:0:0:0:
221,213,216570,1,0,0:0:0:0:
188,54,216643,1,0,0:0:0:0:
194,129,216716,1,8,0:0:0:0:
188,54,216863,1,0,0:0:0:0:
170,44,216936,1,0,0:0:0:0:
194,129,217009,1,8,0:0:0:0:
170,44,217082,1,8,0:0:0:0:
180,158,217155,1,0,0:0:0:0:
194,129,217302,1,8,0:0:0:0:
232,121,217375,1,8,0:0:0:0:
180,158,217448,1,0,0:0:0:0:
180,158,217594,1,0,0:0:0:0:
180,158,217741,1,0,0:0:0:0:
189,130,217887,1,8,0:0:0:0:
194,90,217960,1,8,0:0:0:0:
184,166,218033,1,0,0:0:0:0:
187,131,218180,1,8,0:0:0:0:
184,166,218326,1,0,0:0:0:0:
194,90,218399,1,0,0:0:0:0:
189,130,218472,1,8,0:0:0:0:
194,90,218545,1,8,0:0:0:0:
184,166,218619,1,0,0:0:0:0:
189,130,218765,1,8,0:0:0:0:
212,62,218838,1,8,0:0:0:0:
184,166,218911,1,0,0:0:0:0:
187,131,219058,1,8,0:0:0:0:
212,62,219131,1,8,0:0:0:0:
184,166,219204,1,0,0:0:0:0:
212,62,219277,1,0,0:0:0:0:
189,130,219350,1,8,0:0:0:0:
184,166,219497,1,0,0:0:0:0:
167,81,219643,1,8,0:0:0:0:
184,166,219789,1,0,0:0:0:0:
187,169,219936,1,8,0:0:0:0:
184,166,220009,1,8,0:0:0:0:
184,166,220082,1,0,0:0:0:0:
194,70,220228,1,0,0:0:0:0:
177,17,220302,1,0,0:0:0:0:
194,70,220375,1,8,0:0:0:0:
174,38,220521,1,0,0:0:0:0:
174,38,220667,1,0,0:0:0:0:
176,69,220814,1,8,0:0:0:0:
163,59,220887,1,8,0:0:0:0:
176,69,220960,1,0,0:0:0:0:
167,72,221033,1,0,0:0:0:0:
176,69,221106,1,8,0:0:0:0:
167,72,221253,1,0,0:0:0:0:
166,81,221399,1,0,0:0:0:0:
181,30,221472,1,0,0:0:0:0:
166,82,221545,1,8,0:0:0:0:
254,117,221594,1,8,0:0:0:0:
246,111,221643,1,8,0:0:0:0:
254,117,221692,1,0,0:0:0:0:
245,71,221838,1,0,0:0:0:0:
245,71,221911,1,0,0:0:0:0:
179,48,221984,1,8,0:0:0:0:
179,48,222033,1,8,0:0:0:0:
179,48,222082,1,8,0:0:0:0:
175,30,222131,1,0,0:0:0:0:
223,88,222277,1,0,0:0:0:0:
223,88,222424,1,8,0:0:0:0:
126,40,222497,1,8,0:0:0:0:
186,90,222570,1,0,0:0:0:0:
186,90,222643,1,0,0:0:0:0:
190,87,222716,1,0,0:0:0:0:
193,104,222789,1,0,0:0:0:0:
186,90,222863,1,8,0:0:0:0:
192,109,223009,1,0,0:0:0:0:
191,109,223082,1,0,0:0:0:0:
195,86,223155,1,0,0:0:0:0:
197,54,223228,1,0,0:0:0:0:
192,109,223302,1,8,0:0:0:0:
200,78,223448,1,0,0:0:0:0:
190,76,223521,1,0,0:0:0:0:
191,81,223594,1,8,0:0:0:0:
196,79,223741,1,0,0:0:0:0:
187,44,223814,1,0,0:0:0:0:
186,47,223887,1,8,0:0:0:0:
187,44,223960,1,0,0:0:0:0:
181,50,224033,1,8,0:0:0:0:
180,50,224106,1,8,0:0:0:0:
186,47,224180,1,0,0:0:0:0:
184,52,224326,1,0,0:0:0:0:
175,29,224399,1,0,0:0:0:0:
184,52,224472,1,8,0:0:0:0:
175,57,224765,1,4,0:0:0:0:
221,173,225058,1,0,0:0:0:0:
221,173,225204,1,0,0:0:0:0:
186,113,225350,1,8,0:0:0:0:
226,98,225643,1,0,0:0:0:0:
226,98,225789,1,8,0:0:0:0:
226,98,225936,1,0,0:0:0:0:
226,98,226082,1,0,0:0:0:0:
226,98,226228,1,8,0:0:0:0:
221,116,226521,1,8,0:0:0:0:
221,116,226667,1,8,0:0:0:0:
217,117,226814,1,0,0:0:0:0:
171,78,226960,1,8,0:0:0:0:
171,78,227106,1,0,0:0:0:0:
176,45,227399,1,0,0:0:0:0:
176,45,227545,1,0,0:0:0:0:
176,45,227692,1,8,0:0:0:0:
195,84,227984,1,0,0:0:0:0:
195,84,228131,1,8,0:0:0:0:
195,84,228277,1,0,0:0:0:0:
195,84,228424,1,0,0:0:0:0:
195,84,228570,1,8,0:0:0:0:
194,104,228863,1,8,0:0:0:0:
194,104,229009,1,0,0:0:0:0:
194,104,229155,1,0,0:0:0:0:
173,73,229302,1,8,0:0:0:0:
173,73,229448,1,4,0:0:0:0:
171,126,230619,1,4,0:0:0:0:
196,154,231789,1,4,0:0:0:0:
196,154,232375,1,4,0:0:0:0:
196,154,232960,1,4,0:0:0:0:
196,154,233545,1,4,0:0:0:0:
174,95,234131,1,4,0:0:0:0:
186,96,234424,1,8,0:0:0:0:
186,96,234570,1,8,0:0:0:0:
186,96,234643,1,8,0:0:0:0:
179,71,234716,1,0,0:0:0:0:
206,88,235009,1,8,0:0:0:0:
204,98,235302,1,0,0:0:0:0:
204,98,235594,1,8,0:0:0:0:
222,91,235741,1,8,0:0:0:0:
223,91,235814,1,8,0:0:0:0:
223,91,235887,1,0,0:0:0:0:
204,98,236180,1,8,0:0:0:0:
204,98,236472,1,8,0:0:0:0:
203,106,236545,1,8,0:0:0:0:
203,107,236619,1,8,0:0:0:0:
203,106,236692,1,0,0:0:0:0:
203,107,236765,1,8,0:0:0:0:
203,106,236838,1,8,0:0:0:0:
171,48,236911,1,8,0:0:0:0:
166,62,236984,1,0,0:0:0:0:
166,63,237058,1,8,0:0:0:0:
167,64,237131,1,8,0:0:0:0:
167,64,237204,1,8,0:0:0:0:
166,57,237277,1,8,0:0:0:0:
166,57,237350,1,0,0:0:0:0:
184,71,237497,1,8,0:0:0:0:
184,71,237643,1,0,0:0:0:0:
189,74,237789,1,8,0:0:0:0:
301,82,237838,1,0,0:0:0:0:
301,82,237887,1,0,0:0:0:0:
189,76,237936,1,8,0:0:0:0:
187,85,238009,1,0,0:0:0:0:
201,102,238082,1,8,0:0:0:0:
201,102,238155,1,8,0:0:0:0:
201,102,238228,1,0,0:0:0:0:
256,88,238521,1,8,0:0:0:0:
204,83,238814,1,4,0:0:0:0:
191,208,238960,1,0,0:0:0:0:
191,208,239106,1,8,0:0:0:0:
149,101,239253,1,8,0:0:0:0:
149,101,239326,1,8,0:0:0:0:
149,101,239399,1,0,0:0:0:0:
174,103,239545,1,0,0:0:0:0:
174,103,239619,1,0,0:0:0:0:
174,103,239692,1,0,0:0:0:0:
174,103,239765,1,0,0:0:0:0:
174,103,239838,1,8,0:0:0:0:
193,83,239911,1,8,0:0:0:0:
197,82,239984,1,0,0:0:0:0:
197,82,240131,1,0,0:0:0:0:
197,82,240277,1,0,0:0:0:0:
176,65,240424,1,0,0:0:0:0:
176,63,240497,1,8,0:0:0:0:
168,63,240570,1,0,0:0:0:0:
179,118,240716,1,8,0:0:0:0:
161,88,241009,1,8,0:0:0:0:
259,106,241058,1,8,0:0:0:0:
246,88,241106,1,8,0:0:0:0:
168,83,241155,1,0,0:0:0:0:
208,102,241302,1,0,0:0:0:0:
208,102,241448,1,8,0:0:0:0:
161,102,241594,1,0,0:0:0:0:
161,88,241667,1,0,0:0:0:0:
161,102,241741,1,0,0:0:0:0:
161,88,241887,1,8,0:0:0:0:
219,106,241936,1,0,0:0:0:0:
219,106,241984,1,0,0:0:0:0:
156,102,242033,1,8,0:0:0:0:
160,107,242180,1,0,0:0:0:0:
161,102,242253,1,0,0:0:0:0:
161,102,242326,1,0,0:0:0:0:
161,102,242472,1,0,0:0:0:0:
161,102,242619,1,8,0:0:0:0:
154,95,242765,1,0,0:0:0:0:
154,95,242838,1,0,0:0:0:0:
154,95,242911,1,0,0:0:0:0:
154,100,243058,1,8,0:0:0:0:
219,106,243106,1,0,0:0:0:0:
219,106,243155,1,0,0:0:0:0:
154,100,243204,1,8,0:0:0:0:
177,109,243350,1,0,0:0:0:0:
177,109,243497,1,0,0:0:0:0:
153,133,243570,1,0,0:0:0:0:
153,133,243643,1,0,0:0:0:0:
153,133,243716,1,0,0:0:0:0:
153,133,243789,1,8,0:0:0:0:
168,50,243936,1,8,0:0:0:0:
168,50,244009,1,8,0:0:0:0:
166,102,244082,1,0,0:0:0:0:
176,67,244228,1,0,0:0:0:0:
176,67,244302,1,8,0:0:0:0:
170,87,244375,1,0,0:0:0:0:
162,78,244448,1,8,0:0:0:0:
163,77,244521,1,0,0:0:0:0:
219,88,244594,1,0,0:0:0:0:
219,88,244667,1,0,0:0:0:0:
219,88,244814,1,8,0:0:0:0:
219,88,244960,1,0,0:0:0:0:
174,84,245106,1,0,0:0:0:0:
174,85,245180,1,0,0:0:0:0:
174,85,245253,1,8,0:0:0:0:
179,58,245399,1,0,0:0:0:0:
179,58,245545,1,8,0:0:0:0:
191,88,245692,1,0,0:0:0:0:
280,92,245741,1,8,0:0:0:0:
286,91,245789,1,8,0:0:0:0:
191,89,245838,1,0,0:0:0:0:
146,122,245984,1,0,0:0:0:0:
146,122,246131,1,8,0:0:0:0:
196,113,246204,1,0,0:0:0:0:
196,113,246277,1,8,0:0:0:0:
196,113,246350,1,8,0:0:0:0:
196,113,246424,1,0,0:0:0:0:
179,44,246570,1,8,0:0:0:0:
246,76,246619,1,0,0:0:0:0:
211,58,246667,1,0,0:0:0:0:
179,44,246716,1,8,0:0:0:0:
177,103,246863,1,0,0:0:0:0:
177,103,246936,1,0,0:0:0:0:
177,103,247009,1,0,0:0:0:0:
201,91,247155,1,0,0:0:0:0:
181,64,247302,1,8,0:0:0:0:
181,94,247448,1,0,0:0:0:0:
181,94,247521,1,0,0:0:0:0:
181,94,247594,1,0,0:0:0:0:
181,97,247741,1,8,0:0:0:0:
238,110,247789,1,8,0:0:0:0:
238,110,247838,1,8,0:0:0:0:
181,97,247887,1,0,0:0:0:0:
231,105,248033,1,8,0:0:0:0:
231,106,248180,1,0,0:0:0:0:
202,199,248326,1,0,0:0:0:0:
216,43,248375,1,0,0:0:0:0:
216,43,248424,1,0,0:0:0:0:
171,108,248472,1,8,0:0:0:0:
171,112,248619,1,8,0:0:0:0:
171,112,248765,1,0,0:0:0:0:
159,111,248838,1,0,0:0:0:0:
159,111,248911,1,0,0:0:0:0:
159,111,248984,1,0,0:0:0:0:
159,111,249058,1,8,0:0:0:0:
216,48,249106,1,0,0:0:0:0:
216,48,249155,1,0,0:0:0:0:
159,106,249204,1,8,0:0:0:0:
202,97,249350,1,0,0:0:0:0:
202,97,249497,1,0,0:0:0:0:
202,97,249643,1,8,0:0:0:0:
216,48,249692,1,8,0:0:0:0:
216,48,249741,1,8,0:0:0:0:
159,93,249789,1,0,0:0:0:0:
159,93,249936,1,0,0:0:0:0:
159,94,250009,1,8,0:0:0:0:
159,94,250082,1,0,0:0:0:0:
159,94,250155,1,0,0:0:0:0:
159,94,250228,1,8,0:0:0:0:
211,53,250277,1,0,0:0:0:0:
211,53,250326,1,0,0:0:0:0:
211,53,250375,1,8,0:0:0:0:
211,53,250521,1,0,0:0:0:0:
241,95,250667,1,8,0:0:0:0:
211,66,250716,1,8,0:0:0:0:
211,66,250765,1,8,0:0:0:0:
241,95,250814,1,0,0:0:0:0:
197,81,250960,1,8,0:0:0:0:
197,81,251106,1,0,0:0:0:0:
171,42,251180,1,8,0:0:0:0:
171,42,251253,1,0,0:0:0:0:
171,42,251326,1,0,0:0:0:0:
171,42,251399,1,8,0:0:0:0:
199,72,251448,1,0,0:0:0:0:
199,72,251497,1,0,0:0:0:0:
170,61,251545,1,8,0:0:0:0:
143,91,251692,1,0,0:0:0:0:
143,91,251838,1,8,0:0:0:0:
199,72,251887,1,0,0:0:0:0:
199,72,251936,1,0,0:0:0:0:
143,91,251984,1,8,0:0:0:0:
176,96,252131,1,8,0:0:0:0:
151,71,252277,1,0,0:0:0:0:
154,74,252350,1,8,0:0:0:0:
151,71,252424,1,0,0:0:0:0:
154,74,252497,1,0,0:0:0:0:
151,71,252570,1,8,0:0:0:0:
199,72,252619,1,0,0:0:0:0:
199,72,252667,1,0,0:0:0:0:
156,71,252716,1,8,0:0:0:0:
166,89,252863,1,4,0:0:0:0:
193,108,253155,1,8,0:0:0:0:
193,108,253302,1,8,0:0:0:0:
194,108,253448,1,4,0:0:0:0:
171,129,253594,1,0,0:0:0:0:
171,129,253741,1,8,0:0:0:0:
171,129,254033,1,4,0:0:0:0:
179,153,254326,1,8,0:0:0:0:
179,153,254472,1,0,0:0:0:0:
179,153,254619,1,0,0:0:0:0:
179,132,254765,1,8,0:0:0:0:
179,133,254911,1,8,0:0:0:0:
179,153,255204,1,0,0:0:0:0:
184,120,255497,1,4,0:0:0:0:
200,144,255789,1,4,0:0:0:0:
192,136,256082,1,0,0:0:0:0:
192,136,256228,1,0,0:0:0:0:
200,144,256375,1,4,0:0:0:0:
168,48,256667,1,8,0:0:0:0:
168,48,256960,1,0,0:0:0:0:
168,48,257106,1,0,0:0:0:0:
168,48,257253,1,8,0:0:0:0:
208,136,257545,1,4,0:0:0:0:
200,80,257692,1,0,0:0:0:0:
200,80,257838,1,8,0:0:0:0:
200,72,257911,1,0,0:0:0:0:
200,80,257984,1,8,0:0:0:0:
200,72,258058,1,8,0:0:0:0:
200,72,258131,1,0,0:0:0:0:
208,48,258277,1,0,0:0:0:0:
208,48,258350,1,8,0:0:0:0:
152,48,258424,1,0,0:0:0:0:
152,48,258497,1,0,0:0:0:0:
152,48,258570,1,8,0:0:0:0:
152,48,258643,1,8,0:0:0:0:
152,48,258716,1,0,0:0:0:0:
208,48,258863,1,0,0:0:0:0:
208,48,259009,1,8,0:0:0:0:
160,48,259155,1,0,0:0:0:0:
160,48,259228,1,8,0:0:0:0:
160,48,259302,1,0,0:0:0:0:
160,64,259448,1,8,0:0:0:0:
192,48,259594,1,0,0:0:0:0:
240,128,259741,1,8,0:0:0:0:
240,128,259789,1,8,0:0:0:0:
240,128,259838,1,8,0:0:0:0:
224,120,259887,1,0,0:0:0:0:
192,80,260033,1,0,0:0:0:0:
192,80,260180,1,8,0:0:0:0:
232,120,260326,1,0,0:0:0:0:
232,120,260399,1,0,0:0:0:0:
232,120,260472,1,0,0:0:0:0:
184,64,260545,1,8,0:0:0:0:
232,120,260619,1,0,0:0:0:0:
232,120,260692,1,0,0:0:0:0:
232,120,260765,1,8,0:0:0:0:
176,72,260911,1,8,0:0:0:0:
304,80,260960,1,8,0:0:0:0:
288,80,261009,1,8,0:0:0:0:
176,72,261058,1,0,0:0:0:0:
168,64,261204,1,0,0:0:0:0:
168,64,261350,1,8,0:0:0:0:
232,120,261497,1,0,0:0:0:0:
232,120,261570,1,8,0:0:0:0:
232,120,261643,1,0,0:0:0:0:
184,88,261789,1,8,0:0:0:0:
288,80,261838,1,0,0:0:0:0:
288,80,261887,1,0,0:0:0:0:
184,88,261936,1,8,0:0:0:0:
240,104,262082,1,8,0:0:0:0:
240,104,262228,1,0,0:0:0:0:
176,112,262375,1,0,0:0:0:0:
176,112,262521,1,8,0:0:0:0:
176,72,262667,1,8,0:0:0:0:
168,120,262741,1,8,0:0:0:0:
176,72,262814,1,0,0:0:0:0:
168,112,262960,1,0,0:0:0:0:
176,144,263033,1,8,0:0:0:0:
176,112,263106,1,0,0:0:0:0:
176,144,263180,1,8,0:0:0:0:
176,144,263253,1,0,0:0:0:0:
176,144,263326,1,0,0:0:0:0:
176,144,263399,1,0,0:0:0:0:
168,48,263545,1,8,0:0:0:0:
184,72,263692,1,0,0:0:0:0:
176,72,263838,1,0,0:0:0:0:
176,72,263911,1,0,0:0:0:0:
176,72,263984,1,8,0:0:0:0:
160,64,264131,1,0,0:0:0:0:
160,64,264277,1,8,0:0:0:0:
184,80,264424,1,8,0:0:0:0:
272,80,264472,1,8,0:0:0:0:
256,88,264521,1,8,0:0:0:0:
184,80,264570,1,0,0:0:0:0:
192,88,264716,1,8,0:0:0:0:
192,88,264863,1,0,0:0:0:0:
176,72,265009,1,8,0:0:0:0:
176,80,265082,1,8,0:0:0:0:
176,80,265155,1,0,0:0:0:0:
176,80,265302,1,0,0:0:0:0:
184,80,265375,1,0,0:0:0:0:
184,80,265448,1,8,0:0:0:0:
200,112,265497,1,0,0:0:0:0:
200,112,265545,1,0,0:0:0:0:
200,112,265594,1,8,0:0:0:0:
160,64,265741,1,0,0:0:0:0:
176,112,265887,1,8,0:0:0:0:
176,112,266033,1,0,0:0:0:0:
176,112,266180,1,0,0:0:0:0:
176,112,266253,1,0,0:0:0:0:
176,112,266326,1,8,0:0:0:0:
184,64,266399,1,0,0:0:0:0:
184,64,266472,1,8,0:0:0:0:
312,88,266521,1,0,0:0:0:0:
312,88,266570,1,0,0:0:0:0:
176,80,266619,1,8,0:0:0:0:
144,88,266765,1,8,0:0:0:0:
136,104,266911,1,0,0:0:0:0:
144,88,267058,1,8,0:0:0:0:
256,96,267106,1,8,0:0:0:0:
256,96,267155,1,8,0:0:0:0:
144,88,267204,1,0,0:0:0:0:
152,112,267350,1,0,0:0:0:0:
144,40,267497,1,0,0:0:0:0:
144,40,267570,1,8,0:0:0:0:
144,40,267643,1,0,0:0:0:0:
144,40,267716,1,0,0:0:0:0:
144,40,267789,1,8,0:0:0:0:
240,88,267838,1,0,0:0:0:0:
240,88,267887,1,0,0:0:0:0:
240,80,267936,1,8,0:0:0:0:
208,112,268082,1,0,0:0:0:0:
208,112,268228,1,0,0:0:0:0:
176,80,268302,1,0,0:0:0:0:
208,112,268375,1,8,0:0:0:0:
192,40,268424,1,0,0:0:0:0:
192,48,268472,1,0,0:0:0:0:
240,72,268521,1,8,0:0:0:0:
160,112,268667,1,0,0:0:0:0:
160,112,268741,1,8,0:0:0:0:
184,64,268814,1,0,0:0:0:0:
184,64,268887,1,0,0:0:0:0:
248,112,268960,1,8,0:0:0:0:
248,112,269009,1,0,0:0:0:0:
248,112,269058,1,0,0:0:0:0:
248,112,269106,1,8,0:0:0:0:
200,112,269253,1,0,0:0:0:0:
200,112,269399,1,8,0:0:0:0:
248,112,269448,1,8,0:0:0:0:
248,112,269497,1,8,0:0:0:0:
200,112,269545,1,0,0:0:0:0:
240,136,269692,1,0,0:0:0:0:
240,136,269838,1,0,0:0:0:0:
184,80,269911,1,8,0:0:0:0:
256,112,269984,1,0,0:0:0:0:
184,80,270058,1,0,0:0:0:0:
208,144,270131,1,8,0:0:0:0:
208,144,270180,1,0,0:0:0:0:
208,144,270228,1,0,0:0:0:0:
208,144,270277,1,8,0:0:0:0:
192,48,270424,1,0,0:0:0:0:
192,48,270570,1,8,0:0:0:0:
232,112,270619,1,0,0:0:0:0:
232,112,270667,1,0,0:0:0:0:
192,48,270716,1,8,0:0:0:0:
168,56,270789,1,0,0:0:0:0:
192,48,270863,1,8,0:0:0:0:
168,64,270936,1,8,0:0:0:0:
168,96,271009,1,0,0:0:0:0:
160,104,271082,1,0,0:0:0:0:
160,104,271155,1,0,0:0:0:0:
160,104,271228,1,0,0:0:0:0:
160,104,271302,1,8,0:0:0:0:
184,88,271375,1,8,0:0:0:0:
184,88,271448,1,8,0:0:0:0:
168,104,271521,1,8,0:0:0:0:
168,104,271594,1,4,0:0:0:0:
208,88,271741,1,0,0:0:0:0:
208,88,271814,1,0,0:0:0:0:
208,88,271887,1,8,0:0:0:0:
176,96,272033,1,8,0:0:0:0:
176,96,272180,1,4,0:0:0:0:
184,64,272326,1,0,0:0:0:0:
184,64,272472,1,8,0:0:0:0:
176,48,272545,1,0,0:0:0:0:
176,64,272619,1,8,0:0:0:0:
176,64,272765,1,4,0:0:0:0:
184,80,272911,1,0,0:0:0:0:
176,48,272984,1,0,0:0:0:0:
184,80,273058,1,8,0:0:0:0:
192,104,273131,1,0,0:0:0:0:
192,104,273204,1,8,0:0:0:0:
192,104,273277,1,8,0:0:0:0:
192,104,273350,1,0,0:0:0:0:
152,80,273497,1,8,0:0:0:0:
152,80,273643,1,8,0:0:0:0:
152,80,273789,1,8,0:0:0:0:
152,80,273863,1,0,0:0:0:0:
152,80,273936,1,8,0:0:0:0:
144,88,274082,1,8,0:0:0:0:
144,88,274228,1,4,0:0:0:0:
160,104,274521,1,4,0:0:0:0:
160,120,274814,1,8,0:0:0:0:
160,120,274960,1,8,0:0:0:0:
160,120,275106,1,0,0:0:0:0:
256,192,275253,12,0,275984,0:0:0:0:
277,191,276277,5,12,0:0:0:0:
202,113,277448,1,0,0:0:0:0:
201,99,278619,1,8,0:0:0:0:
201,101,279789,1,0,0:0:0:0:
201,101,280960,1,8,0:0:0:0:
201,101,282131,1,0,0:0:0:0:
203,109,283302,1,8,0:0:0:0:
204,111,284472,1,0,0:0:0:0:
204,111,285643,1,0,0:0:0:0:
204,111,285936,1,8,0:0:0:0:
191,93,286082,1,0,0:0:0:0:
191,93,286228,1,0,0:0:0:0:
191,93,286375,1,8,0:0:0:0:
211,72,286667,1,8,0:0:0:0:
211,72,286814,1,0,0:0:0:0:
197,87,287106,1,8,0:0:0:0:
191,93,287253,1,0,0:0:0:0:
191,93,287399,1,0,0:0:0:0:
193,91,287545,1,8,0:0:0:0:
196,129,287838,1,8,0:0:0:0:
196,129,287984,1,0,0:0:0:0:
184,117,288277,1,8,0:0:0:0:
184,117,288424,1,0,0:0:0:0:
184,117,288570,1,0,0:0:0:0:
184,117,288716,1,8,0:0:0:0:
195,55,289009,1,8,0:0:0:0:
195,55,289155,1,0,0:0:0:0:
220,47,289448,1,8,0:0:0:0:
220,47,289594,1,0,0:0:0:0:
220,47,289741,1,0,0:0:0:0:
220,47,289887,1,8,0:0:0:0:
198,76,290180,1,8,0:0:0:0:
198,76,290326,1,0,0:0:0:0:
177,101,290619,1,8,0:0:0:0:
177,101,290765,1,0,0:0:0:0:
177,101,290911,1,0,0:0:0:0:
169,82,291058,1,8,0:0:0:0:
177,101,291204,1,0,0:0:0:0:
177,101,291497,1,0,0:0:0:0:
161,56,291789,1,8,0:0:0:0:
161,56,291936,1,0,0:0:0:0:
161,56,292082,1,0,0:0:0:0:
161,56,292228,1,8,0:0:0:0:
161,56,292375,1,0,0:0:0:0:
186,70,292667,1,0,0:0:0:0:
189,55,292814,1,0,0:0:0:0:
186,70,292960,1,8,0:0:0:0:
186,70,293106,1,0,0:0:0:0:
186,70,293253,1,0,0:0:0:0:
186,70,293399,1,8,0:0:0:0:
186,70,293545,1,0,0:0:0:0:
192,75,293838,1,0,0:0:0:0:
179,67,293984,1,8,0:0:0:0:
179,67,294131,1,8,0:0:0:0:
179,67,294277,1,8,0:0:0:0:
179,67,294424,1,8,0:0:0:0:
179,67,294570,1,0,0:0:0:0:
179,67,294716,1,8,0:0:0:0:
207,77,295009,1,0,0:0:0:0:
210,157,295302,1,8,0:0:0:0:
210,157,295448,1,0,0:0:0:0:
210,157,295594,1,8,0:0:0:0:
216,128,295887,1,0,0:0:0:0:
216,128,296033,1,8,0:0:0:0:
200,56,296106,1,8,0:0:0:0:
216,128,296180,1,0,0:0:0:0:
184,72,296326,1,0,0:0:0:0:
184,72,296472,1,8,0:0:0:0:
184,72,296619,1,0,0:0:0:0:
184,72,296765,1,12,0:0:0:0:
200,40,297058,1,0,0:0:0:0:
200,40,297204,1,8,0:0:0:0:
200,40,297350,1,0,0:0:0:0:
176,80,297643,1,8,0:0:0:0:
176,80,297789,1,0,0:0:0:0:
176,80,297936,1,8,0:0:0:0:
184,80,298228,1,0,0:0:0:0:
184,80,298375,1,8,0:0:0:0:
168,40,298448,1,8,0:0:0:0:
184,80,298521,1,0,0:0:0:0:
176,80,298667,1,0,0:0:0:0:
176,80,298814,1,8,0:0:0:0:
176,80,298960,1,0,0:0:0:0:
168,80,299106,1,8,0:0:0:0:
192,80,299399,1,8,0:0:0:0:
192,80,299545,1,8,0:0:0:0:
192,80,299692,1,0,0:0:0:0:
208,88,299984,1,8,0:0:0:0:
208,88,300131,1,0,0:0:0:0:
200,88,300277,1,8,0:0:0:0:
216,104,300570,1,0,0:0:0:0:
216,104,300716,1,8,0:0:0:0:
200,64,300789,1,8,0:0:0:0:
216,104,300863,1,0,0:0:0:0:
192,88,301009,1,0,0:0:0:0:
192,88,301155,1,8,0:0:0:0:
192,88,301302,1,0,0:0:0:0:
192,88,301448,1,12,0:0:0:0:
192,96,301741,1,0,0:0:0:0:
192,96,301887,1,8,0:0:0:0:
192,96,302033,1,0,0:0:0:0:
192,72,302326,1,8,0:0:0:0:
192,72,302472,1,0,0:0:0:0:
192,72,302619,1,8,0:0:0:0:
176,24,302765,1,8,0:0:0:0:
176,64,302911,1,0,0:0:0:0:
176,64,303204,1,0,0:0:0:0:
152,32,303277,1,8,0:0:0:0:
176,48,303350,1,0,0:0:0:0:
152,32,303424,1,0,0:0:0:0:
176,48,303497,1,8,0:0:0:0:
176,48,303643,1,0,0:0:0:0:
176,48,303789,1,8,0:0:0:0:
152,40,303936,1,0,0:0:0:0:
152,40,304082,1,8,0:0:0:0:
192,104,304375,1,4,0:0:0:0:
152,112,304521,1,0,0:0:0:0:
152,112,304594,1,0,0:0:0:0:
152,112,304667,1,8,0:0:0:0:
192,112,304814,1,0,0:0:0:0:
192,96,304887,1,0,0:0:0:0:
192,112,304960,1,0,0:0:0:0:
192,64,305106,1,0,0:0:0:0:
192,64,305180,1,0,0:0:0:0:
192,64,305253,1,8,0:0:0:0:
192,64,305326,1,0,0:0:0:0:
192,64,305472,1,8,0:0:0:0:
176,48,305545,1,0,0:0:0:0:
208,120,305619,1,0,0:0:0:0:
208,120,305692,1,0,0:0:0:0:
208,120,305765,1,0,0:0:0:0:
208,120,305838,1,0,0:0:0:0:
192,64,305984,1,0,0:0:0:0:
192,64,306058,1,0,0:0:0:0:
192,64,306131,1,0,0:0:0:0:
192,64,306277,1,0,0:0:0:0:
192,64,306350,1,8,0:0:0:0:
192,64,306424,1,0,0:0:0:0:
208,64,306497,1,0,0:0:0:0:
168,64,306570,1,8,0:0:0:0:
168,24,306643,1,8,0:0:0:0:
168,32,306716,1,0,0:0:0:0:
160,96,306863,1,0,0:0:0:0:
160,96,306936,1,0,0:0:0:0:
160,96,307009,1,8,0:0:0:0:
160,88,307155,1,0,0:0:0:0:
160,88,307228,1,0,0:0:0:0:
160,88,307302,1,0,0:0:0:0:
184,0,307448,1,0,0:0:0:0:
184,24,307521,1,0,0:0:0:0:
160,88,307594,1,8,0:0:0:0:
152,104,307741,1,0,0:0:0:0:
152,104,307814,1,8,0:0:0:0:
152,104,307887,1,0,0:0:0:0:
152,112,308033,1,0,0:0:0:0:
152,104,308106,1,0,0:0:0:0:
168,96,308180,1,8,0:0:0:0:
168,72,308253,1,0,0:0:0:0:
168,96,308326,1,8,0:0:0:0:
152,64,308399,1,8,0:0:0:0:
152,64,308472,1,0,0:0:0:0:
152,80,308545,1,8,0:0:0:0:
168,72,308692,1,0,0:0:0:0:
152,80,308765,1,8,0:0:0:0:
160,104,308911,1,0,0:0:0:0:
160,104,308984,1,0,0:0:0:0:
160,104,309058,1,0,0:0:0:0:
160,104,309204,1,0,0:0:0:0:
160,104,309277,1,0,0:0:0:0:
160,104,309350,1,8,0:0:0:0:
160,120,309497,5,0,0:0:0:0:
160,120,309570,1,0,0:0:0:0:
160,120,309643,1,0,0:0:0:0:
160,120,309789,1,0,0:0:0:0:
160,120,309863,1,0,0:0:0:0:
160,120,309936,1,8,0:0:0:0:
160,112,310009,1,0,0:0:0:0:
160,104,310155,1,8,0:0:0:0:
160,104,310228,1,0,0:0:0:0:
176,56,310302,1,0,0:0:0:0:
176,56,310375,1,0,0:0:0:0:
176,56,310448,1,0,0:0:0:0:
176,56,310521,1,0,0:0:0:0:
176,96,310667,1,0,0:0:0:0:
176,96,310741,1,0,0:0:0:0:
176,96,310814,1,0,0:0:0:0:
176,96,310960,1,0,0:0:0:0:
176,96,311033,1,8,0:0:0:0:
160,56,311106,1,8,0:0:0:0:
160,56,311253,1,8,0:0:0:0:
160,56,311326,1,8,0:0:0:0:
176,72,311399,1,0,0:0:0:0:
160,72,311545,1,0,0:0:0:0:
160,72,311619,1,0,0:0:0:0:
160,72,311692,1,8,0:0:0:0:
160,80,311765,1,0,0:0:0:0:
160,80,311838,1,8,0:0:0:0:
160,80,311911,1,8,0:0:0:0:
176,40,311984,1,0,0:0:0:0:
208,64,312131,1,0,0:0:0:0:
208,64,312204,1,0,0:0:0:0:
208,64,312277,1,8,0:0:0:0:
144,88,312424,1,8,0:0:0:0:
152,32,312497,1,8,0:0:0:0:
144,88,312570,1,0,0:0:0:0:
160,80,312716,1,0,0:0:0:0:
184,32,312789,1,0,0:0:0:0:
160,80,312863,1,8,0:0:0:0:
160,56,312936,1,0,0:0:0:0:
168,80,313009,1,8,0:0:0:0:
168,80,313082,1,8,0:0:0:0:
160,56,313155,1,0,0:0:0:0:
160,96,313302,1,0,0:0:0:0:
160,96,313375,1,0,0:0:0:0:
160,96,313448,1,8,0:0:0:0:
136,96,313741,1,4,0:0:0:0:
144,96,313887,1,0,0:0:0:0:
144,96,313960,1,0,0:0:0:0:
144,96,314033,1,8,0:0:0:0:
144,96,314106,1,0,0:0:0:0:
144,96,314180,1,0,0:0:0:0:
168,104,314326,1,0,0:0:0:0:
168,104,314472,1,0,0:0:0:0:
168,104,314545,1,0,0:0:0:0:
168,104,314619,1,8,0:0:0:0:
160,112,314692,1,0,0:0:0:0:
160,112,314765,1,0,0:0:0:0:
160,112,314911,1,0,0:0:0:0:
160,96,314984,1,0,0:0:0:0:
160,112,315058,1,0,0:0:0:0:
160,96,315131,1,0,0:0:0:0:
160,96,315204,1,0,0:0:0:0:
160,104,315350,1,0,0:0:0:0:
152,104,315424,1,0,0:0:0:0:
160,104,315497,1,0,0:0:0:0:
152,104,315643,1,0,0:0:0:0:
152,104,315716,1,0,0:0:0:0:
152,104,315789,1,8,0:0:0:0:
160,56,315936,1,8,0:0:0:0:
136,48,316082,1,0,0:0:0:0:
176,56,316228,1,0,0:0:0:0:
176,56,316302,1,0,0:0:0:0:
168,64,316375,1,8,0:0:0:0:
160,64,316448,1,8,0:0:0:0:
176,64,316521,1,0,0:0:0:0:
168,112,316667,1,0,0:0:0:0:
168,112,316814,1,0,0:0:0:0:
168,112,316887,1,0,0:0:0:0:
168,112,316960,1,8,0:0:0:0:
168,112,317033,1,0,0:0:0:0:
168,112,317106,1,8,0:0:0:0:
152,64,317180,1,8,0:0:0:0:
152,72,317253,1,0,0:0:0:0:
152,72,317399,1,0,0:0:0:0:
152,80,317472,1,0,0:0:0:0:
152,72,317545,1,8,0:0:0:0:
168,72,317692,1,8,0:0:0:0:
168,80,317838,1,0,0:0:0:0:
176,144,317911,1,8,0:0:0:0:
176,144,318058,1,0,0:0:0:0:
152,80,318131,1,8,0:0:0:0:
160,96,318277,1,0,0:0:0:0:
160,96,318350,1,0,0:0:0:0:
160,96,318424,1,0,0:0:0:0:
160,88,318570,1,8,0:0:0:0:
160,88,318643,1,0,0:0:0:0:
160,88,318716,1,0,0:0:0:0:
184,56,318863,1,8,0:0:0:0:
184,56,318936,1,0,0:0:0:0:
160,80,319009,1,0,0:0:0:0:
168,96,319155,1,0,0:0:0:0:
168,96,319228,1,0,0:0:0:0:
168,96,319302,1,8,0:0:0:0:
152,72,319594,1,0,0:0:0:0:
160,72,319741,1,8,0:0:0:0:
160,72,319814,1,0,0:0:0:0:
160,72,319887,1,0,0:0:0:0:
168,104,320033,1,0,0:0:0:0:
168,104,320106,1,0,0:0:0:0:
168,104,320180,1,0,0:0:0:0:
160,112,320253,1,8,0:0:0:0:
160,128,320399,1,0,0:0:0:0:
160,128,320472,1,8,0:0:0:0:
160,128,320619,1,0,0:0:0:0:
160,128,320692,1,0,0:0:0:0:
160,128,320765,1,0,0:0:0:0:
160,144,320911,1,0,0:0:0:0:
160,144,320984,1,0,0:0:0:0:
160,144,321058,1,0,0:0:0:0:
160,144,321131,1,0,0:0:0:0:
160,152,321204,1,8,0:0:0:0:
160,152,321350,1,0,0:0:0:0:
160,152,321497,1,0,0:0:0:0:
160,152,321570,1,0,0:0:0:0:
160,152,321643,1,8,0:0:0:0:
160,136,321789,1,0,0:0:0:0:
152,72,321863,1,8,0:0:0:0:
160,72,321936,1,0,0:0:0:0:
160,152,322521,1,8,0:0:0:0:
160,152,322716,1,8,0:0:0:0:
160,152,322911,1,8,0:0:0:0:
238,208,323106,5,4,0:0:0:0:
235,212,323253,1,0,0:0:0:0:
234,212,323326,1,0,0:0:0:0:
234,212,323399,1,8,0:0:0:0:
192,80,323472,1,0,0:0:0:0:
222,203,323545,1,8,0:0:0:0:
192,80,323619,1,8,0:0:0:0:
222,203,323692,1,0,0:0:0:0:
222,203,323838,1,0,0:0:0:0:
221,205,323911,1,0,0:0:0:0:
222,203,323984,1,8,0:0:0:0:
221,205,324058,1,0,0:0:0:0:
221,205,324131,1,0,0:0:0:0:
221,205,324277,1,0,0:0:0:0:
204,126,324424,1,0,0:0:0:0:
204,126,324497,1,0,0:0:0:0:
204,126,324570,1,8,0:0:0:0:
198,126,324643,1,0,0:0:0:0:
204,126,324716,1,0,0:0:0:0:
196,127,324863,1,0,0:0:0:0:
196,127,325009,1,0,0:0:0:0:
196,127,325082,1,0,0:0:0:0:
196,127,325155,1,8,0:0:0:0:
196,127,325302,1,0,0:0:0:0:
184,80,325375,1,8,0:0:0:0:
196,127,325448,1,0,0:0:0:0:
196,127,325594,1,0,0:0:0:0:
198,126,325667,1,0,0:0:0:0:
196,127,325741,1,0,0:0:0:0:
176,24,325814,1,0,0:0:0:0:
196,127,325887,1,8,0:0:0:0:
196,127,325960,1,0,0:0:0:0:
206,57,326033,1,0,0:0:0:0:
192,56,326180,1,0,0:0:0:0:
173,64,326253,1,0,0:0:0:0:
173,64,326326,1,8,0:0:0:0:
187,87,326472,1,8,0:0:0:0:
184,80,326545,1,8,0:0:0:0:
187,87,326619,1,0,0:0:0:0:
187,87,326765,1,0,0:0:0:0:
187,87,326838,1,0,0:0:0:0:
187,87,326911,1,8,0:0:0:0:
184,80,326984,1,0,0:0:0:0:
196,71,327058,1,8,0:0:0:0:
176,16,327131,1,0,0:0:0:0:
196,71,327204,1,8,0:0:0:0:
216,24,327277,1,8,0:0:0:0:
196,71,327350,1,0,0:0:0:0:
194,71,327424,1,8,0:0:0:0:
194,71,327497,1,0,0:0:0:0:
176,16,327570,1,0,0:0:0:0:
191,77,327643,1,8,0:0:0:0:
191,77,327716,1,8,0:0:0:0:
191,79,327789,1,0,0:0:0:0:
176,40,327936,1,0,0:0:0:0:
184,32,328009,1,0,0:0:0:0:
184,32,328082,1,8,0:0:0:0:
200,48,328155,1,0,0:0:0:0:
184,24,328228,1,8,0:0:0:0:
200,48,328302,1,8,0:0:0:0:
200,32,328375,1,0,0:0:0:0:
168,56,328521,1,0,0:0:0:0:
160,16,328594,1,0,0:0:0:0:
168,56,328667,1,8,0:0:0:0:
160,16,328741,1,8,0:0:0:0:
184,32,328814,1,0,0:0:0:0:
184,32,328960,1,0,0:0:0:0:
232,80,329106,1,0,0:0:0:0:
232,80,329180,1,0,0:0:0:0:
216,80,329253,1,0,0:0:0:0:
200,56,329399,1,0,0:0:0:0:
200,56,329472,1,0,0:0:0:0:
200,48,329545,1,0,0:0:0:0:
192,80,329692,1,0,0:0:0:0:
192,80,329765,1,0,0:0:0:0:
192,80,329838,1,8,0:0:0:0:
176,8,329984,1,0,0:0:0:0:
208,56,330058,1,8,0:0:0:0:
184,32,330131,1,0,0:0:0:0:
176,48,330277,1,0,0:0:0:0:
176,48,330350,1,0,0:0:0:0:
160,24,330424,1,0,0:0:0:0:
168,32,330497,1,0,0:0:0:0:
160,40,330570,1,8,0:0:0:0:
168,32,330643,1,8,0:0:0:0:
160,40,330716,1,0,0:0:0:0:
184,56,330863,1,0,0:0:0:0:
184,56,330936,1,0,0:0:0:0:
184,56,331009,1,8,0:0:0:0:
216,72,331155,1,8,0:0:0:0:
216,72,331302,1,0,0:0:0:0:
184,48,331448,1,0,0:0:0:0:
184,56,331521,1,0,0:0:0:0:
184,48,331594,1,8,0:0:0:0:
168,32,331667,1,0,0:0:0:0:
192,56,331741,1,8,0:0:0:0:
176,40,331814,1,0,0:0:0:0:
160,32,331887,1,8,0:0:0:0:
176,40,331960,1,8,0:0:0:0:
184,56,332033,1,8,0:0:0:0:
176,24,332106,1,0,0:0:0:0:
176,48,332180,1,8,0:0:0:0:
272,64,332326,1,8,0:0:0:0:
264,64,332375,1,8,0:0:0:0:
264,64,332424,1,8,0:0:0:0:
184,48,332472,1,0,0:0:0:0:
224,64,332619,1,0,0:0:0:0:
224,64,332692,1,0,0:0:0:0:
224,64,332765,1,8,0:0:0:0:
200,64,332911,1,8,0:0:0:0:
200,64,333058,1,0,0:0:0:0:
224,96,333350,1,8,0:0:0:0:
184,64,333424,1,8,0:0:0:0:
184,64,333497,1,0,0:0:0:0:
176,16,333643,1,0,0:0:0:0:
184,16,333789,1,0,0:0:0:0:
184,16,333863,1,0,0:0:0:0:
184,16,333936,1,8,0:0:0:0:
208,64,334009,1,8,0:0:0:0:
208,64,334082,1,0,0:0:0:0:
192,24,334155,1,8,0:0:0:0:
208,64,334228,1,0,0:0:0:0:
208,80,334375,1,0,0:0:0:0:
208,80,334448,1,0,0:0:0:0:
208,80,334521,1,8,0:0:0:0:
176,32,334667,1,0,0:0:0:0:
176,32,334741,1,8,0:0:0:0:
176,32,334814,1,0,0:0:0:0:
192,72,334960,1,0,0:0:0:0:
192,72,335033,1,0,0:0:0:0:
192,72,335106,1,0,0:0:0:0:
192,72,335180,1,0,0:0:0:0:
192,72,335253,1,8,0:0:0:0:
192,24,335326,1,8,0:0:0:0:
200,104,335399,1,0,0:0:0:0:
200,104,335545,1,0,0:0:0:0:
200,104,335619,1,0,0:0:0:0:
200,104,335692,1,8,0:0:0:0:
168,0,335765,1,0,0:0:0:0:
200,104,335838,1,8,0:0:0:0:
176,8,335911,1,8,0:0:0:0:
200,104,335984,1,0,0:0:0:0:
168,48,336131,1,0,0:0:0:0:
168,48,336204,1,0,0:0:0:0:
176,24,336277,1,8,0:0:0:0:
192,24,336350,1,0,0:0:0:0:
168,48,336424,1,8,0:0:0:0:
192,48,336497,1,0,0:0:0:0:
208,64,336570,1,8,0:0:0:0:
192,24,336643,1,8,0:0:0:0:
192,40,336716,1,0,0:0:0:0:
192,40,336789,1,8,0:0:0:0:
192,40,336863,1,0,0:0:0:0:
184,48,336936,1,0,0:0:0:0:
192,40,337009,1,8,0:0:0:0:
272,136,337082,1,8,0:0:0:0:
168,24,337155,1,0,0:0:0:0:
208,160,337302,1,0,0:0:0:0:
208,160,337375,1,0,0:0:0:0:
208,160,337448,1,8,0:0:0:0:
192,24,337521,1,0,0:0:0:0:
176,56,337594,1,8,0:0:0:0:
192,24,337667,1,8,0:0:0:0:
176,56,337741,1,0,0:0:0:0:
192,96,337887,1,0,0:0:0:0:
192,104,337960,1,0,0:0:0:0:
192,96,338033,1,8,0:0:0:0:
192,48,338106,1,0,0:0:0:0:
200,48,338180,1,0,0:0:0:0:
200,48,338326,1,0,0:0:0:0:
160,48,338472,1,0,0:0:0:0:
144,40,338545,1,0,0:0:0:0:
160,48,338619,1,8,0:0:0:0:
184,48,338692,1,0,0:0:0:0:
160,48,338765,1,8,0:0:0:0:
192,24,338838,1,8,0:0:0:0:
176,32,338911,1,0,0:0:0:0:
288,64,338960,1,0,0:0:0:0:
288,64,339009,1,0,0:0:0:0:
288,64,339058,1,0,0:0:0:0:
280,56,339131,1,0,0:0:0:0:
272,64,339204,1,8,0:0:0:0:
176,32,339277,1,8,0:0:0:0:
176,32,339350,1,0,0:0:0:0:
160,40,339497,1,8,0:0:0:0:
144,32,339789,1,0,0:0:0:0:
144,32,339936,1,0,0:0:0:0:
152,40,340082,1,8,0:0:0:0:
192,48,340375,1,0,0:0:0:0:
192,48,340521,1,0,0:0:0:0:
176,48,340667,1,8,0:0:0:0:
176,48,340814,1,8,0:0:0:0:
176,48,340960,1,0,0:0:0:0:
176,48,341253,1,8,0:0:0:0:
232,32,341399,1,8,0:0:0:0:
232,32,341545,1,8,0:0:0:0:
208,72,341838,1,0,0:0:0:0:
192,64,341984,1,0,0:0:0:0:
192,64,342058,1,0,0:0:0:0:
192,64,342131,1,8,0:0:0:0:
120,72,342277,1,0,0:0:0:0:
120,72,342350,1,0,0:0:0:0:
120,72,342424,1,0,0:0:0:0:
120,72,342497,1,8,0:0:0:0:
120,72,342570,1,0,0:0:0:0:
224,64,342716,1,8,0:0:0:0:
224,64,342863,1,8,0:0:0:0:
176,24,342936,1,8,0:0:0:0:
224,64,343009,1,0,0:0:0:0:
216,32,343155,1,0,0:0:0:0:
216,32,343302,1,8,0:0:0:0:
184,56,343375,1,8,0:0:0:0:
184,56,343448,1,0,0:0:0:0:
184,56,343521,1,0,0:0:0:0:
184,56,343594,1,8,0:0:0:0:
208,48,343741,1,0,0:0:0:0:
208,48,343814,1,8,0:0:0:0:
208,48,343887,1,0,0:0:0:0:
184,48,344033,1,8,0:0:0:0:
184,48,344180,1,0,0:0:0:0:
176,56,344326,1,8,0:0:0:0:
176,64,344399,1,8,0:0:0:0:
176,64,344472,1,0,0:0:0:0:
192,48,344619,1,8,0:0:0:0:
176,24,344692,1,0,0:0:0:0:
192,48,344765,1,8,0:0:0:0:
176,24,344911,1,0,0:0:0:0:
168,32,344984,1,0,0:0:0:0:
168,32,345058,1,8,0:0:0:0:
168,16,345131,1,8,0:0:0:0:
168,16,345204,1,0,0:0:0:0:
184,16,345350,1,8,0:0:0:0:
168,64,345497,1,0,0:0:0:0:
168,64,345570,1,8,0:0:0:0:
168,64,345643,1,0,0:0:0:0:
168,64,345789,1,0,0:0:0:0:
168,64,345936,1,0,0:0:0:0:
184,32,346009,1,8,0:0:0:0:
160,40,346082,1,0,0:0:0:0:
184,40,346155,1,0,0:0:0:0:
176,40,346228,1,8,0:0:0:0:
176,32,346375,1,8,0:0:0:0:
176,32,346521,1,0,0:0:0:0:
184,48,346667,1,0,0:0:0:0:
184,56,346741,1,0,0:0:0:0:
184,48,346814,1,8,0:0:0:0:
176,40,346960,1,0,0:0:0:0:
176,40,347033,1,8,0:0:0:0:
176,40,347106,1,0,0:0:0:0:
176,40,347180,1,0,0:0:0:0:
176,40,347253,1,8,0:0:0:0:
192,56,347399,1,8,0:0:0:0:
184,64,347545,1,0,0:0:0:0:
160,32,347619,1,8,0:0:0:0:
184,64,347692,1,0,0:0:0:0:
176,64,347838,1,0,0:0:0:0:
192,64,347984,1,8,0:0:0:0:
200,40,348058,1,8,0:0:0:0:
208,40,348131,1,0,0:0:0:0:
200,40,348204,1,0,0:0:0:0:
200,40,348277,1,8,0:0:0:0:
176,48,348424,1,0,0:0:0:0:
160,40,348497,1,8,0:0:0:0:
176,48,348570,1,0,0:0:0:0:
168,48,348716,1,8,0:0:0:0:
168,48,348863,1,0,0:0:0:0:
184,64,349009,1,8,0:0:0:0:
184,64,349082,1,8,0:0:0:0:
168,56,349155,1,0,0:0:0:0:
176,56,349228,1,0,0:0:0:0:
168,64,349302,1,8,0:0:0:0:
200,40,349448,1,8,0:0:0:0:
184,56,349594,1,0,0:0:0:0:
176,48,349667,1,0,0:0:0:0:
184,72,349741,1,8,0:0:0:0:
176,64,349887,1,8,0:0:0:0:
256,192,350033,12,0,351058,0:0:0:0:
240,136,351204,5,0,0:0:0:0:
200,128,351350,1,0,0:0:0:0:
192,104,351424,1,0,0:0:0:0:
192,112,351570,1,0,0:0:0:0:
192,112,351643,1,8,0:0:0:0:
160,96,351789,1,0,0:0:0:0:
192,112,351863,1,8,0:0:0:0:
176,136,352009,1,0,0:0:0:0:
176,136,352082,1,8,0:0:0:0:
176,144,352228,1,0,0:0:0:0:
224,56,352302,1,8,0:0:0:0:
176,144,352375,1,0,0:0:0:0:
176,64,352521,1,0,0:0:0:0:
176,64,352594,1,0,0:0:0:0:
216,80,352741,1,0,0:0:0:0:
216,80,352814,1,8,0:0:0:0:
224,112,352887,1,0,0:0:0:0:
160,72,352960,1,0,0:0:0:0:
160,72,353033,1,8,0:0:0:0:
160,72,353180,1,0,0:0:0:0:
160,72,353253,1,8,0:0:0:0:
160,80,353399,1,0,0:0:0:0:
160,88,353472,1,8,0:0:0:0:
160,80,353545,1,0,0:0:0:0:
168,104,353692,1,0,0:0:0:0:
168,104,353765,1,0,0:0:0:0:
168,104,353911,1,0,0:0:0:0:
160,96,353984,1,8,0:0:0:0:
168,104,354131,1,0,0:0:0:0:
160,104,354204,1,8,0:0:0:0:
224,112,354277,1,0,0:0:0:0:
168,104,354350,1,0,0:0:0:0:
160,104,354424,1,8,0:0:0:0:
184,128,354570,1,0,0:0:0:0:
184,128,354643,1,8,0:0:0:0:
184,128,354716,1,0,0:0:0:0:
184,128,354863,1,0,0:0:0:0:
184,128,354936,1,0,0:0:0:0:
184,128,355082,1,0,0:0:0:0:
192,104,355155,1,8,0:0:0:0:
176,80,355228,1,0,0:0:0:0:
192,104,355302,1,0,0:0:0:0:
192,104,355375,1,8,0:0:0:0:
176,80,355448,1,0,0:0:0:0:
192,104,355521,1,0,0:0:0:0:
192,104,355594,1,8,0:0:0:0:
192,128,355741,1,0,0:0:0:0:
192,128,355814,1,8,0:0:0:0:
192,128,355887,1,0,0:0:0:0:
192,136,356033,1,0,0:0:0:0:
192,136,356106,1,0,0:0:0:0:
168,48,356253,1,0,0:0:0:0:
176,112,356326,1,8,0:0:0:0:
168,56,356472,1,0,0:0:0:0:
168,64,356545,1,8,0:0:0:0:
168,64,356692,1,0,0:0:0:0:
168,64,356765,1,8,0:0:0:0:
184,64,356911,1,0,0:0:0:0:
184,64,356984,1,8,0:0:0:0:
184,64,357058,1,0,0:0:0:0:
184,80,357204,1,0,0:0:0:0:
184,80,357277,1,0,0:0:0:0:
184,80,357424,1,0,0:0:0:0:
184,80,357497,1,8,0:0:0:0:
168,120,357570,1,0,0:0:0:0:
176,88,357643,1,0,0:0:0:0:
184,80,357716,1,8,0:0:0:0:
176,88,357863,1,0,0:0:0:0:
184,80,357936,1,8,0:0:0:0:
184,112,358082,1,0,0:0:0:0:
168,64,358155,1,8,0:0:0:0:
184,80,358228,1,0,0:0:0:0:
192,104,358375,1,0,0:0:0:0:
192,104,358448,1,0,0:0:0:0:
168,48,358594,1,0,0:0:0:0:
168,48,358667,1,8,0:0:0:0:
176,80,358814,1,0,0:0:0:0:
176,80,358887,1,8,0:0:0:0:
168,120,358960,1,0,0:0:0:0:
184,64,359033,1,0,0:0:0:0:
184,64,359106,1,8,0:0:0:0:
184,72,359253,1,0,0:0:0:0:
184,80,359326,1,8,0:0:0:0:
184,80,359399,1,0,0:0:0:0:
208,120,359545,1,0,0:0:0:0:
208,120,359619,1,0,0:0:0:0:
176,96,359765,1,0,0:0:0:0:
176,96,359838,1,8,0:0:0:0:
168,120,359911,1,0,0:0:0:0:
168,128,359984,1,0,0:0:0:0:
168,104,360058,1,8,0:0:0:0:
168,120,360131,1,0,0:0:0:0:
168,128,360204,1,0,0:0:0:0:
168,104,360277,1,8,0:0:0:0:
184,112,360424,1,0,0:0:0:0:
184,112,360497,1,8,0:0:0:0:
184,112,360570,1,0,0:0:0:0:
168,120,360716,1,0,0:0:0:0:
168,120,360789,1,0,0:0:0:0:
168,120,360863,1,8,0:0:0:0:
168,120,361009,1,0,0:0:0:0:
168,120,361082,1,8,0:0:0:0:
168,120,361155,1,0,0:0:0:0:
168,72,361228,1,0,0:0:0:0:
168,80,361302,1,0,0:0:0:0:
168,80,361375,1,0,0:0:0:0:
184,96,361448,1,8,0:0:0:0:
168,128,361594,1,0,0:0:0:0:
168,128,361667,1,8,0:0:0:0:
168,128,361741,1,0,0:0:0:0:
176,144,361887,1,0,0:0:0:0:
176,144,362033,1,8,0:0:0:0:
168,88,362106,1,0,0:0:0:0:
168,88,362180,1,0,0:0:0:0:
168,88,362253,1,0,0:0:0:0:
168,88,362326,1,8,0:0:0:0:
176,80,362472,1,0,0:0:0:0:
184,48,362545,1,0,0:0:0:0:
176,80,362619,1,0,0:0:0:0:
184,104,362765,1,0,0:0:0:0:
184,104,362838,1,8,0:0:0:0:
184,104,362911,1,0,0:0:0:0:
184,112,363058,1,0,0:0:0:0:
184,112,363131,1,8,0:0:0:0:
184,112,363204,1,0,0:0:0:0:
160,104,363277,1,0,0:0:0:0:
176,96,363350,1,8,0:0:0:0:
152,24,363424,1,0,0:0:0:0:
176,96,363497,1,8,0:0:0:0:
192,88,363643,1,0,0:0:0:0:
192,88,363716,1,0,0:0:0:0:
192,88,363789,1,8,0:0:0:0:
152,112,363936,1,0,0:0:0:0:
152,112,364009,1,8,0:0:0:0:
152,112,364082,1,0,0:0:0:0:
144,120,364228,1,0,0:0:0:0:
144,128,364302,1,0,0:0:0:0:
144,128,364375,1,8,0:0:0:0:
152,96,364521,1,0,0:0:0:0:
208,80,364594,1,8,0:0:0:0:
152,96,364667,1,0,0:0:0:0:
208,80,364741,1,0,0:0:0:0:
208,80,364814,1,8,0:0:0:0:
160,80,364960,1,0,0:0:0:0:
160,80,365033,1,8,0:0:0:0:
160,80,365106,1,0,0:0:0:0:
160,80,365180,1,8,0:0:0:0:
160,80,365253,1,0,0:0:0:0:
176,96,365399,1,0,0:0:0:0:
176,96,365472,1,0,0:0:0:0:
176,96,365545,1,8,0:0:0:0:
176,72,365619,1,0,0:0:0:0:
176,72,365692,1,8,0:0:0:0:
176,72,365765,1,8,0:0:0:0:
176,72,365838,1,0,0:0:0:0:
160,88,365911,1,0,0:0:0:0:
160,88,365984,1,0,0:0:0:0:
160,88,366131,1,8,0:0:0:0:
176,80,366277,1,0,0:0:0:0:
176,80,366350,1,8,0:0:0:0:
176,80,366424,1,0,0:0:0:0:
176,32,366570,1,0,0:0:0:0:
184,104,366716,1,8,0:0:0:0:
168,64,366789,1,0,0:0:0:0:
168,64,366863,1,8,0:0:0:0:
168,64,366936,1,0,0:0:0:0:
168,64,367009,1,8,0:0:0:0:
208,64,367155,1,0,0:0:0:0:
208,64,367228,1,8,0:0:0:0:
208,64,367302,1,0,0:0:0:0:
200,56,367448,1,8,0:0:0:0:
200,56,367521,1,0,0:0:0:0:
200,56,367594,1,0,0:0:0:0:
160,64,367741,1,0,0:0:0:0:
160,64,367814,1,8,0:0:0:0:
160,64,367887,1,0,0:0:0:0:
136,112,367960,1,0,0:0:0:0:
136,112,368033,1,8,0:0:0:0:
136,112,368106,1,0,0:0:0:0:
136,112,368180,1,8,0:0:0:0:
168,64,368326,1,0,0:0:0:0:
168,64,368399,1,0,0:0:0:0:
168,64,368472,1,8,0:0:0:0:
160,88,368545,1,0,0:0:0:0:
168,64,368619,1,8,0:0:0:0:
160,72,368692,1,0,0:0:0:0:
168,64,368765,1,8,0:0:0:0:
160,80,368911,1,0,0:0:0:0:
160,80,368984,1,8,0:0:0:0:
160,80,369058,1,0,0:0:0:0:
176,96,369204,1,8,0:0:0:0:
176,96,369350,1,0,0:0:0:0:
168,96,369424,1,0,0:0:0:0:
168,96,369497,1,0,0:0:0:0:
168,96,369570,1,0,0:0:0:0:
168,96,369643,1,8,0:0:0:0:
168,96,369789,1,0,0:0:0:0:
168,96,369863,1,8,0:0:0:0:
168,96,369936,1,0,0:0:0:0:
192,72,370082,1,0,0:0:0:0:
224,120,370228,1,8,0:0:0:0:
224,120,370302,1,8,0:0:0:0:
224,120,370375,1,0,0:0:0:0:
224,120,370448,1,0,0:0:0:0:
224,120,370521,1,8,0:0:0:0:
192,80,370814,1,0,0:0:0:0:
168,72,370960,1,8,0:0:0:0:
168,72,371033,1,8,0:0:0:0:
168,72,371106,1,0,0:0:0:0:
184,56,371253,1,0,0:0:0:0:
184,56,371399,1,0,0:0:0:0:
184,56,371545,1,0,0:0:0:0:
152,56,371692,1,8,0:0:0:0:
200,120,371984,1,0,0:0:0:0:
200,120,372131,1,8,0:0:0:0:
200,80,372204,1,8,0:0:0:0:
200,120,372277,1,0,0:0:0:0:
184,120,372424,1,0,0:0:0:0:
184,120,372570,1,0,0:0:0:0:
206,70,372643,1,0,0:0:0:0:
192,96,372716,1,0,0:0:0:0:
223,67,372789,1,0,0:0:0:0:
192,96,372863,1,8,0:0:0:0:
192,96,373155,1,0,0:0:0:0:
192,96,373302,1,8,0:0:0:0:
160,104,373375,1,8,0:0:0:0:
160,104,373448,1,0,0:0:0:0:
168,128,373594,1,8,0:0:0:0:
168,128,373741,1,0,0:0:0:0:
168,128,373887,1,0,0:0:0:0:
168,128,374033,1,8,0:0:0:0:
184,168,374326,1,0,0:0:0:0:
184,168,374472,1,8,0:0:0:0:
184,168,374619,1,0,0:0:0:0:
184,112,374765,1,0,0:0:0:0:
208,120,374911,1,0,0:0:0:0:
184,112,374984,1,0,0:0:0:0:
208,120,375058,1,0,0:0:0:0:
184,112,375131,1,0,0:0:0:0:
208,120,375204,1,8,0:0:0:0:
184,136,375497,1,0,0:0:0:0:
184,136,375643,1,0,0:0:0:0:
184,144,375716,1,0,0:0:0:0:
184,136,375789,1,0,0:0:0:0:
184,88,375936,1,8,0:0:0:0:
184,104,376082,1,0,0:0:0:0:
184,104,376228,1,0,0:0:0:0:
184,104,376375,1,8,0:0:0:0:
160,104,376667,1,0,0:0:0:0:
160,104,376814,1,8,0:0:0:0:
160,104,376960,1,0,0:0:0:0:
176,120,377253,1,0,0:0:0:0:
176,120,377399,1,0,0:0:0:0:
176,120,377545,1,8,0:0:0:0:
176,120,377838,1,8,0:0:0:0:
176,120,377984,1,8,0:0:0:0:
216,72,378131,1,0,0:0:0:0:
211,90,378277,1,0,0:0:0:0:
211,90,378424,1,8,0:0:0:0:
211,90,378570,1,0,0:0:0:0:
256,192,378863,12,0,379887,0:0:0:0:
