osu file format v14

[General]
AudioFilename: audio.mp3
AudioLeadIn: 0
PreviewTime: 94753
Countdown: 0
SampleSet: Normal
StackLeniency: 0.7
Mode: 1
LetterboxInBreaks: 0
WidescreenStoryboard: 1

[Editor]
DistanceSpacing: 1.3
BeatDivisor: 4
GridSize: 16
TimelineZoom: 1.8

[Metadata]
Title:think abt it w/ ppgcasper
TitleUnicode:think abt it w/ ppgcasper
Artist:oaf1
ArtistUnicode:oaf1
Creator:Furiiii
Version:muzukashii
Source:
Tags:oaafyy about with hyperpop hyper pop english
BeatmapID:4020919
BeatmapSetID:1943709

[Difficulty]
HPDrainRate:7
CircleSize:2
OverallDifficulty:4.5
ApproachRate:10
SliderMultiplier:1.4
SliderTickRate:1

[Events]
//Background and Video events
0,0,"bg.jpg",0,60
//Break Periods
2,84360,94397
//Storyboard Layer 0 (Background)
//Storyboard Layer 1 (Fail)
//Storyboard Layer 2 (Pass)
//Storyboard Layer 3 (Foreground)
//Storyboard Layer 4 (Overlay)
//Storyboard Sound Samples

[TimingPoints]
160,375,4,1,0,70,1,0
160,-133.333333333333,4,1,0,70,0,0
21154,-133.167584935264,4,1,0,70,0,0
21341,-132.383146384323,4,1,0,70,0,0
22091,-126.089963914749,4,1,0,70,0,0
22279,-124.019226846439,4,1,0,70,0,0
22466,-121.835969207146,4,1,0,70,0,0
22654,-119.543656366216,4,1,0,70,0,0
23029,-114.769565305399,4,1,0,80,0,0
23216,-112.326259669048,4,1,0,80,0,0
23404,-109.849165116392,4,1,0,80,0,0
23591,-107.377885330886,4,1,0,80,0,0
23779,-104.89749174736,4,1,0,80,0,0
23966,-102.444152006065,4,1,0,80,0,0
24154,-100,4,1,0,80,0,0
34654,-99.1716115386875,4,1,0,80,0,0
35029,-95.9990900560184,4,1,0,80,0,0
35216,-95.0595354575805,4,1,0,80,0,0
35404,-93.0232558139535,4,1,0,80,0,0
35591,-91.6071961577077,4,1,0,80,0,0
35779,-90.226367693829,4,1,0,80,0,0
35872,-89.5585738539898,4,1,0,80,0,0
35966,-88.8935699615567,4,1,0,80,0,0
36160,-87.5927559545431,4,1,0,90,0,1
45159,-87.6512082495255,4,1,0,90,0,1
45534,-90.5366653011061,4,1,0,90,0,1
45909,-93.6185663711459,4,1,0,90,0,1
46096,-95.2351637527703,4,1,0,90,0,1
46190,-96.0690554555052,4,1,0,90,0,1
46284,-96.9176794887859,4,1,0,90,0,1
46471,-98.6512769824315,4,1,0,90,0,1
46659,-100.457807071658,4,1,0,90,0,1
47034,-104.266361124217,4,1,0,90,0,1
47221,-106.275547006492,4,1,0,90,0,1
47409,-108.37507443343,4,1,0,90,0,1
47596,-110.547377447478,4,1,0,90,0,1
47784,-112.820886814469,4,1,0,90,0,1
47877,-113.98047522564,4,1,0,90,0,1
47971,-115.177009269255,4,1,0,90,0,1
48160,-117.647058823529,4,1,0,70,0,0
60061,-108.695652173913,4,1,0,70,0,0
72061,-95.2380952380952,4,1,0,80,0,0
82654,-94.295168762409,4,1,0,80,0,0
83029,-92.4594419208306,4,1,0,80,0,0
83404,-90.693825588797,4,1,0,80,0,0
83591,-89.8383313576635,4,1,0,80,0,0
83779,-88.9943785134291,4,1,0,80,0,0
83872,-88.5827261197185,4,1,0,80,0,0
83966,-88.1704992697839,4,1,0,80,0,0
84154,-87.3574494175353,4,1,0,80,0,0
85042,-117.647058823529,4,1,0,80,0,0
94841,-112.688753662384,4,1,0,80,0,0
95029,-108.108108108108,4,1,0,80,0,0
95216,-103.906899418121,4,1,0,80,0,0
95404,-100,4,1,0,80,0,0
95591,-96.3948332369385,4,1,0,80,0,0
95779,-93.0232558139535,4,1,0,80,0,0
95966,-84.2223469960696,4,1,0,80,0,0
96160,-86.9565217391304,4,1,0,90,0,1
105159,-87.3024830699774,4,1,0,90,0,1
105534,-88.7104867034621,4,1,0,90,0,1
105909,-90.1646510272476,4,1,0,90,0,1
106096,-90.9077553658788,4,1,0,90,0,1
106190,-91.2859397819641,4,1,0,90,0,1
106284,-91.6672839048959,4,1,0,90,0,1
106471,-92.4354684512428,4,1,0,90,0,1
106659,-93.2208496535101,4,1,0,90,0,1
107034,-94.8279825300743,4,1,0,90,0,1
107221,-95.6502921445575,4,1,0,90,0,1
107409,-96.4915016372993,4,1,0,90,0,1
107596,-97.3430445657475,4,1,0,90,0,1
107784,-98.2144274263947,4,1,0,90,0,1
107877,-98.6512769824315,4,1,0,90,0,1
107971,-99.0967907244891,4,1,0,90,0,1
108160,-100,4,1,0,70,0,0
120154,-100,4,1,0,70,0,0
120904,-101.587301587302,4,1,0,70,0,0
121279,-102.4,4,1,0,70,0,0
121378,-102.4,4,1,0,70,0,0
121654,-103.225806451613,4,1,0,70,0,0
121841,-103.642605747846,4,1,0,70,0,0
122216,-104.488658626845,4,1,0,70,0,0
122404,-104.918032786885,4,1,0,70,0,0
122591,-105.348638149376,4,1,0,70,0,0
122779,-105.785123966942,4,1,0,70,0,0
122966,-106.222891033018,4,1,0,70,0,0
123154,-106.666666666667,4,1,0,70,0,0
123904,-108.474576271186,4,1,0,70,0,0
124091,-108.93493407167,4,1,0,70,0,0
124279,-109.401709401709,4,1,0,70,0,0
124654,-110.344827586207,4,1,0,70,0,0
124841,-110.821231500935,4,1,0,70,0,0
125216,-111.789091247846,4,1,0,70,0,0
125404,-112.280701754386,4,1,0,70,0,0
125591,-112.774005591711,4,1,0,70,0,0
125779,-113.274336283186,4,1,0,70,0,0
125966,-113.776429316393,4,1,0,70,0,0
126154,-114.285714285714,4,1,0,70,0,0
126904,-116.363636363636,4,1,0,70,0,0
127279,-117.43119266055,4,1,0,70,0,0
127378,-117.43119266055,4,1,0,70,0,0
127654,-118.518518518519,4,1,0,70,0,0
127841,-119.068290625853,4,1,0,70,0,0
128217,-120.189298144578,4,1,0,70,0,0
128404,-120.754716981132,4,1,0,70,0,0
128591,-121.325480878599,4,1,0,70,0,0
128779,-121.904761904762,4,1,0,70,0,0
128967,-122.489601143236,4,1,0,70,0,0
129154,-123.076923076923,4,1,0,70,0,0
129904,-125.490196078431,4,1,0,70,0,0
130091,-126.106717809947,4,1,0,70,0,0
130279,-126.732673267327,4,1,0,70,0,0
130654,-128,4,1,0,70,0,0
131029,-129.292929292929,4,1,0,70,0,0
131404,-130.612244897959,4,1,0,70,0,0
131779,-131.958762886598,4,1,0,70,0,0
132154,-133.333333333333,4,1,0,70,0,0

[HitObjects]
256,192,12160,5,0,0:0:0:0:
256,192,12535,1,8,0:0:0:0:
256,192,13285,1,0,0:0:0:0:
256,192,15160,1,0,0:0:0:0:
256,192,16660,1,8,0:0:0:0:
256,192,18160,1,0,0:0:0:0:
256,192,18535,1,8,0:0:0:0:
256,192,19285,1,0,0:0:0:0:
256,192,21160,1,8,0:0:0:0:
256,192,21347,1,8,0:0:0:0:
256,192,22097,1,0,0:0:0:0:
256,192,22285,1,8,0:0:0:0:
256,192,22472,1,0,0:0:0:0:
256,192,23035,1,0,0:0:0:0:
256,192,23222,1,8,0:0:0:0:
256,192,23410,1,0,0:0:0:0:
256,192,23597,1,0,0:0:0:0:
256,192,23785,1,8,0:0:0:0:
256,192,24160,1,0,0:0:0:0:
256,192,24535,1,8,0:0:0:0:
256,192,24910,1,0,0:0:0:0:
256,192,25097,1,0,0:0:0:0:
256,192,25285,1,8,0:0:0:0:
256,192,25472,1,8,0:0:0:0:
256,192,25660,1,0,0:0:0:0:
256,192,26035,1,8,0:0:0:0:
256,192,26410,1,0,0:0:0:0:
256,192,26597,1,8,0:0:0:0:
256,192,26972,1,0,0:0:0:0:
256,192,27160,1,8,0:0:0:0:
256,192,27535,1,8,0:0:0:0:
256,192,28097,1,0,0:0:0:0:
256,192,28285,1,8,0:0:0:0:
256,192,28472,1,8,0:0:0:0:
256,192,28660,1,0,0:0:0:0:
256,192,29035,1,8,0:0:0:0:
256,192,29410,1,0,0:0:0:0:
256,192,29597,1,8,0:0:0:0:
256,192,29785,1,0,0:0:0:0:
256,192,29878,1,0,0:0:0:0:
256,192,29972,1,0,0:0:0:0:
256,192,30160,1,8,0:0:0:0:
256,192,30535,1,8,0:0:0:0:
256,192,30910,1,0,0:0:0:0:
256,192,31097,1,8,0:0:0:0:
256,192,31285,1,8,0:0:0:0:
256,192,31472,1,0,0:0:0:0:
256,192,31660,1,0,0:0:0:0:
256,192,32035,1,8,0:0:0:0:
256,192,32410,1,0,0:0:0:0:
256,192,32597,1,8,0:0:0:0:
256,192,32972,1,8,0:0:0:0:
256,192,33160,1,0,0:0:0:0:
256,192,33535,1,8,0:0:0:0:
256,192,34097,1,0,0:0:0:0:
256,192,34285,1,0,0:0:0:0:
256,192,34472,1,8,0:0:0:0:
256,192,34660,1,0,0:0:0:0:
256,192,35035,1,0,0:0:0:0:
256,192,35410,1,8,0:0:0:0:
256,192,35597,1,8,0:0:0:0:
256,192,35785,1,0,0:0:0:0:
256,192,35878,1,0,0:0:0:0:
256,192,35972,1,0,0:0:0:0:
256,192,36160,1,8,0:0:0:0:
256,192,36535,1,8,0:0:0:0:
256,192,36910,1,0,0:0:0:0:
256,192,37097,1,8,0:0:0:0:
256,176,37191,1,8,0:0:0:0:
256,176,37285,1,8,0:0:0:0:
256,192,37472,1,0,0:0:0:0:
256,192,37660,1,8,0:0:0:0:
256,192,38035,1,8,0:0:0:0:
256,192,38410,1,0,0:0:0:0:
256,192,38597,1,8,0:0:0:0:
276,203,38691,1,8,0:0:0:0:
256,192,38785,1,8,0:0:0:0:
256,192,38972,1,8,0:0:0:0:
256,192,39160,1,0,0:0:0:0:
256,192,39910,1,0,0:0:0:0:
256,192,40097,1,8,0:0:0:0:
256,176,40191,1,8,0:0:0:0:
256,176,40285,1,8,0:0:0:0:
256,192,40472,1,8,0:0:0:0:
256,192,40660,1,0,0:0:0:0:
256,192,40847,1,0,0:0:0:0:
256,192,41035,1,8,0:0:0:0:
256,192,41410,1,0,0:0:0:0:
256,192,41597,1,8,0:0:0:0:
256,192,41785,1,0,0:0:0:0:
256,192,41878,1,0,0:0:0:0:
256,192,41972,1,0,0:0:0:0:
256,192,42160,1,0,0:0:0:0:
256,192,42535,1,8,0:0:0:0:
256,192,42910,1,0,0:0:0:0:
256,192,43097,1,8,0:0:0:0:
256,192,43285,1,0,0:0:0:0:
256,192,43472,1,8,0:0:0:0:
256,192,43660,1,0,0:0:0:0:
256,192,44035,1,8,0:0:0:0:
256,192,44410,1,0,0:0:0:0:
256,192,44597,1,8,0:0:0:0:
256,192,44785,1,0,0:0:0:0:
256,192,45160,1,8,0:0:0:0:
256,192,45535,1,8,0:0:0:0:
256,192,45910,1,0,0:0:0:0:
256,192,46097,1,8,0:0:0:0:
256,176,46191,1,8,0:0:0:0:
256,176,46285,1,8,0:0:0:0:
256,192,46472,1,8,0:0:0:0:
256,192,46660,1,0,0:0:0:0:
256,192,47035,1,0,0:0:0:0:
256,192,47222,1,0,0:0:0:0:
256,192,47410,1,8,0:0:0:0:
256,192,47597,1,8,0:0:0:0:
256,192,47785,1,0,0:0:0:0:
256,192,47878,1,0,0:0:0:0:
256,192,47972,1,0,0:0:0:0:
256,192,48535,1,8,0:0:0:0:
256,192,49285,1,0,0:0:0:0:
256,192,51160,1,0,0:0:0:0:
256,192,52660,1,8,0:0:0:0:
256,192,54160,1,0,0:0:0:0:
256,192,54535,1,8,0:0:0:0:
256,192,55285,1,0,0:0:0:0:
256,192,57160,1,0,0:0:0:0:
256,192,58660,1,8,0:0:0:0:
256,192,59410,1,0,0:0:0:0:
256,192,60535,1,0,0:0:0:0:
256,192,60722,1,0,0:0:0:0:
256,192,60910,1,8,0:0:0:0:
256,192,61097,1,0,0:0:0:0:
256,192,62035,1,0,0:0:0:0:
256,192,62222,1,0,0:0:0:0:
272,192,62410,1,8,0:0:0:0:
272,192,62785,1,0,0:0:0:0:
272,192,62972,1,8,0:0:0:0:
272,192,63535,1,0,0:0:0:0:
272,192,63722,1,8,0:0:0:0:
272,192,64097,1,8,0:0:0:0:
272,192,64472,1,0,0:0:0:0:
64,64,64848,1,0,0:0:0:0:
448,64,65035,1,8,0:0:0:0:
64,64,65223,1,0,0:0:0:0:
272,192,65410,1,0,0:0:0:0:
272,192,65785,1,8,0:0:0:0:
256,192,66535,1,0,0:0:0:0:
256,192,66722,1,0,0:0:0:0:
256,192,66910,1,8,0:0:0:0:
256,192,67097,1,0,0:0:0:0:
256,192,68035,1,0,0:0:0:0:
448,64,68223,1,8,0:0:0:0:
272,192,68410,1,8,0:0:0:0:
272,192,68785,1,0,0:0:0:0:
272,192,68972,1,8,0:0:0:0:
272,192,69535,1,0,0:0:0:0:
272,192,69722,1,8,0:0:0:0:
256,192,69910,1,0,0:0:0:0:
272,192,70097,1,8,0:0:0:0:
272,192,70472,1,8,0:0:0:0:
272,192,70847,1,8,0:0:0:0:
272,192,71222,1,0,0:0:0:0:
272,192,71597,1,8,0:0:0:0:
288,192,71972,1,8,0:0:0:0:
288,192,72160,1,4,0:0:0:0:
288,192,72535,1,8,0:0:0:0:
288,192,72722,1,0,0:0:0:0:
288,192,72816,1,0,0:0:0:0:
288,192,73097,1,8,0:0:0:0:
288,192,73285,1,0,0:0:0:0:
288,192,73660,1,0,0:0:0:0:
288,192,73847,1,0,0:0:0:0:
288,192,74035,1,8,0:0:0:0:
288,192,74410,1,8,0:0:0:0:
288,192,74597,1,8,0:0:0:0:
288,192,74785,1,0,0:0:0:0:
288,192,74878,1,0,0:0:0:0:
288,192,74972,1,0,0:0:0:0:
288,192,75160,1,8,0:0:0:0:
288,192,75535,1,0,0:0:0:0:
288,192,75722,1,8,0:0:0:0:
288,192,75816,1,8,0:0:0:0:
192,128,76097,1,0,0:0:0:0:
256,176,76285,1,8,0:0:0:0:
256,176,76660,1,0,0:0:0:0:
224,112,77035,1,8,0:0:0:0:
240,128,77410,1,0,0:0:0:0:
240,128,77597,1,0,0:0:0:0:
240,128,77785,1,8,0:0:0:0:
261,208,77878,1,8,0:0:0:0:
192,112,77972,1,8,0:0:0:0:
192,112,78160,1,0,0:0:0:0:
288,192,78535,1,8,0:0:0:0:
288,192,78722,1,0,0:0:0:0:
288,192,78816,1,0,0:0:0:0:
288,192,79097,1,8,0:0:0:0:
288,192,79285,1,0,0:0:0:0:
288,192,79660,1,0,0:0:0:0:
288,192,79847,1,0,0:0:0:0:
288,192,80035,1,8,0:0:0:0:
288,192,80410,1,8,0:0:0:0:
288,192,80597,1,8,0:0:0:0:
288,192,80785,1,0,0:0:0:0:
288,192,80972,1,0,0:0:0:0:
288,192,81160,1,8,0:0:0:0:
288,192,81535,1,0,0:0:0:0:
288,192,81722,1,8,0:0:0:0:
288,192,81816,1,8,0:0:0:0:
192,128,82097,1,0,0:0:0:0:
256,176,82285,1,8,0:0:0:0:
256,176,82660,1,0,0:0:0:0:
224,112,83035,1,0,0:0:0:0:
240,128,83410,1,0,0:0:0:0:
240,128,83597,1,0,0:0:0:0:
192,112,83785,1,0,0:0:0:0:
224,160,83878,1,0,0:0:0:0:
224,160,83972,1,0,0:0:0:0:
192,112,84160,1,0,0:0:0:0:
240,176,94847,5,0,0:0:0:0:
240,176,95035,1,8,0:0:0:0:
240,176,95222,1,8,0:0:0:0:
240,176,95410,1,0,0:0:0:0:
272,288,95597,1,8,0:0:0:0:
272,240,95785,1,0,0:0:0:0:
240,192,96160,1,8,0:0:0:0:
256,192,96535,1,8,0:0:0:0:
256,192,96910,1,0,0:0:0:0:
256,192,97097,1,8,0:0:0:0:
256,192,97191,1,8,0:0:0:0:
256,192,97285,1,8,0:0:0:0:
256,192,97472,1,0,0:0:0:0:
256,192,97660,1,8,0:0:0:0:
256,192,98035,1,8,0:0:0:0:
256,192,98410,1,0,0:0:0:0:
256,192,98597,1,8,0:0:0:0:
256,192,98691,1,8,0:0:0:0:
256,192,98785,1,8,0:0:0:0:
256,192,98972,1,8,0:0:0:0:
256,192,99160,1,0,0:0:0:0:
256,192,99910,1,0,0:0:0:0:
256,192,100097,1,8,0:0:0:0:
224,128,100191,1,8,0:0:0:0:
224,128,100285,1,8,0:0:0:0:
256,192,100472,1,8,0:0:0:0:
256,192,100660,1,0,0:0:0:0:
256,192,100847,1,0,0:0:0:0:
256,192,101035,1,8,0:0:0:0:
256,192,101410,1,0,0:0:0:0:
256,192,101597,1,8,0:0:0:0:
256,192,101785,1,0,0:0:0:0:
256,192,101878,1,0,0:0:0:0:
256,192,101972,1,0,0:0:0:0:
256,192,102160,1,0,0:0:0:0:
256,192,102535,1,8,0:0:0:0:
256,192,102910,1,0,0:0:0:0:
256,192,103097,1,8,0:0:0:0:
256,192,103285,1,0,0:0:0:0:
256,192,103472,1,8,0:0:0:0:
256,192,103660,1,0,0:0:0:0:
256,192,104035,1,8,0:0:0:0:
256,192,104410,1,0,0:0:0:0:
256,192,104597,1,8,0:0:0:0:
256,192,104785,1,0,0:0:0:0:
256,192,105160,1,8,0:0:0:0:
256,192,105535,1,8,0:0:0:0:
256,192,105910,1,0,0:0:0:0:
256,192,106097,1,8,0:0:0:0:
256,192,106191,1,8,0:0:0:0:
256,192,106285,1,8,0:0:0:0:
256,192,106472,1,8,0:0:0:0:
256,192,106660,1,0,0:0:0:0:
256,192,107035,1,0,0:0:0:0:
256,192,107222,1,0,0:0:0:0:
256,192,107410,1,8,0:0:0:0:
256,192,107597,1,8,0:0:0:0:
256,192,107785,1,0,0:0:0:0:
256,192,107878,1,0,0:0:0:0:
256,192,107972,1,0,0:0:0:0:
256,192,108535,1,0,0:0:0:0:
256,192,108722,1,0,0:0:0:0:
256,192,108910,1,8,0:0:0:0:
256,192,109097,1,0,0:0:0:0:
256,192,110035,1,0,0:0:0:0:
250,232,110222,1,0,0:0:0:0:
272,192,110410,1,8,0:0:0:0:
272,192,110785,1,0,0:0:0:0:
272,192,110972,1,8,0:0:0:0:
208,112,113222,1,0,0:0:0:0:
272,192,113597,1,8,0:0:0:0:
208,144,113972,1,8,0:0:0:0:
256,192,114535,1,0,0:0:0:0:
256,192,114722,1,0,0:0:0:0:
256,192,114910,1,8,0:0:0:0:
256,192,115097,1,0,0:0:0:0:
256,192,116035,1,0,0:0:0:0:
256,192,116222,1,0,0:0:0:0:
272,192,116410,1,8,0:0:0:0:
272,192,116785,1,0,0:0:0:0:
272,192,117160,1,0,0:0:0:0:
272,192,117722,1,8,0:0:0:0:
272,192,118285,1,0,0:0:0:0:
272,192,119035,1,8,0:0:0:0:
192,144,119222,1,0,0:0:0:0:
192,144,119410,1,8,0:0:0:0:
288,192,119597,1,0,0:0:0:0:
272,96,119785,1,8,0:0:0:0:
208,128,120160,1,0,0:0:0:0:
256,208,120910,1,8,0:0:0:0:
256,208,121285,1,8,0:0:0:0:
256,208,121472,1,0,0:0:0:0:
256,208,121847,1,0,0:0:0:0:
256,208,122222,1,0,0:0:0:0:
256,208,122410,1,8,0:0:0:0:
256,224,122785,1,8,0:0:0:0:
256,224,122972,1,8,0:0:0:0:
256,224,123160,1,0,0:0:0:0:
256,224,123910,1,8,0:0:0:0:
256,224,124097,1,0,0:0:0:0:
256,224,124285,1,8,0:0:0:0:
256,192,124847,1,0,0:0:0:0:
256,192,125222,1,0,0:0:0:0:
256,192,125410,1,8,0:0:0:0:
448,64,125785,1,8,0:0:0:0:
256,144,125972,1,8,0:0:0:0:
256,144,126160,1,0,0:0:0:0:
256,208,126910,1,8,0:0:0:0:
256,208,127285,1,8,0:0:0:0:
272,224,127472,1,0,0:0:0:0:
256,208,127847,1,0,0:0:0:0:
448,64,128223,1,0,0:0:0:0:
256,208,128410,1,8,0:0:0:0:
256,224,128785,1,8,0:0:0:0:
64,64,128973,1,0,0:0:0:0:
448,64,129160,1,8,0:0:0:0:
256,224,129910,1,8,0:0:0:0:
256,224,130097,1,0,0:0:0:0:
256,224,130285,1,8,0:0:0:0:
304,192,130660,1,0,0:0:0:0:
256,160,131035,1,8,0:0:0:0:
256,160,131410,1,0,0:0:0:0:
256,160,131785,1,8,0:0:0:0:
256,160,132160,1,0,0:0:0:0:
