osu file format v14

[General]
AudioFilename: audio.mp3
AudioLeadIn: 0
PreviewTime: 94753
Countdown: 0
SampleSet: Normal
StackLeniency: 0.7
Mode: 1
LetterboxInBreaks: 0
WidescreenStoryboard: 0

[Editor]
DistanceSpacing: 1.3
BeatDivisor: 4
GridSize: 16
TimelineZoom: 1.8

[Metadata]
Title:think abt it w/ ppgcasper
TitleUnicode:think abt it w/ ppgcasper
Artist:oaf1
ArtistUnicode:oaf1
Creator:Furiiii
Version:inner oni
Source:
Tags:oaafyy about with hyperpop hyper pop english
BeatmapID:4020917
BeatmapSetID:1943709

[Difficulty]
HPDrainRate:6.5
CircleSize:2
OverallDifficulty:6
ApproachRate:10
SliderMultiplier:1.4
SliderTickRate:1

[Events]
//Background and Video events
0,0,"bg.jpg",0,60
//Break Periods
2,84360,94397
//Storyboard Layer 0 (Background)
//Storyboard Layer 1 (Fail)
//Storyboard Layer 2 (Pass)
//Storyboard Layer 3 (Foreground)
//Storyboard Layer 4 (Overlay)
//Storyboard Sound Samples

[TimingPoints]
160,375,4,1,0,70,1,0
160,-133.333333333333,4,1,0,70,0,0
21154,-133.333333333333,4,1,0,70,0,0
21341,-132.811338191822,4,1,0,70,0,0
22091,-126.767699013226,4,1,0,70,0,0
22279,-124.681078094074,4,1,0,70,0,0
22466,-122.464358442066,4,1,0,70,0,0
22654,-120.124557958024,4,1,0,70,0,0
23029,-115.226621086009,4,1,0,80,0,0
23216,-112.711999642174,4,1,0,80,0,0
23404,-110.159462810802,4,1,0,80,0,0
23591,-107.61100527217,4,1,0,80,0,0
23779,-105.052201404881,4,1,0,80,0,0
23966,-102.521136922126,4,1,0,80,0,0
24154,-100,4,1,0,80,0,0
34654,-100,4,1,0,80,0,0
34753,-97.0873786407767,4,1,0,80,0,0
35029,-94.1176470588235,4,1,0,80,0,0
35216,-91.4355379457483,4,1,0,80,0,0
35404,-88.8888888888889,4,1,0,80,0,0
35591,-86.4927201960502,4,1,0,80,0,0
35779,-84.2105263157895,4,1,0,80,0,0
35872,-83.1255195344971,4,1,0,80,0,0
35966,-82.0568927789934,4,1,0,80,0,0
36060,-81.0153929246557,4,1,0,80,0,0
36154,-80,4,1,0,90,0,0
36160,-80,4,1,0,90,0,1
45159,-80,4,1,0,90,0,1
45252,-80.3514177853862,4,1,0,90,0,1
45346,-80.8770446871561,4,1,0,90,0,1
45440,-81.5006578709067,4,1,0,90,0,1
45534,-82.2025631432346,4,1,0,90,0,1
45721,-83.7992667695217,4,1,0,90,0,1
45909,-85.6508486156372,4,1,0,90,0,1
46002,-86.6553946238654,4,1,0,90,0,1
46096,-87.7306336827293,4,1,0,90,0,1
46190,-88.8670552478129,4,1,0,90,0,1
46284,-90.0661197378709,4,1,0,90,0,1
46377,-91.3159338434621,4,1,0,90,0,1
46471,-92.6456574505195,4,1,0,90,0,1
46565,-94.0448952367544,4,1,0,90,0,1
46659,-95.5167402285562,4,1,0,90,0,1
46846,-98.6749200250774,4,1,0,90,0,1
47034,-102.18707046682,4,1,0,90,0,1
47221,-106.056407005539,4,1,0,90,0,1
47409,-110.374427174792,4,1,0,90,0,1
47596,-115.156193821486,4,1,0,90,0,1
47784,-120.528455234725,4,1,0,90,0,1
47877,-123.423450761845,4,1,0,90,0,1
47971,-126.527073135718,4,1,0,90,0,1
48061,-133.333333333333,4,1,0,90,0,1
48160,-133.333333333333,4,1,0,70,0,0
60066,-117.647058823529,4,1,0,70,0,0
72154,-80,4,1,0,80,0,0
72341,-82.0456720907972,4,1,0,80,0,0
72529,-84.2105263157895,4,1,0,80,0,0
72716,-86.4802536754108,4,1,0,80,0,0
72810,-87.6680303915839,4,1,0,80,0,0
72997,-90.1306894997747,4,1,0,80,0,0
73091,-91.4216059728783,4,1,0,80,0,0
73279,-94.1176470588235,4,1,0,80,0,0
73654,-100,4,1,0,80,0,0
73841,-103.216927576123,4,1,0,80,0,0
74029,-106.666666666667,4,1,0,80,0,0
74217,-109.89010989011,4,1,0,80,0,0
74404,-114.285714285714,4,1,0,80,0,0
74591,-118.506814141813,4,1,0,80,0,0
74779,-123.076923076923,4,1,0,80,0,0
74872,-125.470514429109,4,1,0,80,0,0
74966,-127.986348122867,4,1,0,80,0,0
75154,-80,4,1,0,80,0,0
75341,-82.0456720907972,4,1,0,80,0,0
75529,-84.2105263157895,4,1,0,80,0,0
75716,-86.4802536754108,4,1,0,80,0,0
75810,-87.6680303915839,4,1,0,80,0,0
75997,-90.1306894997747,4,1,0,80,0,0
76091,-91.4216059728783,4,1,0,80,0,0
76185,-92.7500386458494,4,1,0,80,0,0
76279,-94.1176470588235,4,1,0,80,0,0
76654,-100,4,1,0,80,0,0
76841,-103.216927576123,4,1,0,80,0,0
77029,-106.666666666667,4,1,0,80,0,0
77122,-108.459869848156,4,1,0,80,0,0
77216,-110.334681868334,4,1,0,80,0,0
77404,-114.285714285714,4,1,0,80,0,0
77591,-118.506814141813,4,1,0,80,0,0
77779,-123.076923076923,4,1,0,80,0,0
77872,-125.470514429109,4,1,0,80,0,0
77966,-127.986348122867,4,1,0,80,0,0
78154,-80,4,1,0,80,0,0
78529,-84.2105263157895,4,1,0,80,0,0
78716,-86.4802536754108,4,1,0,80,0,0
78810,-87.6680303915839,4,1,0,80,0,0
78997,-90.1306894997747,4,1,0,80,0,0
79091,-91.4216059728783,4,1,0,80,0,0
79279,-94.1176470588235,4,1,0,80,0,0
79466,-96.961861667744,4,1,0,80,0,0
79654,-100,4,1,0,80,0,0
79753,-104.166666666667,4,1,0,80,0,0
80029,-106.666666666667,4,1,0,80,0,0
80216,-110.334681868334,4,1,0,80,0,0
80404,-114.285714285714,4,1,0,80,0,0
80591,-118.506814141813,4,1,0,80,0,0
80779,-123.076923076923,4,1,0,80,0,0
80872,-125.470514429109,4,1,0,80,0,0
80966,-127.986348122867,4,1,0,80,0,0
81154,-80,4,1,0,80,0,0
81529,-84.2105263157895,4,1,0,80,0,0
81716,-86.4802536754108,4,1,0,80,0,0
81810,-87.6680303915839,4,1,0,80,0,0
81997,-90.1306894997747,4,1,0,80,0,0
82091,-91.4216059728783,4,1,0,80,0,0
82185,-92.7500386458494,4,1,0,80,0,0
82279,-94.1176470588235,4,1,0,80,0,0
82466,-96.961861667744,4,1,0,80,0,0
82654,-100,4,1,0,80,0,0
83029,-88.8888888888889,4,1,0,80,0,0
83404,-80,4,1,0,80,0,0
83591,-76.2001524003048,4,1,0,80,0,0
83779,-72.7272727272727,4,1,0,80,0,0
83872,-71.1237553342816,4,1,0,80,0,0
83966,-69.5732838589981,4,1,0,80,0,0
84154,-66.6666666666667,4,1,0,80,0,0
84343,-133.333333333333,4,1,0,80,0,0
94841,-123.102174805088,4,1,0,80,0,0
95029,-114.285714285714,4,1,0,80,0,0
95216,-106.685633001423,4,1,0,80,0,0
95404,-100,4,1,0,80,0,0
95591,-94.132412927518,4,1,0,80,0,0
95779,-88.8888888888889,4,1,0,80,0,0
95966,-84.2223469960696,4,1,0,80,0,0
96154,-80,4,1,0,90,0,0
96160,-80,4,1,0,90,0,1
105159,-80,4,1,0,90,0,1
105252,-80.1753238182685,4,1,0,90,0,1
105346,-80.436131675025,4,1,0,90,0,1
105440,-80.7433569079855,4,1,0,90,0,1
105534,-81.0863271704478,4,1,0,90,0,1
105721,-81.8555720520374,4,1,0,90,0,1
105909,-82.7290405876514,4,1,0,90,0,1
106002,-83.1948054913609,4,1,0,90,0,1
106096,-83.6871660294814,4,1,0,90,0,1
106190,-84.2007271269345,4,1,0,90,0,1
106284,-84.7351558339244,4,1,0,90,0,1
106377,-85.2842411512297,4,1,0,90,0,1
106471,-85.8597048485364,4,1,0,90,0,1
106565,-86.455757391861,4,1,0,90,0,1
106659,-87.0724833236307,4,1,0,90,0,1
106846,-88.3615182354441,4,1,0,90,0,1
107034,-89.7425444780334,4,1,0,90,0,1
107221,-91.2036591160284,4,1,0,90,0,1
107409,-92.7640787160573,4,1,0,90,0,1
107596,-94.4115103427952,4,1,0,90,0,1
107784,-96.1686600287365,4,1,0,90,0,1
107877,-97.0770678008732,4,1,0,90,0,1
107971,-98.0226533710255,4,1,0,90,0,1
108160,-100,4,1,0,70,0,0
108249,-100,4,1,0,70,0,0
119029,-98.8565404265672,4,1,0,70,0,0
119216,-96.6578123141577,4,1,0,70,0,0
119404,-94.5437623608795,4,1,0,70,0,0
119591,-92.5307423713375,4,1,0,70,0,0
119779,-90.5915576694411,4,1,0,70,0,0
119966,-88.7416736432133,4,1,0,70,0,0
120154,-87.1851346863146,4,1,0,70,0,0
120529,-88.1092444397336,4,1,0,70,0,0
120716,-88.5774262180373,4,1,0,70,0,0
120904,-89.053154070027,4,1,0,70,0,0
121091,-89.5314480198464,4,1,0,70,0,0
121279,-90.0175068132185,4,1,0,70,0,0
121472,-90.5062441251511,4,1,0,70,0,0
121654,-91.002974072655,4,1,0,70,0,0
121841,-91.5025005595529,4,1,0,70,0,0
122216,-92.5209338908284,4,1,0,70,0,0
122404,-93.0400880482027,4,1,0,70,0,0
122591,-93.5651012452585,4,1,0,70,0,0
122779,-94.0932329692305,4,1,0,70,0,0
122966,-94.6302332552907,4,1,0,70,0,0
123154,-95.1704924914611,4,1,0,70,0,0
123529,-96.2727044607872,4,1,0,70,0,0
123716,-96.8349441426469,4,1,0,70,0,0
123904,-97.400745991759,4,1,0,70,0,0
124091,-97.9762779386401,4,1,0,70,0,0
124279,-98.5555357954433,4,1,0,70,0,0
124654,-99.7380366748655,4,1,0,70,0,0
124841,-100.341607284403,4,1,0,70,0,0
125216,-101.564313612094,4,1,0,70,0,0
125404,-102.190259593911,4,1,0,70,0,0
125591,-102.823968894698,4,1,0,70,0,0
125779,-103.462152799386,4,1,0,70,0,0
125966,-104.111785113409,4,1,0,70,0,0
126154,-104.766105824774,4,1,0,70,0,0
126529,-106.103346310124,4,1,0,70,0,0
126722,-106.783021251268,4,1,0,70,0,0
126904,-107.475165384533,4,1,0,70,0,0
127091,-108.172586850815,4,1,0,70,0,0
127279,-108.882921824175,4,1,0,70,0,0
127466,-109.598794052888,4,1,0,70,0,0
127654,-110.328046541465,4,1,0,70,0,0
127841,-111.067068689847,4,1,0,70,0,0
128216,-112.567087510551,4,1,0,70,0,0
128404,-113.336514645397,4,1,0,70,0,0
128591,-114.112355231789,4,1,0,70,0,0
128779,-114.903126223881,4,1,0,70,0,0
128966,-115.7006388635,4,1,0,70,0,0
129154,-116.513654308875,4,1,0,70,0,0
129529,-118.169971805625,4,1,0,70,0,0
129716,-119.018188239449,4,1,0,70,0,0
129904,-119.874059653424,4,1,0,70,0,0
130091,-120.747006502656,4,1,0,70,0,0
130279,-121.628014729193,4,1,0,70,0,0
130466,-121.901665989435,4,1,0,70,0,0
130654,-123.434058455218,4,1,0,70,0,0
131029,-125.294546185344,4,1,0,70,0,0
131404,-127.211977453006,4,1,0,70,0,0
131779,-129.189007174865,4,1,0,70,0,0
132154,-131.228457915647,4,1,0,70,0,0

[HitObjects]
256,192,12160,5,0,0:0:0:0:
256,192,12535,1,8,0:0:0:0:
256,192,13285,1,0,0:0:0:0:
256,192,15160,1,0,0:0:0:0:
256,192,16660,1,8,0:0:0:0:
256,192,18160,1,0,0:0:0:0:
256,192,18535,1,8,0:0:0:0:
256,192,19285,1,0,0:0:0:0:
256,192,21160,1,8,0:0:0:0:
256,192,21347,1,8,0:0:0:0:
256,192,22097,1,0,0:0:0:0:
256,192,22285,1,8,0:0:0:0:
256,192,22472,1,0,0:0:0:0:
256,192,23035,1,0,0:0:0:0:
256,192,23222,1,8,0:0:0:0:
256,192,23410,1,0,0:0:0:0:
256,192,23597,1,0,0:0:0:0:
256,192,23785,1,8,0:0:0:0:
256,192,23972,1,8,0:0:0:0:
256,192,24160,1,0,0:0:0:0:
256,192,24535,1,8,0:0:0:0:
256,192,24910,1,0,0:0:0:0:
256,192,25097,1,8,0:0:0:0:
256,192,25285,1,0,0:0:0:0:
256,192,25472,1,8,0:0:0:0:
256,192,25660,1,8,0:0:0:0:
256,192,25847,1,0,0:0:0:0:
256,192,26035,1,8,0:0:0:0:
256,192,26410,1,0,0:0:0:0:
256,192,26597,1,0,0:0:0:0:
256,192,26785,1,8,0:0:0:0:
256,192,26972,1,8,0:0:0:0:
256,192,27160,1,0,0:0:0:0:
256,192,27535,1,8,0:0:0:0:
256,192,27910,1,0,0:0:0:0:
256,192,28097,1,8,0:0:0:0:
256,192,28285,1,8,0:0:0:0:
256,192,28472,1,0,0:0:0:0:
256,192,28660,1,0,0:0:0:0:
240,192,28847,1,8,0:0:0:0:
256,192,29035,1,8,0:0:0:0:
256,192,29222,1,0,0:0:0:0:
256,192,29410,1,8,0:0:0:0:
256,192,29597,1,8,0:0:0:0:
256,192,29785,1,0,0:0:0:0:
256,192,29878,1,8,0:0:0:0:
256,192,29972,1,0,0:0:0:0:
256,192,30160,1,8,0:0:0:0:
256,192,30535,1,8,0:0:0:0:
256,192,30910,1,0,0:0:0:0:
256,192,31097,1,8,0:0:0:0:
256,192,31285,1,8,0:0:0:0:
256,192,31472,1,0,0:0:0:0:
256,192,31660,1,8,0:0:0:0:
240,160,31847,1,0,0:0:0:0:
256,192,32035,1,8,0:0:0:0:
256,192,32410,1,0,0:0:0:0:
256,192,32597,1,8,0:0:0:0:
256,192,32785,1,8,0:0:0:0:
256,192,32972,1,0,0:0:0:0:
256,192,33160,1,0,0:0:0:0:
256,192,33535,1,8,0:0:0:0:
256,192,33910,1,0,0:0:0:0:
256,192,34097,1,8,0:0:0:0:
256,192,34285,1,0,0:0:0:0:
256,192,34472,1,8,0:0:0:0:
256,192,34660,1,0,0:0:0:0:
256,192,34847,1,8,0:0:0:0:
256,192,35035,1,8,0:0:0:0:
256,192,35222,1,0,0:0:0:0:
256,192,35410,1,8,0:0:0:0:
256,192,35597,1,8,0:0:0:0:
256,192,35785,1,0,0:0:0:0:
256,192,35878,1,8,0:0:0:0:
256,192,35972,1,0,0:0:0:0:
256,192,36066,1,0,0:0:0:0:
256,192,36160,1,8,0:0:0:0:
256,192,36347,1,0,0:0:0:0:
256,192,36535,1,8,0:0:0:0:
256,192,36722,1,8,0:0:0:0:
256,192,36910,1,0,0:0:0:0:
256,192,37003,1,8,0:0:0:0:
256,192,37097,1,0,0:0:0:0:
256,192,37191,1,0,0:0:0:0:
256,192,37285,1,8,0:0:0:0:
256,192,37378,1,8,0:0:0:0:
256,192,37472,1,0,0:0:0:0:
256,192,37566,1,8,0:0:0:0:
256,192,37660,1,0,0:0:0:0:
256,192,37847,1,0,0:0:0:0:
256,192,38035,1,8,0:0:0:0:
256,192,38222,1,8,0:0:0:0:
256,192,38410,1,0,0:0:0:0:
256,192,38503,1,0,0:0:0:0:
256,192,38597,1,8,0:0:0:0:
256,192,38691,1,0,0:0:0:0:
256,192,38785,1,8,0:0:0:0:
256,192,38878,1,8,0:0:0:0:
256,192,38972,1,0,0:0:0:0:
256,192,39160,1,8,0:0:0:0:
256,192,39253,1,8,0:0:0:0:
256,192,39347,1,0,0:0:0:0:
256,192,39441,1,0,0:0:0:0:
256,192,39535,1,8,0:0:0:0:
256,192,39722,1,0,0:0:0:0:
256,192,39910,1,0,0:0:0:0:
256,192,40003,1,0,0:0:0:0:
256,192,40097,1,8,0:0:0:0:
256,192,40191,1,0,0:0:0:0:
256,192,40285,1,8,0:0:0:0:
256,192,40378,1,8,0:0:0:0:
256,192,40472,1,0,0:0:0:0:
256,192,40566,1,0,0:0:0:0:
256,192,40660,1,8,0:0:0:0:
256,192,40847,1,0,0:0:0:0:
256,192,41035,1,8,0:0:0:0:
256,192,41222,1,8,0:0:0:0:
256,192,41410,1,0,0:0:0:0:
256,192,41597,1,0,0:0:0:0:
256,192,41785,1,8,0:0:0:0:
256,192,41878,1,0,0:0:0:0:
256,192,41972,1,8,0:0:0:0:
256,192,42160,1,0,0:0:0:0:
256,192,42347,1,0,0:0:0:0:
256,192,42535,1,8,0:0:0:0:
256,192,42722,1,0,0:0:0:0:
256,192,42910,1,8,0:0:0:0:
256,192,43003,1,0,0:0:0:0:
256,192,43097,1,8,0:0:0:0:
256,192,43285,1,8,0:0:0:0:
256,192,43378,1,0,0:0:0:0:
256,192,43472,1,8,0:0:0:0:
272,192,43660,1,0,0:0:0:0:
272,192,43753,1,8,0:0:0:0:
272,192,43847,1,8,0:0:0:0:
256,192,43941,1,8,0:0:0:0:
256,192,44035,1,0,0:0:0:0:
256,192,44222,1,0,0:0:0:0:
256,192,44410,1,8,0:0:0:0:
256,192,44503,1,0,0:0:0:0:
256,192,44597,1,8,0:0:0:0:
256,192,44785,1,8,0:0:0:0:
256,192,44972,1,0,0:0:0:0:
256,192,45160,1,8,0:0:0:0:
256,192,45253,1,8,0:0:0:0:
256,192,45347,1,0,0:0:0:0:
256,192,45441,1,0,0:0:0:0:
256,192,45535,1,8,0:0:0:0:
256,192,45722,1,0,0:0:0:0:
256,192,45910,1,0,0:0:0:0:
256,192,46003,1,0,0:0:0:0:
256,192,46097,1,8,0:0:0:0:
256,192,46191,1,0,0:0:0:0:
256,192,46285,1,8,0:0:0:0:
256,192,46378,1,8,0:0:0:0:
256,192,46472,1,0,0:0:0:0:
256,192,46566,1,8,0:0:0:0:
256,192,46660,1,0,0:0:0:0:
256,192,46847,1,8,0:0:0:0:
256,192,47035,1,0,0:0:0:0:
256,192,47222,1,0,0:0:0:0:
256,192,47410,1,8,0:0:0:0:
256,192,47597,1,8,0:0:0:0:
256,192,47785,1,0,0:0:0:0:
256,192,47878,1,8,0:0:0:0:
256,192,47972,1,0,0:0:0:0:
256,192,48535,1,8,0:0:0:0:
256,192,49285,1,0,0:0:0:0:
272,96,51160,1,0,0:0:0:0:
256,192,52660,1,8,0:0:0:0:
256,192,54160,1,0,0:0:0:0:
256,192,54535,1,8,0:0:0:0:
256,192,55285,1,0,0:0:0:0:
256,192,57160,1,0,0:0:0:0:
256,192,58660,1,8,0:0:0:0:
256,192,59410,1,0,0:0:0:0:
256,192,60535,5,0,0:0:0:0:
256,192,60722,1,0,0:0:0:0:
256,192,60910,1,8,0:0:0:0:
256,192,61097,1,0,0:0:0:0:
64,64,62035,1,0,0:0:0:0:
256,192,62222,1,0,0:0:0:0:
256,192,62410,1,8,0:0:0:0:
256,192,62597,1,8,0:0:0:0:
256,192,62785,1,0,0:0:0:0:
256,192,62972,1,8,0:0:0:0:
256,192,63535,1,0,0:0:0:0:
256,192,63722,1,8,0:0:0:0:
448,64,64098,1,8,0:0:0:0:
64,64,64473,1,0,0:0:0:0:
256,192,64847,1,0,0:0:0:0:
256,192,65035,1,8,0:0:0:0:
256,192,65222,1,0,0:0:0:0:
256,192,65410,1,8,0:0:0:0:
256,192,65597,1,8,0:0:0:0:
256,192,65785,1,0,0:0:0:0:
256,192,66535,5,0,0:0:0:0:
256,192,66722,1,0,0:0:0:0:
256,192,66910,1,8,0:0:0:0:
256,192,67097,1,0,0:0:0:0:
256,192,68035,1,0,0:0:0:0:
256,192,68222,1,8,0:0:0:0:
256,192,68410,1,8,0:0:0:0:
256,192,68597,1,0,0:0:0:0:
256,192,68785,1,0,0:0:0:0:
256,192,68972,1,8,0:0:0:0:
256,192,69535,1,0,0:0:0:0:
256,192,69722,1,8,0:0:0:0:
256,192,69910,1,0,0:0:0:0:
256,192,70097,1,8,0:0:0:0:
256,192,70472,1,8,0:0:0:0:
256,192,70847,1,8,0:0:0:0:
256,192,71222,1,0,0:0:0:0:
256,192,71597,1,8,0:0:0:0:
256,192,71972,1,8,0:0:0:0:
256,192,72160,1,4,0:0:0:0:
256,192,72347,1,0,0:0:0:0:
256,192,72535,1,8,0:0:0:0:
256,192,72722,1,0,0:0:0:0:
256,192,72816,1,8,0:0:0:0:
256,192,73003,1,8,0:0:0:0:
256,192,73097,1,0,0:0:0:0:
256,192,73285,1,8,0:0:0:0:
256,192,73660,1,0,0:0:0:0:
256,192,73847,1,8,0:0:0:0:
256,192,74035,1,0,0:0:0:0:
304,157,74222,1,8,0:0:0:0:
256,192,74410,1,8,0:0:0:0:
256,192,74597,1,0,0:0:0:0:
256,192,74785,1,8,0:0:0:0:
256,192,74878,1,0,0:0:0:0:
256,192,74972,1,8,0:0:0:0:
256,192,75160,1,0,0:0:0:0:
256,192,75347,1,0,0:0:0:0:
256,192,75535,1,8,0:0:0:0:
256,192,75722,1,0,0:0:0:0:
256,192,75816,1,8,0:0:0:0:
256,192,76003,1,8,0:0:0:0:
256,192,76097,1,0,0:0:0:0:
256,192,76191,1,0,0:0:0:0:
256,192,76285,1,8,0:0:0:0:
256,192,76660,1,0,0:0:0:0:
256,192,76847,1,8,0:0:0:0:
256,192,77035,1,0,0:0:0:0:
256,192,77128,1,8,0:0:0:0:
256,192,77222,1,0,0:0:0:0:
256,192,77410,1,8,0:0:0:0:
256,192,77597,1,0,0:0:0:0:
256,192,77785,1,8,0:0:0:0:
256,192,77878,1,0,0:0:0:0:
256,192,77972,1,8,0:0:0:0:
256,192,78160,1,0,0:0:0:0:
256,192,78535,1,8,0:0:0:0:
256,192,78722,1,0,0:0:0:0:
256,192,78816,1,8,0:0:0:0:
256,192,79003,1,8,0:0:0:0:
256,192,79097,1,0,0:0:0:0:
256,192,79285,1,8,0:0:0:0:
256,192,79472,1,8,0:0:0:0:
256,192,79660,1,0,0:0:0:0:
256,192,79847,1,0,0:0:0:0:
256,192,80035,1,8,0:0:0:0:
256,192,80410,1,8,0:0:0:0:
256,192,80597,1,0,0:0:0:0:
256,192,80785,1,8,0:0:0:0:
256,192,80878,1,0,0:0:0:0:
256,192,80972,1,8,0:0:0:0:
256,192,81160,1,0,0:0:0:0:
256,192,81535,1,8,0:0:0:0:
256,192,81722,1,0,0:0:0:0:
256,192,81816,1,8,0:0:0:0:
256,192,82003,1,8,0:0:0:0:
256,192,82097,1,0,0:0:0:0:
256,192,82191,1,0,0:0:0:0:
256,192,82285,1,8,0:0:0:0:
256,192,82472,1,8,0:0:0:0:
256,192,82660,1,0,0:0:0:0:
256,208,83035,1,0,0:0:0:0:
256,208,83410,1,0,0:0:0:0:
256,208,83597,1,0,0:0:0:0:
256,208,83785,1,0,0:0:0:0:
256,208,83878,1,0,0:0:0:0:
256,208,83972,1,0,0:0:0:0:
256,208,84160,1,0,0:0:0:0:
256,208,94847,5,0,0:0:0:0:
256,208,95035,1,8,0:0:0:0:
256,208,95222,1,8,0:0:0:0:
256,208,95410,1,0,0:0:0:0:
256,208,95597,1,8,0:0:0:0:
256,208,95785,1,0,0:0:0:0:
256,208,95972,1,0,0:0:0:0:
256,208,96160,1,8,0:0:0:0:
256,192,96347,1,0,0:0:0:0:
256,192,96535,1,8,0:0:0:0:
256,192,96722,1,8,0:0:0:0:
256,192,96910,1,0,0:0:0:0:
256,192,97003,1,8,0:0:0:0:
256,192,97097,1,0,0:0:0:0:
256,192,97191,1,0,0:0:0:0:
256,192,97285,1,8,0:0:0:0:
256,192,97378,1,8,0:0:0:0:
256,192,97472,1,0,0:0:0:0:
256,192,97566,1,8,0:0:0:0:
256,192,97660,1,0,0:0:0:0:
256,192,97847,1,0,0:0:0:0:
256,192,98035,1,8,0:0:0:0:
256,192,98222,1,8,0:0:0:0:
256,192,98410,1,0,0:0:0:0:
256,192,98503,1,0,0:0:0:0:
256,192,98597,1,8,0:0:0:0:
256,192,98691,1,0,0:0:0:0:
256,192,98785,1,8,0:0:0:0:
256,192,98878,1,8,0:0:0:0:
256,192,98972,1,0,0:0:0:0:
256,192,99160,1,8,0:0:0:0:
256,192,99253,1,8,0:0:0:0:
256,192,99347,1,0,0:0:0:0:
256,192,99441,1,0,0:0:0:0:
256,192,99535,1,8,0:0:0:0:
256,192,99722,1,0,0:0:0:0:
256,192,99910,1,0,0:0:0:0:
256,192,100003,1,0,0:0:0:0:
256,192,100097,1,8,0:0:0:0:
256,192,100191,1,0,0:0:0:0:
256,192,100285,1,8,0:0:0:0:
256,192,100378,1,8,0:0:0:0:
256,192,100472,1,0,0:0:0:0:
256,192,100566,1,0,0:0:0:0:
256,192,100660,1,8,0:0:0:0:
256,192,100847,1,0,0:0:0:0:
256,192,101035,1,8,0:0:0:0:
256,192,101222,1,8,0:0:0:0:
256,192,101410,1,0,0:0:0:0:
256,192,101597,1,0,0:0:0:0:
256,192,101785,1,8,0:0:0:0:
256,192,101878,1,0,0:0:0:0:
256,192,101972,1,8,0:0:0:0:
256,192,102160,1,0,0:0:0:0:
256,192,102347,1,0,0:0:0:0:
256,192,102535,1,8,0:0:0:0:
256,192,102722,1,0,0:0:0:0:
256,192,102910,1,8,0:0:0:0:
256,192,103003,1,0,0:0:0:0:
256,192,103097,1,8,0:0:0:0:
256,192,103285,1,8,0:0:0:0:
256,192,103378,1,0,0:0:0:0:
256,192,103472,1,8,0:0:0:0:
272,192,103660,1,0,0:0:0:0:
272,192,103753,1,8,0:0:0:0:
272,192,103847,1,8,0:0:0:0:
256,192,103941,1,8,0:0:0:0:
256,192,104035,1,0,0:0:0:0:
256,192,104222,1,0,0:0:0:0:
256,192,104410,1,8,0:0:0:0:
256,192,104503,1,0,0:0:0:0:
256,192,104597,1,8,0:0:0:0:
256,192,104785,1,8,0:0:0:0:
256,192,104972,1,0,0:0:0:0:
256,192,105160,1,8,0:0:0:0:
256,192,105253,1,8,0:0:0:0:
256,192,105347,1,0,0:0:0:0:
256,192,105441,1,0,0:0:0:0:
256,192,105535,1,8,0:0:0:0:
256,192,105722,1,0,0:0:0:0:
256,192,105910,1,0,0:0:0:0:
256,192,106003,1,0,0:0:0:0:
256,192,106097,1,8,0:0:0:0:
256,192,106191,1,0,0:0:0:0:
256,192,106285,1,8,0:0:0:0:
256,192,106378,1,8,0:0:0:0:
256,192,106472,1,0,0:0:0:0:
256,192,106566,1,8,0:0:0:0:
256,192,106660,1,0,0:0:0:0:
256,192,106847,1,8,0:0:0:0:
256,192,107035,1,0,0:0:0:0:
256,192,107222,1,0,0:0:0:0:
256,192,107410,1,8,0:0:0:0:
256,192,107597,1,8,0:0:0:0:
256,192,107785,1,0,0:0:0:0:
256,192,107878,1,8,0:0:0:0:
256,192,107972,1,0,0:0:0:0:
256,192,108535,5,0,0:0:0:0:
256,192,108722,1,0,0:0:0:0:
256,192,108910,1,8,0:0:0:0:
256,192,109097,1,0,0:0:0:0:
64,64,110035,1,0,0:0:0:0:
256,192,110222,1,0,0:0:0:0:
256,192,110410,1,8,0:0:0:0:
256,192,110597,1,8,0:0:0:0:
256,192,110785,1,0,0:0:0:0:
256,192,110972,1,8,0:0:0:0:
256,192,113222,1,0,0:0:0:0:
256,192,113597,1,8,0:0:0:0:
256,192,113972,1,8,0:0:0:0:
256,192,114160,1,0,0:0:0:0:
256,192,114535,5,0,0:0:0:0:
256,192,114722,1,0,0:0:0:0:
256,192,114910,1,8,0:0:0:0:
256,192,115097,1,0,0:0:0:0:
256,192,116035,1,0,0:0:0:0:
64,64,116223,1,0,0:0:0:0:
448,64,116410,1,8,0:0:0:0:
448,64,116598,1,8,0:0:0:0:
64,64,116785,1,0,0:0:0:0:
256,192,117160,1,0,0:0:0:0:
256,192,117722,1,8,0:0:0:0:
256,192,118285,1,0,0:0:0:0:
256,192,119035,1,8,0:0:0:0:
256,192,119222,1,0,0:0:0:0:
256,192,119410,1,8,0:0:0:0:
256,192,119597,1,0,0:0:0:0:
256,192,119785,1,8,0:0:0:0:
256,192,119972,1,0,0:0:0:0:
256,192,120160,1,8,0:0:0:0:
256,192,120535,1,8,0:0:0:0:
208,144,120722,1,8,0:0:0:0:
256,192,120910,1,0,0:0:0:0:
256,192,121097,1,0,0:0:0:0:
256,192,121285,1,8,0:0:0:0:
304,160,121472,1,0,0:0:0:0:
256,192,121847,1,0,0:0:0:0:
256,192,122222,1,0,0:0:0:0:
256,192,122410,1,8,0:0:0:0:
64,64,122598,1,0,0:0:0:0:
448,64,122785,1,8,0:0:0:0:
448,64,122973,1,8,0:0:0:0:
64,64,123160,1,0,0:0:0:0:
64,64,123535,1,0,0:0:0:0:
448,64,123723,1,8,0:0:0:0:
448,64,123910,1,8,0:0:0:0:
64,64,124098,1,0,0:0:0:0:
448,64,124285,1,8,0:0:0:0:
64,64,124848,1,0,0:0:0:0:
256,176,125222,1,0,0:0:0:0:
256,176,125410,1,8,0:0:0:0:
64,64,125598,1,0,0:0:0:0:
448,64,125785,1,8,0:0:0:0:
448,64,125973,1,8,0:0:0:0:
64,64,126160,1,0,0:0:0:0:
256,192,126535,1,8,0:0:0:0:
304,176,126722,1,8,0:0:0:0:
256,192,126910,1,0,0:0:0:0:
256,192,127097,1,8,0:0:0:0:
256,192,127285,1,0,0:0:0:0:
256,192,127472,1,0,0:0:0:0:
64,64,127848,1,0,0:0:0:0:
272,192,128222,1,8,0:0:0:0:
272,192,128410,1,8,0:0:0:0:
272,192,128597,1,0,0:0:0:0:
256,192,128785,1,8,0:0:0:0:
256,192,128972,1,0,0:0:0:0:
256,192,129160,1,8,0:0:0:0:
64,64,129535,1,0,0:0:0:0:
448,64,129723,1,8,0:0:0:0:
240,176,129910,1,8,0:0:0:0:
64,64,130098,1,0,0:0:0:0:
448,64,130285,1,8,0:0:0:0:
176,208,130660,1,0,0:0:0:0:
176,208,131035,1,8,0:0:0:0:
176,208,131410,1,0,0:0:0:0:
176,208,131785,1,8,0:0:0:0:
176,208,132160,1,0,0:0:0:0:
