osu file format v14

[General]
AudioFilename: audio.mp3
AudioLeadIn: 0
PreviewTime: 94753
Countdown: 0
SampleSet: Normal
StackLeniency: 0.7
Mode: 1
LetterboxInBreaks: 0
WidescreenStoryboard: 1

[Editor]
DistanceSpacing: 1.3
BeatDivisor: 4
GridSize: 16
TimelineZoom: 1.8

[Metadata]
Title:think abt it w/ ppgcasper
TitleUnicode:think abt it w/ ppgcasper
Artist:oaf1
ArtistUnicode:oaf1
Creator:Furiiii
Version:futsuu
Source:
Tags:oaafyy about with hyperpop hyper pop english
BeatmapID:4020916
BeatmapSetID:1943709

[Difficulty]
HPDrainRate:8
CircleSize:2
OverallDifficulty:4
ApproachRate:10
SliderMultiplier:1.4
SliderTickRate:1

[Events]
//Background and Video events
0,0,"bg.jpg",0,60
//Break Periods
2,84360,94660
//Storyboard Layer 0 (Background)
//Storyboard Layer 1 (Fail)
//Storyboard Layer 2 (Pass)
//Storyboard Layer 3 (Foreground)
//Storyboard Layer 4 (Overlay)
//Storyboard Sound Samples

[TimingPoints]
160,375,4,1,0,70,1,0
160,-100,4,1,0,70,0,0
22847,-100,4,1,0,80,0,0
24066,-100,4,1,0,80,0,0
34660,-100,4,1,0,80,0,0
34941,-100,4,1,0,80,0,0
35316,-100,4,1,0,80,0,0
35503,-100,4,1,0,80,0,0
35691,-100,4,1,0,80,0,0
35878,-100,4,1,0,80,0,0
36160,-100,4,1,0,90,0,1
48160,-100,4,1,0,70,0,0
60066,-100,4,1,0,70,0,0
72066,-100,4,1,0,80,0,0
84066,-100,4,1,0,80,0,0
84253,-100,4,1,0,80,0,0
96066,-100,4,1,0,90,0,0
96160,-100,4,1,0,90,0,1
108160,-100,4,1,0,70,0,0

[HitObjects]
256,192,12160,5,0,0:0:0:0:
256,192,12535,1,8,0:0:0:0:
256,192,13285,1,0,0:0:0:0:
256,192,15160,1,0,0:0:0:0:
256,192,16660,1,8,0:0:0:0:
256,192,18160,1,0,0:0:0:0:
256,192,18535,1,8,0:0:0:0:
256,192,19285,1,0,0:0:0:0:
256,192,21160,1,8,0:0:0:0:
256,192,21347,1,8,0:0:0:0:
256,192,22097,1,0,0:0:0:0:
256,192,22285,1,8,0:0:0:0:
256,192,22472,1,0,0:0:0:0:
256,192,24160,1,0,0:0:0:0:
256,192,24535,1,8,0:0:0:0:
256,192,25097,1,0,0:0:0:0:
256,192,25285,1,8,0:0:0:0:
256,192,25472,1,8,0:0:0:0:
256,192,25660,1,0,0:0:0:0:
256,192,26035,1,8,0:0:0:0:
256,192,26597,1,8,0:0:0:0:
256,192,26972,1,0,0:0:0:0:
256,192,27160,1,8,0:0:0:0:
256,192,28097,1,0,0:0:0:0:
256,192,28285,1,8,0:0:0:0:
256,192,28472,1,8,0:0:0:0:
256,208,28660,1,0,0:0:0:0:
256,192,29035,1,8,0:0:0:0:
256,192,29410,1,0,0:0:0:0:
256,192,29785,1,0,0:0:0:0:
256,192,29972,1,0,0:0:0:0:
256,192,30160,1,8,0:0:0:0:
240,192,30535,1,8,0:0:0:0:
256,192,31097,1,8,0:0:0:0:
256,192,31285,1,0,0:0:0:0:
256,192,31472,1,8,0:0:0:0:
256,192,31660,1,8,0:0:0:0:
256,192,32035,1,8,0:0:0:0:
256,192,32597,1,8,0:0:0:0:
256,192,32785,1,0,0:0:0:0:
256,192,32972,1,0,0:0:0:0:
256,192,33160,1,8,0:0:0:0:
256,192,34097,1,8,0:0:0:0:
256,192,34472,1,8,0:0:0:0:
256,192,34660,1,0,0:0:0:0:
256,192,35035,1,8,0:0:0:0:
256,192,35410,1,0,0:0:0:0:
256,192,35597,1,8,0:0:0:0:
256,192,35785,1,8,0:0:0:0:
256,192,35972,1,0,0:0:0:0:
240,192,36160,5,0,0:0:0:0:
256,192,36535,1,8,0:0:0:0:
256,192,36910,1,0,0:0:0:0:
290,179,37097,1,0,0:0:0:0:
256,192,37285,1,8,0:0:0:0:
256,192,37472,1,8,0:0:0:0:
256,192,37660,1,0,0:0:0:0:
256,192,38035,1,8,0:0:0:0:
256,192,38410,1,0,0:0:0:0:
256,192,38597,1,8,0:0:0:0:
256,192,38785,1,0,0:0:0:0:
256,192,39160,1,8,0:0:0:0:
256,192,39910,1,0,0:0:0:0:
347,237,40097,1,8,0:0:0:0:
256,192,40285,1,8,0:0:0:0:
256,192,40472,1,0,0:0:0:0:
256,192,40660,1,8,0:0:0:0:
256,192,41035,1,8,0:0:0:0:
256,192,41410,1,0,0:0:0:0:
256,192,41597,1,0,0:0:0:0:
256,192,41785,1,8,0:0:0:0:
256,192,41972,1,8,0:0:0:0:
256,192,42160,1,0,0:0:0:0:
256,192,42535,1,8,0:0:0:0:
256,192,42910,1,0,0:0:0:0:
256,192,43097,1,8,0:0:0:0:
256,192,43285,1,0,0:0:0:0:
256,192,43472,1,8,0:0:0:0:
256,192,43660,1,0,0:0:0:0:
256,192,44035,1,8,0:0:0:0:
256,192,44410,1,0,0:0:0:0:
256,192,44597,1,8,0:0:0:0:
304,256,44785,1,0,0:0:0:0:
256,192,45160,1,8,0:0:0:0:
256,192,45910,1,0,0:0:0:0:
256,192,46097,1,0,0:0:0:0:
256,192,46285,1,8,0:0:0:0:
256,192,46472,1,8,0:0:0:0:
256,192,46660,1,0,0:0:0:0:
256,192,47035,1,8,0:0:0:0:
272,192,47410,1,0,0:0:0:0:
256,192,47597,1,0,0:0:0:0:
256,192,47785,1,8,0:0:0:0:
256,192,47972,1,0,0:0:0:0:
240,192,48535,1,8,0:0:0:0:
240,192,49285,1,0,0:0:0:0:
256,192,51160,1,0,0:0:0:0:
256,192,52660,1,8,0:0:0:0:
256,192,54160,1,0,0:0:0:0:
256,192,54535,1,8,0:0:0:0:
256,192,55285,1,0,0:0:0:0:
256,192,57160,1,0,0:0:0:0:
256,192,58660,1,8,0:0:0:0:
256,192,59410,1,0,0:0:0:0:
256,192,60535,1,8,0:0:0:0:
256,192,60910,1,0,0:0:0:0:
256,192,61097,1,8,0:0:0:0:
256,192,62035,1,0,0:0:0:0:
256,192,62410,1,8,0:0:0:0:
256,192,62785,1,0,0:0:0:0:
256,192,62972,1,8,0:0:0:0:
256,192,63535,1,0,0:0:0:0:
256,192,63722,1,8,0:0:0:0:
256,192,64097,1,0,0:0:0:0:
256,192,64472,1,0,0:0:0:0:
256,192,65035,1,8,0:0:0:0:
256,192,65410,1,0,0:0:0:0:
256,192,65785,1,8,0:0:0:0:
256,192,66535,1,8,0:0:0:0:
256,192,66910,1,0,0:0:0:0:
256,192,67097,1,8,0:0:0:0:
256,192,68035,1,0,0:0:0:0:
256,192,68410,1,8,0:0:0:0:
256,192,68785,1,0,0:0:0:0:
256,192,68972,1,8,0:0:0:0:
256,192,69535,1,0,0:0:0:0:
256,192,69910,1,0,0:0:0:0:
224,144,70097,1,8,0:0:0:0:
256,192,70472,1,8,0:0:0:0:
256,192,70847,1,8,0:0:0:0:
256,192,71222,1,0,0:0:0:0:
224,96,71972,1,8,0:0:0:0:
224,96,72160,1,4,0:0:0:0:
256,192,72535,1,8,0:0:0:0:
256,208,73097,1,0,0:0:0:0:
256,208,73285,1,8,0:0:0:0:
192,160,73660,1,0,0:0:0:0:
224,192,74035,1,8,0:0:0:0:
224,208,74597,1,0,0:0:0:0:
240,224,74785,1,8,0:0:0:0:
240,224,74972,1,8,0:0:0:0:
240,224,75160,1,0,0:0:0:0:
240,224,75535,1,8,0:0:0:0:
240,224,76097,1,0,0:0:0:0:
240,224,76285,1,8,0:0:0:0:
240,224,76660,1,0,0:0:0:0:
240,224,77035,1,0,0:0:0:0:
240,224,77785,1,8,0:0:0:0:
240,224,77972,1,8,0:0:0:0:
240,224,78160,1,0,0:0:0:0:
256,192,78535,1,8,0:0:0:0:
256,208,79097,1,0,0:0:0:0:
256,208,79285,1,8,0:0:0:0:
192,160,79660,1,0,0:0:0:0:
224,192,80035,1,8,0:0:0:0:
224,208,80597,1,0,0:0:0:0:
240,224,80785,1,0,0:0:0:0:
240,224,80972,1,8,0:0:0:0:
240,224,81160,1,0,0:0:0:0:
240,224,81535,1,8,0:0:0:0:
240,224,82097,1,0,0:0:0:0:
240,224,82285,1,8,0:0:0:0:
240,224,82660,1,0,0:0:0:0:
240,224,83035,1,0,0:0:0:0:
240,224,83410,1,0,0:0:0:0:
288,112,83597,1,0,0:0:0:0:
288,112,83785,1,0,0:0:0:0:
240,224,83972,1,0,0:0:0:0:
320,192,84160,1,0,0:0:0:0:
176,272,96160,5,0,0:0:0:0:
256,192,96535,1,8,0:0:0:0:
256,192,96910,1,0,0:0:0:0:
311,199,97097,1,0,0:0:0:0:
256,192,97285,1,8,0:0:0:0:
256,192,97472,1,8,0:0:0:0:
256,192,97660,1,0,0:0:0:0:
256,192,98035,1,8,0:0:0:0:
256,192,98410,1,0,0:0:0:0:
256,192,98597,1,8,0:0:0:0:
256,192,98785,1,0,0:0:0:0:
256,192,99160,1,8,0:0:0:0:
256,192,99910,1,0,0:0:0:0:
311,235,100097,1,8,0:0:0:0:
256,192,100285,1,8,0:0:0:0:
256,192,100472,1,0,0:0:0:0:
256,192,100660,1,8,0:0:0:0:
256,192,101035,1,8,0:0:0:0:
256,192,101410,1,0,0:0:0:0:
256,192,101597,1,0,0:0:0:0:
256,192,101785,1,8,0:0:0:0:
256,192,101972,1,8,0:0:0:0:
256,192,102160,1,0,0:0:0:0:
256,192,102535,1,8,0:0:0:0:
256,192,102910,1,0,0:0:0:0:
256,192,103097,1,8,0:0:0:0:
256,192,103285,1,0,0:0:0:0:
256,192,103472,1,8,0:0:0:0:
256,192,103660,1,0,0:0:0:0:
256,192,104035,1,8,0:0:0:0:
256,192,104410,1,0,0:0:0:0:
256,192,104597,1,8,0:0:0:0:
256,192,104785,1,0,0:0:0:0:
256,192,105160,1,8,0:0:0:0:
256,192,105910,1,0,0:0:0:0:
256,192,106097,1,0,0:0:0:0:
256,192,106285,1,8,0:0:0:0:
256,192,106472,1,8,0:0:0:0:
256,192,106660,1,0,0:0:0:0:
256,192,107035,1,8,0:0:0:0:
272,192,107410,1,0,0:0:0:0:
256,192,107597,1,0,0:0:0:0:
256,192,107785,1,8,0:0:0:0:
256,192,107972,1,0,0:0:0:0:
256,192,108535,1,8,0:0:0:0:
256,192,108910,1,0,0:0:0:0:
256,192,109097,1,8,0:0:0:0:
256,192,110035,1,0,0:0:0:0:
256,192,110410,1,8,0:0:0:0:
256,192,110785,1,0,0:0:0:0:
256,192,110972,1,8,0:0:0:0:
256,192,113222,1,8,0:0:0:0:
256,192,113597,1,0,0:0:0:0:
176,112,113972,1,8,0:0:0:0:
256,192,114535,1,8,0:0:0:0:
256,192,114910,1,0,0:0:0:0:
256,192,115097,1,8,0:0:0:0:
256,192,116035,1,0,0:0:0:0:
256,192,116410,1,8,0:0:0:0:
256,192,116785,1,0,0:0:0:0:
256,192,117160,1,0,0:0:0:0:
320,176,117722,1,8,0:0:0:0:
256,192,118285,1,0,0:0:0:0:
256,192,119035,1,8,0:0:0:0:
256,192,119410,1,8,0:0:0:0:
176,144,119785,1,8,0:0:0:0:
176,144,120160,1,0,0:0:0:0:
288,224,120910,1,0,0:0:0:0:
240,208,121285,1,8,0:0:0:0:
240,192,121847,1,8,0:0:0:0:
240,192,122410,1,0,0:0:0:0:
240,192,122785,1,8,0:0:0:0:
240,192,123160,1,0,0:0:0:0:
240,192,123910,1,8,0:0:0:0:
208,160,124097,1,0,0:0:0:0:
208,160,124285,1,0,0:0:0:0:
256,192,124847,1,8,0:0:0:0:
256,192,125410,1,0,0:0:0:0:
256,192,125785,1,8,0:0:0:0:
256,192,126160,1,0,0:0:0:0:
256,192,126910,1,0,0:0:0:0:
256,192,127285,1,8,0:0:0:0:
256,192,127847,1,8,0:0:0:0:
256,192,128410,1,0,0:0:0:0:
256,192,128785,1,8,0:0:0:0:
256,192,129160,1,0,0:0:0:0:
256,208,129910,1,8,0:0:0:0:
256,208,130097,1,0,0:0:0:0:
256,208,130285,1,0,0:0:0:0:
256,208,130660,1,0,0:0:0:0:
276,220,131035,1,8,0:0:0:0:
256,208,131410,1,0,0:0:0:0:
276,220,131785,1,8,0:0:0:0:
256,208,132160,1,0,0:0:0:0:
