osu file format v14

[General]
AudioFilename: audio.mp3
AudioLeadIn: 0
PreviewTime: 94753
Countdown: 0
SampleSet: Normal
StackLeniency: 0.7
Mode: 1
LetterboxInBreaks: 0
WidescreenStoryboard: 1

[Editor]
DistanceSpacing: 1.3
BeatDivisor: 4
GridSize: 16
TimelineZoom: 1.8

[Metadata]
Title:think abt it w/ ppgcasper
TitleUnicode:think abt it w/ ppgcasper
Artist:oaf1
ArtistUnicode:oaf1
Creator:Furiiii
Version:kantan
Source:
Tags:oaafyy about with hyperpop hyper pop english
BeatmapID:4020918
BeatmapSetID:1943709

[Difficulty]
HPDrainRate:9
CircleSize:2
OverallDifficulty:3
ApproachRate:10
SliderMultiplier:1.4
SliderTickRate:1

[Events]
//Background and Video events
0,0,"bg.jpg",0,60
//Break Periods
2,84360,94660
//Storyboard Layer 0 (Background)
//Storyboard Layer 1 (Fail)
//Storyboard Layer 2 (Pass)
//Storyboard Layer 3 (Foreground)
//Storyboard Layer 4 (Overlay)
//Storyboard Sound Samples

[TimingPoints]
160,375,4,1,0,70,1,0
23035,-100,4,1,0,80,0,0
36160,-100,4,1,0,90,0,1
48160,-100,4,1,0,70,0,0
72160,-100,4,1,0,80,0,0
96160,-100,4,1,0,90,0,1
108160,-100,4,1,0,70,0,0

[HitObjects]
256,208,12160,5,0,0:0:0:0:
256,208,12535,1,8,0:0:0:0:
256,208,13285,1,0,0:0:0:0:
256,208,15160,1,0,0:0:0:0:
256,208,16660,1,8,0:0:0:0:
256,208,18160,1,0,0:0:0:0:
256,208,18535,1,8,0:0:0:0:
256,208,19285,1,0,0:0:0:0:
256,208,21160,5,8,0:0:0:0:
286,216,22097,1,8,0:0:0:0:
222,162,22472,1,0,0:0:0:0:
256,208,24160,1,0,0:0:0:0:
256,208,24535,1,8,0:0:0:0:
256,208,25285,1,8,0:0:0:0:
256,208,25660,1,0,0:0:0:0:
256,208,26035,1,8,0:0:0:0:
256,208,26785,1,0,0:0:0:0:
256,208,27160,1,8,0:0:0:0:
256,208,27535,1,8,0:0:0:0:
256,208,28660,1,0,0:0:0:0:
256,208,29035,1,8,0:0:0:0:
256,208,29410,1,0,0:0:0:0:
256,208,30160,1,0,0:0:0:0:
256,208,30535,1,8,0:0:0:0:
256,208,31285,1,8,0:0:0:0:
256,208,31660,1,0,0:0:0:0:
256,208,32035,1,8,0:0:0:0:
256,208,32785,1,0,0:0:0:0:
256,208,33160,1,8,0:0:0:0:
256,208,33535,1,8,0:0:0:0:
256,224,34660,1,0,0:0:0:0:
256,224,35035,1,8,0:0:0:0:
208,128,35410,1,0,0:0:0:0:
208,128,36160,1,0,0:0:0:0:
256,192,36910,1,8,0:0:0:0:
256,208,37285,1,8,0:0:0:0:
256,208,37660,1,0,0:0:0:0:
224,240,38410,1,8,0:0:0:0:
240,208,39160,1,0,0:0:0:0:
256,208,39535,1,0,0:0:0:0:
224,192,39910,1,8,0:0:0:0:
224,192,40285,1,8,0:0:0:0:
256,208,40660,1,0,0:0:0:0:
256,192,42160,1,0,0:0:0:0:
256,192,42910,1,8,0:0:0:0:
256,192,43285,1,0,0:0:0:0:
256,192,43660,1,8,0:0:0:0:
256,192,44410,1,8,0:0:0:0:
256,160,45160,1,0,0:0:0:0:
144,144,45535,1,0,0:0:0:0:
288,176,45910,1,8,0:0:0:0:
288,176,46285,1,0,0:0:0:0:
256,192,46660,1,8,0:0:0:0:
256,192,47410,1,8,0:0:0:0:
256,192,47785,1,0,0:0:0:0:
256,208,48535,1,8,0:0:0:0:
256,208,49285,1,0,0:0:0:0:
256,192,51160,1,0,0:0:0:0:
256,192,52660,1,8,0:0:0:0:
256,192,54160,1,0,0:0:0:0:
256,208,54535,1,8,0:0:0:0:
256,208,55285,1,0,0:0:0:0:
256,208,57160,1,0,0:0:0:0:
256,208,58660,1,8,0:0:0:0:
224,144,59410,1,0,0:0:0:0:
256,208,60535,5,0,0:0:0:0:
256,208,60910,1,8,0:0:0:0:
256,208,62035,1,0,0:0:0:0:
256,208,62410,1,8,0:0:0:0:
256,208,62972,1,0,0:0:0:0:
280,217,63722,1,0,0:0:0:0:
256,192,64097,1,8,0:0:0:0:
256,192,64472,1,0,0:0:0:0:
256,192,65410,1,8,0:0:0:0:
265,156,65785,1,0,0:0:0:0:
256,208,66535,5,0,0:0:0:0:
256,208,66910,1,8,0:0:0:0:
256,208,68035,1,0,0:0:0:0:
256,208,68410,1,8,0:0:0:0:
256,208,68972,1,8,0:0:0:0:
256,192,69535,1,0,0:0:0:0:
192,112,69910,1,8,0:0:0:0:
256,192,70472,1,0,0:0:0:0:
272,112,70847,1,8,0:0:0:0:
256,192,71222,1,0,0:0:0:0:
256,192,72160,1,4,0:0:0:0:
256,192,72535,1,8,0:0:0:0:
256,192,73285,1,8,0:0:0:0:
256,192,73660,1,0,0:0:0:0:
256,208,74035,1,8,0:0:0:0:
256,208,74785,1,8,0:0:0:0:
256,208,75160,1,0,0:0:0:0:
256,208,75535,1,8,0:0:0:0:
256,208,76285,1,8,0:0:0:0:
256,208,76660,1,0,0:0:0:0:
295,217,77785,1,8,0:0:0:0:
256,208,78160,1,0,0:0:0:0:
256,192,78535,1,8,0:0:0:0:
256,192,79285,1,8,0:0:0:0:
256,192,79660,1,8,0:0:0:0:
256,208,80035,1,0,0:0:0:0:
256,208,80785,1,8,0:0:0:0:
256,208,81160,1,0,0:0:0:0:
256,208,81535,1,8,0:0:0:0:
256,208,82285,1,8,0:0:0:0:
256,208,82660,1,0,0:0:0:0:
256,208,83410,1,0,0:0:0:0:
256,208,83785,1,0,0:0:0:0:
256,208,84160,1,0,0:0:0:0:
208,128,96160,5,0,0:0:0:0:
256,192,96910,1,8,0:0:0:0:
256,208,97285,1,8,0:0:0:0:
256,208,97660,1,0,0:0:0:0:
224,240,98410,1,8,0:0:0:0:
240,208,99160,1,0,0:0:0:0:
272,176,99535,1,0,0:0:0:0:
224,192,99910,1,8,0:0:0:0:
224,192,100285,1,8,0:0:0:0:
256,208,100660,1,0,0:0:0:0:
256,192,102160,1,0,0:0:0:0:
256,192,102910,1,8,0:0:0:0:
256,192,103285,1,0,0:0:0:0:
256,192,103660,1,8,0:0:0:0:
256,192,104410,1,8,0:0:0:0:
256,160,105160,1,0,0:0:0:0:
240,208,105535,1,0,0:0:0:0:
288,176,105910,1,8,0:0:0:0:
288,176,106285,1,0,0:0:0:0:
256,192,106660,1,8,0:0:0:0:
256,192,107410,1,8,0:0:0:0:
256,192,107785,1,0,0:0:0:0:
256,208,108535,5,0,0:0:0:0:
256,208,108910,1,8,0:0:0:0:
256,208,110035,1,0,0:0:0:0:
256,208,110410,1,8,0:0:0:0:
256,208,110972,1,0,0:0:0:0:
256,192,113222,1,8,0:0:0:0:
256,192,113597,1,0,0:0:0:0:
208,128,113972,1,8,0:0:0:0:
256,208,114535,5,0,0:0:0:0:
256,208,114910,1,8,0:0:0:0:
256,208,116035,1,0,0:0:0:0:
256,208,116410,1,8,0:0:0:0:
256,208,116785,1,0,0:0:0:0:
256,128,117160,1,0,0:0:0:0:
192,112,117722,1,8,0:0:0:0:
256,192,118285,1,0,0:0:0:0:
256,192,119035,1,8,0:0:0:0:
224,80,120160,1,0,0:0:0:0:
240,256,120910,1,8,0:0:0:0:
272,192,121285,1,0,0:0:0:0:
272,208,122410,1,8,0:0:0:0:
272,208,122785,1,8,0:0:0:0:
272,208,123160,1,0,0:0:0:0:
240,240,123910,1,8,0:0:0:0:
240,192,124285,1,0,0:0:0:0:
256,208,125410,1,0,0:0:0:0:
224,144,125785,1,8,0:0:0:0:
256,208,126160,1,0,0:0:0:0:
240,256,126910,1,8,0:0:0:0:
272,192,127285,1,0,0:0:0:0:
272,208,128410,1,8,0:0:0:0:
272,208,128785,1,8,0:0:0:0:
272,208,129160,1,0,0:0:0:0:
240,240,129910,1,8,0:0:0:0:
240,192,130285,1,0,0:0:0:0:
272,208,130660,1,8,0:0:0:0:
272,208,131410,1,8,0:0:0:0:
272,208,132160,1,0,0:0:0:0:
