osu file format v14

[General]
AudioFilename: audio.mp3
AudioLeadIn: 0
PreviewTime: 94753
Countdown: 0
SampleSet: Soft
StackLeniency: 0.7
Mode: 3
LetterboxInBreaks: 0
SpecialStyle: 0
WidescreenStoryboard: 0

[Editor]
DistanceSpacing: 1.3
BeatDivisor: 4
GridSize: 16
TimelineZoom: 2.7

[Metadata]
Title:think abt it w/ ppgcasper
TitleUnicode:think abt it w/ ppgcasper
Artist:oaf1
ArtistUnicode:oaf1
Creator:AchsanLovers
Version:MX
Source:
Tags:oaafyy about with hyperpop sherly hyper pop english
BeatmapID:3631141
BeatmapSetID:1773437

[Difficulty]
HPDrainRate:8
CircleSize:4
OverallDifficulty:8
ApproachRate:5
SliderMultiplier:1.4
SliderTickRate:1

[Events]
//Background and Video events
0,0,"bg.jpg",0,0
//Break Periods
//Storyboard Layer 0 (Background)
//Storyboard Layer 1 (Fail)
//Storyboard Layer 2 (Pass)
//Storyboard Layer 3 (Foreground)
//Storyboard Layer 4 (Overlay)
//Storyboard Sound Samples

[TimingPoints]
160,375,4,2,1,40,1,0

[HitObjects]
192,192,21160,5,0,0:0:0:0:
448,192,21347,1,0,0:0:0:0:
192,192,22097,1,0,0:0:0:0:
64,192,22285,1,0,0:0:0:0:
192,192,22472,1,0,0:0:0:0:
192,192,23035,1,0,0:0:0:0:
320,192,23222,1,0,0:0:0:0:
64,192,23410,1,0,0:0:0:0:
320,192,23597,1,0,0:0:0:0:
448,192,23785,1,0,0:0:0:0:
320,192,23972,1,0,0:0:0:0:
64,192,24160,1,0,0:0:0:40:kick.wav
192,192,24160,1,0,0:0:0:0:
448,192,24347,1,0,0:0:0:0:
64,192,24535,1,0,0:0:0:40:clap.wav
320,192,24535,1,0,0:0:0:0:
320,192,24722,1,0,0:0:0:0:
64,192,24910,1,0,0:0:0:40:kick.wav
192,192,24910,1,0,0:0:0:0:
64,192,25097,1,0,0:0:0:0:
320,192,25097,1,0,0:0:0:0:
192,192,25285,1,0,0:0:0:40:clap.wav
448,192,25285,1,0,0:0:0:0:
320,192,25472,1,0,0:0:0:0:
448,192,25472,1,0,0:0:0:0:
64,192,25660,1,0,0:0:0:40:kick.wav
192,192,25660,1,0,0:0:0:0:
192,192,25847,1,0,0:0:0:0:
64,192,26035,1,0,0:0:0:40:clap.wav
320,192,26035,1,0,0:0:0:0:
64,192,26222,1,0,0:0:0:0:
192,192,26410,1,0,0:0:0:40:kick.wav
320,192,26410,1,0,0:0:0:0:
320,192,26597,1,0,0:0:0:0:
448,192,26597,1,0,0:0:0:0:
64,192,26785,1,0,0:0:0:40:clap.wav
192,192,26785,1,0,0:0:0:0:
192,192,26972,1,0,0:0:0:0:
320,192,26972,1,0,0:0:0:0:
320,192,27160,1,0,0:0:0:40:kick.wav
448,192,27160,1,0,0:0:0:0:
64,192,27347,1,0,0:0:0:0:
192,192,27535,1,0,0:0:0:40:clap.wav
448,192,27535,1,0,0:0:0:0:
320,192,27722,1,0,0:0:0:0:
192,192,27910,1,0,0:0:0:40:kick.wav
448,192,27910,1,0,0:0:0:0:
64,192,28097,1,0,0:0:0:0:
320,192,28097,1,0,0:0:0:0:
64,192,28285,1,0,0:0:0:40:clap.wav
192,192,28285,1,0,0:0:0:0:
192,192,28472,1,0,0:0:0:0:
448,192,28472,1,0,0:0:0:0:
320,192,28660,1,0,0:0:0:40:kick.wav
448,192,28660,1,0,0:0:0:0:
64,192,28847,1,0,0:0:0:0:
192,192,29035,1,0,0:0:0:40:clap.wav
320,192,29035,1,0,0:0:0:0:
192,192,29222,1,0,0:0:0:0:
320,192,29410,1,0,0:0:0:40:kick.wav
448,192,29410,1,0,0:0:0:0:
320,192,29597,1,0,0:0:0:40:kick.wav
448,192,29597,1,0,0:0:0:0:
64,192,29785,1,0,0:0:0:40:clap.wav
192,192,29785,1,0,0:0:0:0:
320,192,29878,1,0,0:0:0:40:kick.wav
448,192,29878,1,0,0:0:0:0:
64,192,29972,1,0,0:0:0:40:kick.wav
192,192,29972,1,0,0:0:0:0:
64,192,30160,1,0,0:0:0:40:kick.wav
448,192,30160,1,0,0:0:0:0:
320,192,30347,1,0,0:0:0:0:
192,192,30535,1,0,0:0:0:40:clap.wav
448,192,30535,1,0,0:0:0:0:
192,192,30722,1,0,0:0:0:0:
64,192,30910,1,0,0:0:0:40:kick.wav
320,192,30910,1,0,0:0:0:0:
192,192,31097,1,0,0:0:0:0:
320,192,31097,1,0,0:0:0:0:
64,192,31285,1,0,0:0:0:40:clap.wav
448,192,31285,1,0,0:0:0:0:
320,192,31472,1,0,0:0:0:0:
448,192,31472,1,0,0:0:0:0:
64,192,31660,1,0,0:0:0:40:kick.wav
192,192,31660,1,0,0:0:0:0:
192,192,31847,1,0,0:0:0:0:
320,192,32035,1,0,0:0:0:40:clap.wav
448,192,32035,1,0,0:0:0:0:
320,192,32222,1,0,0:0:0:0:
64,192,32410,1,0,0:0:0:40:kick.wav
448,192,32410,1,0,0:0:0:0:
64,192,32597,1,0,0:0:0:0:
192,192,32597,1,0,0:0:0:0:
320,192,32785,1,0,0:0:0:40:clap.wav
448,192,32785,1,0,0:0:0:0:
64,192,32972,1,0,0:0:0:0:
320,192,32972,1,0,0:0:0:0:
192,192,33160,1,0,0:0:0:40:kick.wav
448,192,33160,1,0,0:0:0:0:
320,192,33347,1,0,0:0:0:0:
64,192,33535,1,0,0:0:0:40:clap.wav
448,192,33535,1,0,0:0:0:0:
192,192,33722,1,0,0:0:0:0:
320,192,33910,1,0,0:0:0:40:kick.wav
448,192,33910,1,0,0:0:0:0:
192,192,34097,1,0,0:0:0:0:
320,192,34097,1,0,0:0:0:0:
64,192,34285,1,0,0:0:0:40:clap.wav
192,192,34285,1,0,0:0:0:0:
64,192,34472,1,0,0:0:0:0:
448,192,34472,1,0,0:0:0:0:
192,192,34660,1,0,0:0:0:40:kick.wav
320,192,34660,1,0,0:0:0:0:
320,192,34847,1,0,0:0:0:0:
448,192,34847,1,0,0:0:0:0:
64,192,35035,1,0,0:0:0:40:clap.wav
192,192,35035,1,0,0:0:0:0:
192,192,35222,1,0,0:0:0:40:kick.wav
448,192,35222,1,0,0:0:0:0:
192,192,35410,1,0,0:0:0:40:kick.wav
448,192,35410,1,0,0:0:0:0:
192,192,35597,1,0,0:0:0:40:kick.wav
448,192,35597,1,0,0:0:0:0:
64,192,35785,1,0,0:0:0:40:kick.wav
192,192,35785,1,0,0:0:0:40:clap.wav
320,192,35878,1,0,0:0:0:40:kick.wav
448,192,35878,1,0,0:0:0:0:
64,192,35972,1,0,0:0:0:40:kick.wav
320,192,36066,1,0,0:0:0:40:kick.wav
448,192,36066,1,0,0:0:0:0:
64,192,36160,1,0,0:0:0:40:kick.wav
192,192,36160,1,0,0:0:0:0:
320,192,36253,1,0,0:0:0:0:
192,192,36347,1,0,0:0:0:0:
320,192,36441,1,0,0:0:0:0:
64,192,36535,1,0,0:0:0:40:snare.wav
448,192,36535,1,0,0:0:0:0:
192,192,36628,1,0,0:0:0:0:
320,192,36722,1,0,0:0:0:0:
320,192,36910,1,0,0:0:0:40:kick.wav
448,192,36910,1,0,0:0:0:0:
192,192,37003,1,0,0:0:0:0:
320,192,37097,1,0,0:0:0:0:
448,192,37097,1,0,0:0:0:0:
192,192,37191,1,0,0:0:0:0:
320,192,37285,1,0,0:0:0:40:snare.wav
448,192,37285,1,0,0:0:0:0:
64,192,37378,1,0,0:0:0:0:
320,192,37472,1,0,0:0:0:0:
448,192,37472,1,0,0:0:0:0:
64,192,37566,1,0,0:0:0:0:
192,192,37660,1,0,0:0:0:40:kick.wav
320,192,37660,1,0,0:0:0:0:
448,192,37753,1,0,0:0:0:0:
192,192,37847,1,0,0:0:0:0:
448,192,37941,1,0,0:0:0:0:
64,192,38035,1,0,0:0:0:40:snare.wav
320,192,38035,1,0,0:0:0:0:
192,192,38128,1,0,0:0:0:0:
448,192,38222,1,0,0:0:0:0:
64,192,38410,1,0,0:0:0:40:kick.wav
320,192,38410,1,0,0:0:0:0:
192,192,38503,1,0,0:0:0:0:
320,192,38597,1,0,0:0:0:0:
448,192,38597,1,0,0:0:0:0:
192,192,38691,1,0,0:0:0:0:
64,192,38785,1,0,0:0:0:40:snare.wav
448,192,38785,1,0,0:0:0:0:
320,192,38878,1,0,0:0:0:0:
192,192,38972,1,0,0:0:0:0:
64,192,39160,1,0,0:0:0:40:kick.wav
320,192,39160,1,0,0:0:0:0:
448,192,39253,1,0,0:0:0:0:
192,192,39347,1,0,0:0:0:0:
448,192,39441,1,0,0:0:0:0:
64,192,39535,1,0,0:0:0:40:snare.wav
320,192,39535,1,0,0:0:0:0:
192,192,39628,1,0,0:0:0:0:
448,192,39722,1,0,0:0:0:0:
64,192,39910,1,0,0:0:0:40:kick.wav
192,192,39910,1,0,0:0:0:0:
320,192,40003,1,0,0:0:0:0:
64,192,40097,1,0,0:0:0:0:
192,192,40097,1,0,0:0:0:0:
320,192,40191,1,0,0:0:0:0:
64,192,40285,1,0,0:0:0:40:snare.wav
192,192,40285,1,0,0:0:0:0:
448,192,40378,1,0,0:0:0:0:
64,192,40472,1,0,0:0:0:0:
192,192,40472,1,0,0:0:0:0:
448,192,40566,1,0,0:0:0:0:
192,192,40660,1,0,0:0:0:40:kick.wav
320,192,40660,1,0,0:0:0:0:
64,192,40753,1,0,0:0:0:0:
320,192,40847,1,0,0:0:0:0:
448,192,40847,1,0,0:0:0:0:
192,192,40941,1,0,0:0:0:0:
64,192,41035,1,0,0:0:0:40:snare.wav
320,192,41035,1,0,0:0:0:0:
448,192,41128,1,0,0:0:0:0:
64,192,41222,1,0,0:0:0:0:
192,192,41222,1,0,0:0:0:0:
320,192,41316,1,0,0:0:0:0:
192,192,41410,1,0,0:0:0:40:kick.wav
448,192,41410,1,0,0:0:0:0:
64,192,41503,1,0,0:0:0:0:
320,192,41597,1,0,0:0:0:40:kick.wav
448,192,41597,1,0,0:0:0:0:
192,192,41691,1,0,0:0:0:0:
320,192,41785,1,0,0:0:0:40:kick.wav
448,192,41785,1,0,0:0:0:40:snare.wav
64,192,41878,1,0,0:0:0:40:kick.wav
192,192,41878,1,0,0:0:0:0:
320,192,41972,1,0,0:0:0:40:kick.wav
448,192,41972,1,0,0:0:0:0:
64,192,42066,1,0,0:0:0:0:
192,192,42160,1,0,0:0:0:40:kick.wav
320,192,42160,1,0,0:0:0:0:
448,192,42253,1,0,0:0:0:0:
64,192,42347,1,0,0:0:0:0:
448,192,42441,1,0,0:0:0:0:
192,192,42535,1,0,0:0:0:40:snare.wav
320,192,42535,1,0,0:0:0:0:
64,192,42628,1,0,0:0:0:0:
448,192,42722,1,0,0:0:0:0:
320,192,42910,1,0,0:0:0:40:kick.wav
448,192,42910,1,0,0:0:0:0:
192,192,43003,1,0,0:0:0:0:
64,192,43097,1,0,0:0:0:0:
448,192,43097,1,0,0:0:0:0:
320,192,43191,1,0,0:0:0:0:
64,192,43285,1,0,0:0:0:40:snare.wav
192,192,43285,1,0,0:0:0:0:
320,192,43378,1,0,0:0:0:0:
64,192,43472,1,0,0:0:0:0:
448,192,43472,1,0,0:0:0:0:
192,192,43566,1,0,0:0:0:0:
320,192,43660,1,0,0:0:0:40:kick.wav
448,192,43660,1,0,0:0:0:0:
64,192,43753,1,0,0:0:0:0:
320,192,43847,1,0,0:0:0:0:
64,192,43941,1,0,0:0:0:0:
320,192,44035,1,0,0:0:0:40:snare.wav
448,192,44035,1,0,0:0:0:0:
192,192,44128,1,0,0:0:0:0:
64,192,44222,1,0,0:0:0:0:
192,192,44410,1,0,0:0:0:40:kick.wav
320,192,44410,1,0,0:0:0:0:
448,192,44503,1,0,0:0:0:0:
64,192,44597,1,0,0:0:0:0:
192,192,44597,1,0,0:0:0:0:
320,192,44691,1,0,0:0:0:0:
64,192,44785,1,0,0:0:0:40:snare.wav
448,192,44785,1,0,0:0:0:0:
192,192,44972,1,0,0:0:0:0:
320,192,45160,1,0,0:0:0:40:kick.wav
448,192,45160,1,0,0:0:0:0:
64,192,45253,1,0,0:0:0:0:
448,192,45347,1,0,0:0:0:0:
64,192,45441,1,0,0:0:0:0:
320,192,45535,1,0,0:0:0:40:snare.wav
448,192,45535,1,0,0:0:0:0:
192,192,45628,1,0,0:0:0:0:
64,192,45722,1,0,0:0:0:0:
320,192,45910,1,0,0:0:0:40:kick.wav
448,192,45910,1,0,0:0:0:0:
192,192,46003,1,0,0:0:0:0:
320,192,46097,1,0,0:0:0:0:
448,192,46097,1,0,0:0:0:0:
192,192,46191,1,0,0:0:0:0:
320,192,46285,1,0,0:0:0:40:snare.wav
448,192,46285,1,0,0:0:0:0:
64,192,46378,1,0,0:0:0:0:
320,192,46472,1,0,0:0:0:0:
448,192,46472,1,0,0:0:0:0:
64,192,46566,1,0,0:0:0:0:
192,192,46660,1,0,0:0:0:40:kick.wav
320,192,46660,1,0,0:0:0:0:
448,192,46753,1,0,0:0:0:0:
64,192,46847,1,0,0:0:0:0:
192,192,46847,1,0,0:0:0:0:
320,192,46941,1,0,0:0:0:0:
192,192,47035,1,0,0:0:0:40:snare.wav
448,192,47035,1,0,0:0:0:0:
64,192,47128,1,0,0:0:0:0:
320,192,47222,1,0,0:0:0:40:kick.wav
448,192,47222,1,0,0:0:0:0:
192,192,47316,1,0,0:0:0:0:
64,192,47410,1,0,0:0:0:40:kick.wav
320,192,47410,1,0,0:0:0:0:
448,192,47503,1,0,0:0:0:0:
64,192,47597,1,0,0:0:0:40:kick.wav
192,192,47597,1,0,0:0:0:0:
320,192,47691,1,0,0:0:0:0:
64,192,47785,1,0,0:0:0:40:kick.wav
192,192,47785,1,0,0:0:0:40:snare.wav
320,192,47878,1,0,0:0:0:40:kick.wav
448,192,47878,1,0,0:0:0:0:
64,192,47972,1,0,0:0:0:40:kick.wav
192,192,47972,1,0,0:0:0:0:
448,192,48066,1,0,0:0:0:0:
192,192,48160,1,0,0:0:0:0:
320,192,48253,1,0,0:0:0:0:
192,192,48347,1,0,0:0:0:0:
320,192,48441,1,0,0:0:0:0:
64,192,48535,1,0,0:0:0:40:clap.wav
192,192,48628,1,0,0:0:0:0:
320,192,48722,1,0,0:0:0:0:
64,192,48910,1,0,0:0:0:0:
320,192,49097,1,0,0:0:0:0:
192,192,49285,1,0,0:0:0:40:clap.wav
448,192,49472,1,0,0:0:0:0:
320,192,49660,1,0,0:0:0:0:
192,192,49847,1,0,0:0:0:0:
64,192,50035,1,0,0:0:0:40:clap.wav
320,192,50222,1,0,0:0:0:0:
192,192,50410,1,0,0:0:0:0:
320,192,50597,1,0,0:0:0:0:
64,192,50785,1,0,0:0:0:40:clap.wav
64,192,50972,1,0,0:0:0:0:
320,192,51160,1,0,0:0:0:0:
448,192,51347,1,0,0:0:0:0:
64,192,51535,1,0,0:0:0:40:clap.wav
320,192,51722,1,0,0:0:0:0:
192,192,51910,1,0,0:0:0:0:
320,192,52097,1,0,0:0:0:0:
64,192,52285,1,0,0:0:0:40:clap.wav
64,192,52472,1,0,0:0:0:0:
320,192,52660,1,0,0:0:0:0:
448,192,52847,1,0,0:0:0:0:
64,192,53035,1,0,0:0:0:40:clap.wav
320,192,53222,1,0,0:0:0:0:
192,192,53410,1,0,0:0:0:0:
320,192,53597,1,0,0:0:0:0:
64,192,53785,1,0,0:0:0:40:clap.wav
448,192,53972,1,0,0:0:0:0:
320,192,54160,1,0,0:0:0:0:
192,192,54347,1,0,0:0:0:0:
448,192,54535,1,0,0:0:0:40:clap.wav
64,192,54722,1,0,0:0:0:0:
320,192,54910,1,0,0:0:0:0:
64,192,55097,1,0,0:0:0:0:
448,192,55285,1,0,0:0:0:40:clap.wav
320,192,55472,1,0,0:0:0:0:
64,192,55660,1,0,0:0:0:0:
448,192,55847,1,0,0:0:0:0:
320,192,56035,1,0,0:0:0:40:clap.wav
192,192,56222,1,0,0:0:0:0:
448,192,56410,1,0,0:0:0:0:
64,192,56597,1,0,0:0:0:0:
192,192,56785,1,0,0:0:0:40:clap.wav
320,192,56972,1,0,0:0:0:0:
192,192,57160,1,0,0:0:0:0:
320,192,57347,1,0,0:0:0:0:
448,192,57535,1,0,0:0:0:40:clap.wav
64,192,57722,1,0,0:0:0:0:
192,192,57910,1,0,0:0:0:0:
448,192,58097,1,0,0:0:0:0:
320,192,58285,1,0,0:0:0:40:clap.wav
64,192,58472,1,0,0:0:0:0:
192,192,58660,1,0,0:0:0:0:
320,192,58847,1,0,0:0:0:0:
448,192,59035,1,0,0:0:0:40:clap.wav
64,192,59222,1,0,0:0:0:0:
448,192,59410,1,0,0:0:0:0:
192,192,59597,1,0,0:0:0:0:
448,192,59785,1,0,0:0:0:40:clap.wav
192,192,59972,1,0,0:0:0:0:
64,192,60160,1,0,0:0:0:0:
320,192,60347,1,0,0:0:0:0:
64,192,60535,1,0,0:0:0:40:clap.wav
192,192,60722,1,0,0:0:0:0:
320,192,60910,1,0,0:0:0:0:
448,192,61097,1,0,0:0:0:0:
192,192,61285,1,0,0:0:0:40:clap.wav
448,192,61472,1,0,0:0:0:0:
320,192,61660,1,0,0:0:0:0:
192,192,61847,1,0,0:0:0:0:
64,192,62035,1,0,0:0:0:40:clap.wav
192,192,62222,1,0,0:0:0:0:
320,192,62410,1,0,0:0:0:0:
448,192,62597,1,0,0:0:0:0:
192,192,62785,1,0,0:0:0:40:clap.wav
320,192,62972,1,0,0:0:0:0:
64,192,63160,1,0,0:0:0:0:
448,192,63347,1,0,0:0:0:0:
64,192,63535,1,0,0:0:0:40:clap.wav
192,192,63722,1,0,0:0:0:0:
320,192,63910,1,0,0:0:0:0:
64,192,64003,1,0,0:0:0:0:
448,192,64097,1,0,0:0:0:0:
192,192,64285,1,0,0:0:0:40:clap.wav
64,192,64472,1,0,0:0:0:0:
192,192,64660,1,0,0:0:0:0:
448,192,64847,1,0,0:0:0:0:
64,192,65035,1,0,0:0:0:40:clap.wav
448,192,65222,1,0,0:0:0:0:
320,192,65410,1,0,0:0:0:0:
192,192,65597,1,0,0:0:0:0:
64,192,65785,1,0,0:0:0:40:clap.wav
320,192,65972,1,0,0:0:0:0:
192,192,66160,1,0,0:0:0:0:
448,192,66347,1,0,0:0:0:0:
64,192,66535,1,0,0:0:0:40:clap.wav
192,192,66722,1,0,0:0:0:0:
320,192,66910,1,0,0:0:0:0:
448,192,67097,1,0,0:0:0:0:
64,192,67285,1,0,0:0:0:40:clap.wav
320,192,67472,1,0,0:0:0:0:
192,192,67660,1,0,0:0:0:0:
448,192,67753,1,0,0:0:0:0:
192,192,67847,1,0,0:0:0:0:
64,192,68035,1,0,0:0:0:40:clap.wav
192,192,68222,1,0,0:0:0:0:
320,192,68410,1,0,0:0:0:0:
448,192,68597,1,0,0:0:0:0:
64,192,68785,1,0,0:0:0:40:clap.wav
448,192,68972,1,0,0:0:0:0:
192,192,69160,1,0,0:0:0:0:
320,192,69347,1,0,0:0:0:0:
64,192,69535,1,0,0:0:0:40:clap.wav
192,192,69722,1,0,0:0:0:0:
320,192,69910,1,0,0:0:0:0:
448,192,70097,1,0,0:0:0:0:
64,192,70285,1,0,0:0:0:40:clap.wav
320,192,70472,1,0,0:0:0:0:
448,192,70847,1,0,0:0:0:0:
64,192,71222,1,0,0:0:0:0:
192,192,71597,1,0,0:0:0:0:
320,192,71972,1,0,0:0:0:0:
64,192,72160,1,0,0:0:0:40:kick.wav
192,192,72160,1,0,0:0:0:0:
448,192,72160,1,0,0:0:0:0:
448,192,72347,1,0,0:0:0:0:
192,192,72535,1,0,0:0:0:40:snare.wav
320,192,72535,1,0,0:0:0:0:
64,192,72722,1,0,0:0:0:0:
320,192,72816,1,0,0:0:0:0:
448,192,72816,1,0,0:0:0:0:
192,192,72910,1,0,0:0:0:0:
320,192,73003,1,0,0:0:0:0:
64,192,73097,1,0,0:0:0:40:kick.wav
192,192,73097,1,0,0:0:0:0:
64,192,73285,1,0,0:0:0:40:snare.wav
448,192,73285,1,0,0:0:0:0:
192,192,73660,1,0,0:0:0:40:kick.wav
448,192,73660,1,0,0:0:0:0:
192,192,73847,1,0,0:0:0:0:
64,192,74035,1,0,0:0:0:40:snare.wav
448,192,74035,1,0,0:0:0:0:
448,192,74222,1,0,0:0:0:0:
192,192,74410,1,0,0:0:0:0:
320,192,74597,1,0,0:0:0:40:kick.wav
448,192,74597,1,0,0:0:0:0:
64,192,74785,1,0,0:0:0:40:snare.wav
448,192,74785,1,0,0:0:0:0:
64,192,74972,1,0,0:0:0:0:
192,192,74972,1,0,0:0:0:0:
320,192,75160,1,0,0:0:0:40:kick.wav
448,192,75160,1,0,0:0:0:0:
320,192,75347,1,0,0:0:0:0:
64,192,75535,1,0,0:0:0:40:snare.wav
448,192,75535,1,0,0:0:0:0:
192,192,75722,1,0,0:0:0:0:
448,192,75816,1,0,0:0:0:0:
192,192,75910,1,0,0:0:0:0:
320,192,76003,1,0,0:0:0:0:
64,192,76097,1,0,0:0:0:40:kick.wav
448,192,76097,1,0,0:0:0:0:
192,192,76285,1,0,0:0:0:40:snare.wav
448,192,76285,1,0,0:0:0:0:
64,192,76660,1,0,0:0:0:40:kick.wav
320,192,76660,1,0,0:0:0:0:
64,192,76847,1,0,0:0:0:0:
192,192,77035,1,0,0:0:0:40:snare.wav
320,192,77035,1,0,0:0:0:0:
64,192,77222,1,0,0:0:0:0:
320,192,77222,1,0,0:0:0:0:
448,192,77410,1,0,0:0:0:0:
64,192,77597,1,0,0:0:0:40:kick.wav
320,192,77597,1,0,0:0:0:0:
64,192,77785,1,0,0:0:0:40:snare.wav
448,192,77785,1,0,0:0:0:0:
320,192,77972,1,0,0:0:0:40:kick.wav
448,192,77972,1,0,0:0:0:0:
320,192,78160,1,0,0:0:0:40:kick.wav
448,192,78160,1,0,0:0:0:0:
320,192,78347,1,0,0:0:0:0:
64,192,78535,1,0,0:0:0:40:snare.wav
192,192,78535,1,0,0:0:0:0:
320,192,78722,1,0,0:0:0:0:
448,192,78722,1,0,0:0:0:0:
192,192,78816,1,0,0:0:0:0:
320,192,78910,1,0,0:0:0:0:
448,192,79003,1,0,0:0:0:0:
64,192,79097,1,0,0:0:0:40:kick.wav
192,192,79097,1,0,0:0:0:0:
64,192,79285,1,0,0:0:0:40:snare.wav
448,192,79285,1,0,0:0:0:0:
320,192,79472,1,0,0:0:0:0:
64,192,79660,1,0,0:0:0:40:kick.wav
192,192,79660,1,0,0:0:0:0:
64,192,79847,1,0,0:0:0:0:
192,192,80035,1,0,0:0:0:40:snare.wav
320,192,80035,1,0,0:0:0:0:
320,192,80222,1,0,0:0:0:0:
64,192,80597,1,0,0:0:0:40:kick.wav
192,192,80597,1,0,0:0:0:0:
64,192,80785,1,0,0:0:0:40:snare.wav
448,192,80785,1,0,0:0:0:0:
320,192,80878,1,0,0:0:0:0:
192,192,80972,1,0,0:0:0:0:
320,192,81160,1,0,0:0:0:40:kick.wav
448,192,81160,1,0,0:0:0:0:
448,192,81347,1,0,0:0:0:0:
64,192,81535,1,0,0:0:0:40:snare.wav
320,192,81535,1,0,0:0:0:0:
192,192,81722,1,0,0:0:0:0:
320,192,81816,1,0,0:0:0:0:
64,192,81910,1,0,0:0:0:0:
192,192,82003,1,0,0:0:0:0:
320,192,82097,1,0,0:0:0:40:kick.wav
448,192,82097,1,0,0:0:0:0:
64,192,82285,1,0,0:0:0:40:snare.wav
448,192,82285,1,0,0:0:0:0:
320,192,82472,1,0,0:0:0:0:
64,192,82660,1,0,0:0:0:40:kick.wav
192,192,82660,1,0,0:0:0:0:
192,192,82847,1,0,0:0:0:0:
320,192,83035,1,0,0:0:0:40:kick.wav
448,192,83035,1,0,0:0:0:0:
192,192,83222,1,0,0:0:0:0:
320,192,83222,1,0,0:0:0:0:
64,192,83410,1,0,0:0:0:40:kick.wav
192,192,83410,1,0,0:0:0:0:
64,192,83597,1,0,0:0:0:40:kick.wav
192,192,83597,1,0,0:0:0:0:
64,192,83785,1,0,0:0:0:40:kick.wav
192,192,83785,1,0,0:0:0:0:
320,192,83878,1,0,0:0:0:40:kick.wav
448,192,83878,1,0,0:0:0:0:
64,192,83972,1,0,0:0:0:40:kick.wav
192,192,83972,1,0,0:0:0:0:
320,192,84160,1,0,0:0:0:0:
64,192,84535,1,0,0:0:0:40:clap.wav
448,192,84722,1,0,0:0:0:0:
192,192,85097,1,0,0:0:0:0:
64,192,85285,1,0,0:0:0:40:clap.wav
320,192,85472,1,0,0:0:0:0:
192,192,85660,1,0,0:0:0:0:
320,192,85847,1,0,0:0:0:0:
64,192,86035,1,0,0:0:0:40:clap.wav
448,192,86222,1,0,0:0:0:0:
320,192,86597,1,0,0:0:0:0:
64,192,86785,1,0,0:0:0:40:clap.wav
192,192,86972,1,0,0:0:0:0:
64,192,87160,1,0,0:0:0:0:
192,192,87535,1,0,0:0:0:40:clap.wav
192,192,88097,1,0,0:0:0:0:
448,192,88285,1,0,0:0:0:40:clap.wav
64,192,88472,1,0,0:0:0:0:
192,192,88660,1,0,0:0:0:0:
192,192,89035,1,0,0:0:0:40:clap.wav
320,192,89222,1,0,0:0:0:0:
64,192,89410,1,0,0:0:0:0:
448,192,89597,1,0,0:0:0:0:
192,192,89785,1,0,0:0:0:40:clap.wav
320,192,89972,1,0,0:0:0:0:
64,192,90160,1,0,0:0:0:0:
448,192,90535,1,0,0:0:0:40:clap.wav
64,192,90722,1,0,0:0:0:0:
192,192,91097,1,0,0:0:0:0:
64,192,91285,1,0,0:0:0:40:clap.wav
192,192,91472,1,0,0:0:0:0:
448,192,91660,1,0,0:0:0:0:
320,192,91847,1,0,0:0:0:0:
64,192,92035,1,0,0:0:0:40:clap.wav
448,192,92222,1,0,0:0:0:0:
320,192,92597,1,0,0:0:0:0:
64,192,92785,1,0,0:0:0:40:clap.wav
192,192,92972,1,0,0:0:0:0:
64,192,93160,1,0,0:0:0:0:
448,192,93535,1,0,0:0:0:40:clap.wav
192,192,94097,1,0,0:0:0:0:
448,192,94285,1,0,0:0:0:40:clap.wav
320,192,94472,1,0,0:0:0:0:
320,192,94847,1,0,0:0:0:0:
448,192,95035,1,0,0:0:0:0:
64,192,95222,1,0,0:0:0:0:
192,192,95410,1,0,0:0:0:0:
448,192,95597,1,0,0:0:0:0:
320,192,95785,1,0,0:0:0:0:
192,192,95972,1,0,0:0:0:0:
64,192,96160,1,0,0:0:0:40:kick.wav
448,192,96160,1,0,0:0:0:0:
320,192,96253,1,0,0:0:0:0:
192,192,96347,1,0,0:0:0:0:
320,192,96441,1,0,0:0:0:0:
192,192,96535,1,0,0:0:0:40:snare.wav
448,192,96535,1,0,0:0:0:0:
64,192,96628,1,0,0:0:0:0:
448,192,96722,1,0,0:0:0:0:
64,192,96910,1,0,0:0:0:40:kick.wav
192,192,96910,1,0,0:0:0:0:
320,192,97003,1,0,0:0:0:0:
64,192,97097,1,0,0:0:0:0:
192,192,97097,1,0,0:0:0:0:
320,192,97191,1,0,0:0:0:0:
64,192,97285,1,0,0:0:0:40:snare.wav
192,192,97285,1,0,0:0:0:0:
448,192,97378,1,0,0:0:0:0:
64,192,97472,1,0,0:0:0:0:
192,192,97472,1,0,0:0:0:0:
320,192,97566,1,0,0:0:0:0:
64,192,97660,1,0,0:0:0:40:kick.wav
448,192,97660,1,0,0:0:0:0:
192,192,97753,1,0,0:0:0:0:
320,192,97847,1,0,0:0:0:0:
192,192,97941,1,0,0:0:0:0:
64,192,98035,1,0,0:0:0:40:snare.wav
448,192,98035,1,0,0:0:0:0:
320,192,98128,1,0,0:0:0:0:
192,192,98222,1,0,0:0:0:0:
64,192,98410,1,0,0:0:0:40:kick.wav
320,192,98410,1,0,0:0:0:0:
192,192,98503,1,0,0:0:0:0:
320,192,98597,1,0,0:0:0:0:
448,192,98597,1,0,0:0:0:0:
64,192,98691,1,0,0:0:0:0:
192,192,98785,1,0,0:0:0:40:snare.wav
448,192,98785,1,0,0:0:0:0:
320,192,98878,1,0,0:0:0:0:
192,192,98972,1,0,0:0:0:0:
320,192,99160,1,0,0:0:0:40:kick.wav
448,192,99160,1,0,0:0:0:0:
192,192,99253,1,0,0:0:0:0:
448,192,99347,1,0,0:0:0:0:
192,192,99441,1,0,0:0:0:0:
64,192,99535,1,0,0:0:0:40:snare.wav
448,192,99535,1,0,0:0:0:0:
320,192,99628,1,0,0:0:0:0:
192,192,99722,1,0,0:0:0:0:
320,192,99910,1,0,0:0:0:40:kick.wav
448,192,99910,1,0,0:0:0:0:
192,192,100003,1,0,0:0:0:0:
320,192,100097,1,0,0:0:0:0:
448,192,100097,1,0,0:0:0:0:
192,192,100191,1,0,0:0:0:0:
320,192,100285,1,0,0:0:0:40:snare.wav
448,192,100285,1,0,0:0:0:0:
64,192,100378,1,0,0:0:0:0:
320,192,100472,1,0,0:0:0:0:
448,192,100472,1,0,0:0:0:0:
192,192,100566,1,0,0:0:0:0:
64,192,100660,1,0,0:0:0:40:kick.wav
448,192,100660,1,0,0:0:0:0:
320,192,100753,1,0,0:0:0:0:
64,192,100847,1,0,0:0:0:0:
192,192,100847,1,0,0:0:0:0:
448,192,100941,1,0,0:0:0:0:
64,192,101035,1,0,0:0:0:40:snare.wav
320,192,101035,1,0,0:0:0:0:
192,192,101128,1,0,0:0:0:0:
320,192,101222,1,0,0:0:0:0:
448,192,101222,1,0,0:0:0:0:
64,192,101316,1,0,0:0:0:0:
192,192,101410,1,0,0:0:0:40:kick.wav
320,192,101410,1,0,0:0:0:0:
448,192,101503,1,0,0:0:0:0:
64,192,101597,1,0,0:0:0:40:kick.wav
192,192,101597,1,0,0:0:0:0:
320,192,101691,1,0,0:0:0:0:
64,192,101785,1,0,0:0:0:40:kick.wav
192,192,101785,1,0,0:0:0:40:snare.wav
320,192,101878,1,0,0:0:0:40:kick.wav
448,192,101878,1,0,0:0:0:0:
64,192,101972,1,0,0:0:0:40:kick.wav
192,192,101972,1,0,0:0:0:0:
448,192,102066,1,0,0:0:0:0:
192,192,102160,1,0,0:0:0:40:kick.wav
320,192,102160,1,0,0:0:0:0:
64,192,102253,1,0,0:0:0:0:
320,192,102347,1,0,0:0:0:0:
64,192,102441,1,0,0:0:0:0:
320,192,102535,1,0,0:0:0:40:snare.wav
448,192,102535,1,0,0:0:0:0:
192,192,102628,1,0,0:0:0:0:
448,192,102722,1,0,0:0:0:0:
64,192,102910,1,0,0:0:0:40:kick.wav
192,192,102910,1,0,0:0:0:0:
320,192,103003,1,0,0:0:0:0:
192,192,103097,1,0,0:0:0:0:
448,192,103097,1,0,0:0:0:0:
64,192,103191,1,0,0:0:0:0:
320,192,103285,1,0,0:0:0:40:snare.wav
448,192,103285,1,0,0:0:0:0:
192,192,103378,1,0,0:0:0:0:
64,192,103472,1,0,0:0:0:0:
320,192,103472,1,0,0:0:0:0:
448,192,103566,1,0,0:0:0:0:
64,192,103660,1,0,0:0:0:40:kick.wav
192,192,103660,1,0,0:0:0:0:
320,192,103753,1,0,0:0:0:0:
192,192,103847,1,0,0:0:0:0:
320,192,103941,1,0,0:0:0:0:
64,192,104035,1,0,0:0:0:40:snare.wav
448,192,104035,1,0,0:0:0:0:
192,192,104128,1,0,0:0:0:0:
320,192,104222,1,0,0:0:0:0:
192,192,104410,1,0,0:0:0:40:kick.wav
448,192,104410,1,0,0:0:0:0:
64,192,104503,1,0,0:0:0:0:
320,192,104597,1,0,0:0:0:0:
448,192,104597,1,0,0:0:0:0:
192,192,104691,1,0,0:0:0:0:
64,192,104785,1,0,0:0:0:40:snare.wav
320,192,104785,1,0,0:0:0:0:
448,192,104972,1,0,0:0:0:0:
64,192,105160,1,0,0:0:0:40:kick.wav
320,192,105160,1,0,0:0:0:0:
192,192,105253,1,0,0:0:0:0:
320,192,105347,1,0,0:0:0:0:
192,192,105441,1,0,0:0:0:0:
64,192,105535,1,0,0:0:0:40:snare.wav
448,192,105535,1,0,0:0:0:0:
320,192,105628,1,0,0:0:0:0:
192,192,105722,1,0,0:0:0:0:
64,192,105910,1,0,0:0:0:40:kick.wav
192,192,105910,1,0,0:0:0:0:
320,192,106003,1,0,0:0:0:0:
64,192,106097,1,0,0:0:0:0:
192,192,106097,1,0,0:0:0:0:
320,192,106191,1,0,0:0:0:0:
64,192,106285,1,0,0:0:0:40:snare.wav
192,192,106285,1,0,0:0:0:0:
448,192,106378,1,0,0:0:0:0:
64,192,106472,1,0,0:0:0:0:
192,192,106472,1,0,0:0:0:0:
448,192,106566,1,0,0:0:0:0:
192,192,106660,1,0,0:0:0:40:kick.wav
320,192,106660,1,0,0:0:0:0:
64,192,106753,1,0,0:0:0:0:
320,192,106847,1,0,0:0:0:0:
448,192,106847,1,0,0:0:0:0:
192,192,106941,1,0,0:0:0:0:
64,192,107035,1,0,0:0:0:40:kick.wav
320,192,107035,1,0,0:0:0:40:snare.wav
448,192,107128,1,0,0:0:0:0:
64,192,107222,1,0,0:0:0:40:kick.wav
192,192,107222,1,0,0:0:0:0:
320,192,107316,1,0,0:0:0:0:
64,192,107410,1,0,0:0:0:40:kick.wav
192,192,107410,1,0,0:0:0:0:
320,192,107503,1,0,0:0:0:0:
64,192,107597,1,0,0:0:0:40:kick.wav
192,192,107597,1,0,0:0:0:0:
448,192,107691,1,0,0:0:0:0:
64,192,107785,1,0,0:0:0:40:kick.wav
192,192,107785,1,0,0:0:0:40:snare.wav
320,192,107878,1,0,0:0:0:40:kick.wav
448,192,107878,1,0,0:0:0:0:
64,192,107972,1,0,0:0:0:40:kick.wav
192,192,107972,1,0,0:0:0:0:
448,192,108066,1,0,0:0:0:0:
192,192,108160,1,0,0:0:0:0:
320,192,108253,1,0,0:0:0:0:
192,192,108347,1,0,0:0:0:0:
320,192,108441,1,0,0:0:0:0:
64,192,108535,1,0,0:0:0:40:clap.wav
448,192,108628,1,0,0:0:0:0:
192,192,108722,1,0,0:0:0:0:
320,192,108910,1,0,0:0:0:0:
448,192,109097,1,0,0:0:0:0:
192,192,109285,1,0,0:0:0:40:clap.wav
192,192,109472,1,0,0:0:0:0:
192,192,109660,1,0,0:0:0:0:
320,192,109847,1,0,0:0:0:0:
64,192,110035,1,0,0:0:0:40:clap.wav
192,192,110222,1,0,0:0:0:0:
320,192,110410,1,0,0:0:0:0:
448,192,110597,1,0,0:0:0:0:
64,192,110785,1,0,0:0:0:40:clap.wav
192,192,110972,1,0,0:0:0:0:
320,192,111160,1,0,0:0:0:0:
320,192,111347,1,0,0:0:0:0:
192,192,111535,1,0,0:0:0:40:clap.wav
320,192,111722,1,0,0:0:0:0:
320,192,111910,1,0,0:0:0:0:
320,192,112097,1,0,0:0:0:0:
64,192,112285,1,0,0:0:0:40:clap.wav
320,192,112472,1,0,0:0:0:0:
320,192,112660,1,0,0:0:0:0:
320,192,112847,1,0,0:0:0:0:
64,192,113035,1,0,0:0:0:40:clap.wav
448,192,113222,1,0,0:0:0:0:
192,192,113410,1,0,0:0:0:0:
320,192,113597,1,0,0:0:0:0:
64,192,113785,1,0,0:0:0:40:clap.wav
192,192,113972,1,0,0:0:0:0:
320,192,114160,1,0,0:0:0:0:
192,192,114347,1,0,0:0:0:0:
64,192,114535,1,0,0:0:0:40:clap.wav
192,192,114722,1,0,0:0:0:0:
320,192,114910,1,0,0:0:0:0:
448,192,115097,1,0,0:0:0:0:
64,192,115285,1,0,0:0:0:40:clap.wav
320,192,115472,1,0,0:0:0:0:
320,192,115660,1,0,0:0:0:0:
320,192,115847,1,0,0:0:0:0:
64,192,116035,1,0,0:0:0:40:clap.wav
192,192,116222,1,0,0:0:0:0:
320,192,116410,1,0,0:0:0:0:
448,192,116597,1,0,0:0:0:0:
64,192,116785,1,0,0:0:0:40:clap.wav
320,192,116972,1,0,0:0:0:0:
192,192,117160,1,0,0:0:0:0:
320,192,117347,1,0,0:0:0:0:
64,192,117535,1,0,0:0:0:40:clap.wav
448,192,117722,1,0,0:0:0:0:
320,192,117910,1,0,0:0:0:0:
320,192,118097,1,0,0:0:0:0:
64,192,118285,1,0,0:0:0:40:clap.wav
320,192,118472,1,0,0:0:0:0:
320,192,118660,1,0,0:0:0:0:
448,192,118847,1,0,0:0:0:0:
64,192,119035,1,0,0:0:0:40:clap.wav
192,192,119035,1,0,0:0:0:0:
320,192,119222,1,0,0:0:0:0:
448,192,119222,1,0,0:0:0:0:
64,192,119410,1,0,0:0:0:0:
448,192,119410,1,0,0:0:0:0:
192,192,119597,1,0,0:0:0:0:
320,192,119597,1,0,0:0:0:0:
64,192,119785,1,0,0:0:0:40:clap.wav
448,192,119785,1,0,0:0:0:0:
192,192,119972,1,0,0:0:0:0:
320,192,119972,1,0,0:0:0:0:
64,192,120160,1,0,0:0:0:0:
448,192,120160,1,0,0:0:0:0:
320,192,120347,1,0,0:0:0:0:
64,192,120535,1,0,0:0:0:40:clap.wav
64,192,120722,1,0,0:0:0:0:
192,192,120910,1,0,0:0:0:0:
448,192,120910,1,0,0:0:0:0:
320,192,121097,1,0,0:0:0:0:
64,192,121285,1,0,0:0:0:40:clap.wav
448,192,121285,1,0,0:0:0:0:
320,192,121472,1,0,0:0:0:0:
320,192,121660,1,0,0:0:0:0:
64,192,121847,1,0,0:0:0:0:
192,192,121847,1,0,0:0:0:0:
320,192,122035,1,0,0:0:0:40:clap.wav
64,192,122222,1,0,0:0:0:0:
192,192,122222,1,0,0:0:0:0:
64,192,122410,1,0,0:0:0:0:
192,192,122410,1,0,0:0:0:0:
192,192,122597,1,0,0:0:0:0:
320,192,122597,1,0,0:0:0:0:
64,192,122785,1,0,0:0:0:40:clap.wav
448,192,122785,1,0,0:0:0:0:
192,192,122972,1,0,0:0:0:0:
320,192,122972,1,0,0:0:0:0:
64,192,123160,1,0,0:0:0:0:
448,192,123160,1,0,0:0:0:0:
320,192,123347,1,0,0:0:0:0:
64,192,123535,1,0,0:0:0:40:clap.wav
64,192,123722,1,0,0:0:0:0:
320,192,123910,1,0,0:0:0:0:
448,192,123910,1,0,0:0:0:0:
64,192,124097,1,0,0:0:0:0:
192,192,124097,1,0,0:0:0:0:
320,192,124285,1,0,0:0:0:40:clap.wav
448,192,124285,1,0,0:0:0:0:
320,192,124472,1,0,0:0:0:0:
320,192,124660,1,0,0:0:0:0:
192,192,124847,1,0,0:0:0:0:
448,192,124847,1,0,0:0:0:0:
64,192,125035,1,0,0:0:0:40:clap.wav
192,192,125222,1,0,0:0:0:0:
448,192,125222,1,0,0:0:0:0:
192,192,125410,1,0,0:0:0:0:
320,192,125410,1,0,0:0:0:0:
64,192,125597,1,0,0:0:0:0:
448,192,125597,1,0,0:0:0:0:
192,192,125785,1,0,0:0:0:40:clap.wav
320,192,125785,1,0,0:0:0:0:
64,192,125972,1,0,0:0:0:0:
448,192,125972,1,0,0:0:0:0:
192,192,126160,1,0,0:0:0:0:
320,192,126160,1,0,0:0:0:0:
320,192,126347,1,0,0:0:0:0:
64,192,126535,1,0,0:0:0:40:clap.wav
64,192,126722,1,0,0:0:0:0:
192,192,126910,1,0,0:0:0:0:
448,192,126910,1,0,0:0:0:0:
320,192,127097,1,0,0:0:0:0:
64,192,127285,1,0,0:0:0:40:clap.wav
448,192,127285,1,0,0:0:0:0:
320,192,127472,1,0,0:0:0:0:
320,192,127660,1,0,0:0:0:0:
64,192,127847,1,0,0:0:0:0:
448,192,127847,1,0,0:0:0:0:
320,192,128035,1,0,0:0:0:40:clap.wav
64,192,128222,1,0,0:0:0:0:
448,192,128222,1,0,0:0:0:0:
64,192,128410,1,0,0:0:0:0:
448,192,128410,1,0,0:0:0:0:
320,192,128597,1,0,0:0:0:0:
448,192,128597,1,0,0:0:0:0:
64,192,128785,1,0,0:0:0:40:clap.wav
192,192,128785,1,0,0:0:0:0:
320,192,128972,1,0,0:0:0:0:
448,192,128972,1,0,0:0:0:0:
64,192,129160,1,0,0:0:0:0:
192,192,129160,1,0,0:0:0:0:
320,192,129347,1,0,0:0:0:0:
448,192,129535,1,0,0:0:0:40:clap.wav
448,192,129722,1,0,0:0:0:0:
64,192,129910,1,0,0:0:0:0:
192,192,129910,1,0,0:0:0:0:
320,192,130097,1,0,0:0:0:0:
448,192,130097,1,0,0:0:0:0:
64,192,130285,1,0,0:0:0:40:clap.wav
192,192,130285,1,0,0:0:0:0:
320,192,130472,1,0,0:0:0:0:
320,192,130660,1,0,0:0:0:0:
192,192,130847,1,0,0:0:0:0:
320,192,130847,1,0,0:0:0:0:
64,192,131035,1,0,0:0:0:40:clap.wav
192,192,131222,1,0,0:0:0:0:
320,192,131222,1,0,0:0:0:0:
192,192,131410,1,0,0:0:0:0:
448,192,131410,1,0,0:0:0:0:
64,192,131597,1,0,0:0:0:0:
320,192,131597,1,0,0:0:0:0:
192,192,131785,1,0,0:0:0:40:clap.wav
448,192,131785,1,0,0:0:0:0:
64,192,131972,1,0,0:0:0:0:
320,192,131972,1,0,0:0:0:0:
64,192,132160,1,0,0:0:0:40:kick.wav
448,192,132160,1,0,0:0:0:0:
