osu file format v14

[General]
AudioFilename: audio.mp3
AudioLeadIn: 0
PreviewTime: 94753
Countdown: 0
SampleSet: Soft
StackLeniency: 0.7
Mode: 3
LetterboxInBreaks: 0
SpecialStyle: 0
WidescreenStoryboard: 0

[Editor]
DistanceSpacing: 1.3
BeatDivisor: 2
GridSize: 16
TimelineZoom: 2.400001

[Metadata]
Title:think abt it w/ ppgcasper
TitleUnicode:think abt it w/ ppgcasper
Artist:oaf1
ArtistUnicode:oaf1
Creator:AchsanLovers
Version:EZ
Source:
Tags:oaafyy about with hyperpop sherly hyper pop english
BeatmapID:3664237
BeatmapSetID:1773437

[Difficulty]
HPDrainRate:6
CircleSize:4
OverallDifficulty:7
ApproachRate:5
SliderMultiplier:1.4
SliderTickRate:1

[Events]
//Background and Video events
0,0,"bg.jpg",0,0
//Break Periods
//Storyboard Layer 0 (Background)
//Storyboard Layer 1 (Fail)
//Storyboard Layer 2 (Pass)
//Storyboard Layer 3 (Foreground)
//Storyboard Layer 4 (Overlay)
//Storyboard Sound Samples
Sample,35785,0,"clap.wav",40
Sample,41785,0,"snare.wav",40
Sample,47785,0,"snare.wav",40
Sample,101785,0,"snare.wav",40
Sample,107035,0,"snare.wav",40
Sample,107785,0,"snare.wav",40

[TimingPoints]
160,375,4,2,1,40,1,0

[HitObjects]
192,192,24160,5,0,0:0:0:40:kick.wav
320,192,24535,1,0,0:0:0:40:clap.wav
64,192,24910,1,0,0:0:0:40:kick.wav
448,192,25285,1,0,0:0:0:40:clap.wav
192,192,25660,1,0,0:0:0:40:kick.wav
448,192,26035,1,0,0:0:0:40:clap.wav
64,192,26410,1,0,0:0:0:40:kick.wav
320,192,26785,1,0,0:0:0:40:clap.wav
192,192,27160,1,0,0:0:0:40:kick.wav
64,192,27535,1,0,0:0:0:40:clap.wav
320,192,27910,1,0,0:0:0:40:kick.wav
448,192,28285,1,0,0:0:0:40:clap.wav
192,192,28660,1,0,0:0:0:40:kick.wav
320,192,29035,1,0,0:0:0:40:clap.wav
64,192,29410,1,0,0:0:0:40:kick.wav
448,192,29597,1,0,0:0:0:40:kick.wav
320,192,29785,1,0,0:0:0:40:clap.wav
192,192,29972,1,0,0:0:0:40:kick.wav
448,192,30160,1,0,0:0:0:40:kick.wav
64,192,30535,1,0,0:0:0:40:clap.wav
192,192,30910,1,0,0:0:0:40:kick.wav
320,192,31285,1,0,0:0:0:40:clap.wav
64,192,31660,1,0,0:0:0:40:kick.wav
448,192,32035,1,0,0:0:0:40:clap.wav
192,192,32410,1,0,0:0:0:40:kick.wav
448,192,32785,1,0,0:0:0:40:clap.wav
64,192,33160,1,0,0:0:0:40:kick.wav
320,192,33535,1,0,0:0:0:40:clap.wav
192,192,33910,1,0,0:0:0:40:kick.wav
448,192,34285,1,0,0:0:0:40:clap.wav
320,192,34660,1,0,0:0:0:40:kick.wav
192,192,35035,1,0,0:0:0:40:clap.wav
64,192,35410,1,0,0:0:0:40:kick.wav
192,192,35597,1,0,0:0:0:40:kick.wav
448,192,35785,1,0,0:0:0:40:kick.wav
320,192,35972,1,0,0:0:0:40:kick.wav
64,192,36160,1,0,0:0:0:40:kick.wav
320,192,36535,1,0,0:0:0:40:snare.wav
192,192,36910,1,0,0:0:0:40:kick.wav
192,192,37285,1,0,0:0:0:40:snare.wav
448,192,37660,1,0,0:0:0:40:kick.wav
64,192,38035,1,0,0:0:0:40:snare.wav
320,192,38410,1,0,0:0:0:40:kick.wav
192,192,38785,1,0,0:0:0:40:snare.wav
448,192,39160,1,0,0:0:0:40:kick.wav
64,192,39535,1,0,0:0:0:40:snare.wav
320,192,39910,1,0,0:0:0:40:kick.wav
320,192,40285,1,0,0:0:0:40:snare.wav
192,192,40660,1,0,0:0:0:40:kick.wav
448,192,41035,1,0,0:0:0:40:snare.wav
64,192,41410,1,0,0:0:0:40:kick.wav
320,192,41597,1,0,0:0:0:40:kick.wav
192,192,41785,1,0,0:0:0:40:kick.wav
448,192,41972,1,0,0:0:0:40:kick.wav
64,192,42160,1,0,0:0:0:40:kick.wav
320,192,42535,1,0,0:0:0:40:snare.wav
448,192,42910,1,0,0:0:0:40:kick.wav
192,192,43285,1,0,0:0:0:40:snare.wav
64,192,43660,1,0,0:0:0:40:kick.wav
320,192,44035,1,0,0:0:0:40:snare.wav
192,192,44410,1,0,0:0:0:40:kick.wav
448,192,44785,1,0,0:0:0:40:snare.wav
64,192,45160,1,0,0:0:0:40:kick.wav
320,192,45535,1,0,0:0:0:40:snare.wav
192,192,45910,1,0,0:0:0:40:kick.wav
192,192,46285,1,0,0:0:0:40:snare.wav
448,192,46660,1,0,0:0:0:40:kick.wav
64,192,47035,1,0,0:0:0:40:snare.wav
320,192,47410,1,0,0:0:0:40:kick.wav
448,192,47597,1,0,0:0:0:40:kick.wav
192,192,47785,1,0,0:0:0:40:kick.wav
320,192,47972,1,0,0:0:0:40:kick.wav
64,192,48160,1,0,0:0:0:0:
448,192,48535,1,0,0:0:0:40:clap.wav
448,192,49285,1,0,0:0:0:40:clap.wav
192,192,50035,1,0,0:0:0:40:clap.wav
192,192,50785,1,0,0:0:0:40:clap.wav
320,192,51535,1,0,0:0:0:40:clap.wav
320,192,52285,1,0,0:0:0:40:clap.wav
64,192,53035,1,0,0:0:0:40:clap.wav
64,192,53785,1,0,0:0:0:40:clap.wav
192,192,54535,1,0,0:0:0:40:clap.wav
192,192,55285,1,0,0:0:0:40:clap.wav
320,192,56035,1,0,0:0:0:40:clap.wav
320,192,56785,1,0,0:0:0:40:clap.wav
448,192,57535,1,0,0:0:0:40:clap.wav
448,192,58285,1,0,0:0:0:40:clap.wav
64,192,59035,1,0,0:0:0:40:clap.wav
64,192,59785,1,0,0:0:0:40:clap.wav
192,192,60535,1,0,0:0:0:40:clap.wav
448,192,60910,1,0,0:0:0:0:
192,192,61285,1,0,0:0:0:40:clap.wav
320,192,62035,1,0,0:0:0:40:clap.wav
64,192,62410,1,0,0:0:0:0:
320,192,62785,1,0,0:0:0:40:clap.wav
192,192,63535,1,0,0:0:0:40:clap.wav
448,192,64285,1,0,0:0:0:40:clap.wav
64,192,65035,1,0,0:0:0:40:clap.wav
448,192,65410,1,0,0:0:0:0:
64,192,65785,1,0,0:0:0:40:clap.wav
192,192,66535,1,0,0:0:0:40:clap.wav
448,192,66910,1,0,0:0:0:0:
192,192,67285,1,0,0:0:0:40:clap.wav
320,192,68035,1,0,0:0:0:40:clap.wav
64,192,68410,1,0,0:0:0:0:
320,192,68785,1,0,0:0:0:40:clap.wav
192,192,69535,1,0,0:0:0:40:clap.wav
448,192,69910,1,0,0:0:0:0:
192,192,70285,1,0,0:0:0:40:clap.wav
192,192,72160,1,0,0:0:0:40:kick.wav
448,192,72160,1,0,0:0:0:0:
320,192,72535,1,0,0:0:0:40:snare.wav
64,192,72910,1,0,0:0:0:0:
192,192,73097,1,0,0:0:0:40:kick.wav
448,192,73285,1,0,0:0:0:40:snare.wav
192,192,73660,1,0,0:0:0:40:kick.wav
448,192,74035,1,0,0:0:0:40:snare.wav
64,192,74410,1,0,0:0:0:0:
320,192,74597,1,0,0:0:0:40:kick.wav
192,192,74785,1,0,0:0:0:40:snare.wav
448,192,75160,1,0,0:0:0:40:kick.wav
64,192,75535,1,0,0:0:0:40:snare.wav
448,192,75910,1,0,0:0:0:0:
320,192,76097,1,0,0:0:0:40:kick.wav
192,192,76285,1,0,0:0:0:40:snare.wav
448,192,76660,1,0,0:0:0:40:kick.wav
64,192,77035,1,0,0:0:0:40:snare.wav
448,192,77410,1,0,0:0:0:0:
192,192,77597,1,0,0:0:0:40:kick.wav
320,192,77785,1,0,0:0:0:40:snare.wav
64,192,77972,1,0,0:0:0:40:kick.wav
448,192,78160,1,0,0:0:0:40:kick.wav
320,192,78535,1,0,0:0:0:40:snare.wav
64,192,78910,1,0,0:0:0:0:
192,192,79097,1,0,0:0:0:40:kick.wav
320,192,79285,1,0,0:0:0:40:snare.wav
448,192,79660,1,0,0:0:0:40:kick.wav
64,192,80035,1,0,0:0:0:40:snare.wav
320,192,80597,1,0,0:0:0:40:kick.wav
192,192,80785,1,0,0:0:0:40:snare.wav
448,192,81160,1,0,0:0:0:40:kick.wav
64,192,81535,1,0,0:0:0:40:snare.wav
448,192,81910,1,0,0:0:0:0:
192,192,82097,1,0,0:0:0:40:kick.wav
320,192,82285,1,0,0:0:0:40:snare.wav
64,192,82660,1,0,0:0:0:40:kick.wav
64,192,83035,1,0,0:0:0:40:kick.wav
448,192,83410,1,0,0:0:0:40:kick.wav
320,192,83597,1,0,0:0:0:40:kick.wav
64,192,83785,1,0,0:0:0:40:kick.wav
192,192,83972,1,0,0:0:0:40:kick.wav
448,192,84160,1,0,0:0:0:0:
320,192,84535,1,0,0:0:0:40:clap.wav
320,192,85285,1,0,0:0:0:40:clap.wav
64,192,86035,1,0,0:0:0:40:clap.wav
64,192,86785,1,0,0:0:0:40:clap.wav
448,192,87535,1,0,0:0:0:40:clap.wav
448,192,88285,1,0,0:0:0:40:clap.wav
192,192,89035,1,0,0:0:0:40:clap.wav
192,192,89785,1,0,0:0:0:40:clap.wav
320,192,90535,1,0,0:0:0:40:clap.wav
320,192,91285,1,0,0:0:0:40:clap.wav
64,192,92035,1,0,0:0:0:40:clap.wav
64,192,92785,1,0,0:0:0:40:clap.wav
448,192,93535,1,0,0:0:0:40:clap.wav
448,192,94285,1,0,0:0:0:40:clap.wav
64,192,96160,1,0,0:0:0:40:kick.wav
320,192,96535,1,0,0:0:0:40:snare.wav
192,192,96910,1,0,0:0:0:40:kick.wav
192,192,97285,1,0,0:0:0:40:snare.wav
448,192,97660,1,0,0:0:0:40:kick.wav
64,192,98035,1,0,0:0:0:40:snare.wav
320,192,98410,1,0,0:0:0:40:kick.wav
192,192,98785,1,0,0:0:0:40:snare.wav
448,192,99160,1,0,0:0:0:40:kick.wav
64,192,99535,1,0,0:0:0:40:snare.wav
320,192,99910,1,0,0:0:0:40:kick.wav
320,192,100285,1,0,0:0:0:40:snare.wav
192,192,100660,1,0,0:0:0:40:kick.wav
448,192,101035,1,0,0:0:0:40:snare.wav
64,192,101410,1,0,0:0:0:40:kick.wav
448,192,101597,1,0,0:0:0:40:kick.wav
192,192,101785,1,0,0:0:0:40:kick.wav
320,192,101972,1,0,0:0:0:40:kick.wav
448,192,102160,1,0,0:0:0:40:kick.wav
64,192,102535,1,0,0:0:0:40:snare.wav
448,192,102910,1,0,0:0:0:40:kick.wav
192,192,103285,1,0,0:0:0:40:snare.wav
64,192,103660,1,0,0:0:0:40:kick.wav
320,192,104035,1,0,0:0:0:40:snare.wav
192,192,104410,1,0,0:0:0:40:kick.wav
448,192,104785,1,0,0:0:0:40:snare.wav
64,192,105160,1,0,0:0:0:40:kick.wav
320,192,105535,1,0,0:0:0:40:snare.wav
192,192,105910,1,0,0:0:0:40:kick.wav
192,192,106285,1,0,0:0:0:40:snare.wav
448,192,106660,1,0,0:0:0:40:kick.wav
64,192,107035,1,0,0:0:0:40:kick.wav
448,192,107410,1,0,0:0:0:40:kick.wav
320,192,107597,1,0,0:0:0:40:kick.wav
64,192,107785,1,0,0:0:0:40:kick.wav
192,192,107972,1,0,0:0:0:40:kick.wav
64,192,108535,1,0,0:0:0:40:clap.wav
320,192,108910,1,0,0:0:0:0:
64,192,109285,1,0,0:0:0:40:clap.wav
448,192,110035,1,0,0:0:0:40:clap.wav
192,192,110410,1,0,0:0:0:0:
448,192,110785,1,0,0:0:0:40:clap.wav
192,192,111535,1,0,0:0:0:40:clap.wav
192,192,112285,1,0,0:0:0:40:clap.wav
320,192,113035,1,0,0:0:0:40:clap.wav
320,192,113785,1,0,0:0:0:40:clap.wav
64,192,114535,1,0,0:0:0:40:clap.wav
320,192,114910,1,0,0:0:0:0:
64,192,115285,1,0,0:0:0:40:clap.wav
448,192,116035,1,0,0:0:0:40:clap.wav
192,192,116410,1,0,0:0:0:0:
448,192,116785,1,0,0:0:0:40:clap.wav
192,192,117535,1,0,0:0:0:40:clap.wav
320,192,118285,1,0,0:0:0:40:clap.wav
64,192,119035,1,0,0:0:0:40:clap.wav
448,192,119410,1,0,0:0:0:0:
64,192,119785,1,0,0:0:0:40:clap.wav
448,192,120160,1,0,0:0:0:0:
320,192,120910,1,0,0:0:0:0:
192,192,121285,1,0,0:0:0:40:clap.wav
192,192,122035,1,0,0:0:0:40:clap.wav
320,192,122410,1,0,0:0:0:0:
448,192,122785,1,0,0:0:0:40:clap.wav
64,192,123160,1,0,0:0:0:0:
320,192,123910,1,0,0:0:0:0:
192,192,124285,1,0,0:0:0:40:clap.wav
448,192,125035,1,0,0:0:0:40:clap.wav
320,192,125410,1,0,0:0:0:0:
64,192,125785,1,0,0:0:0:40:clap.wav
448,192,126160,1,0,0:0:0:0:
320,192,126910,1,0,0:0:0:0:
64,192,127285,1,0,0:0:0:40:clap.wav
64,192,128035,1,0,0:0:0:40:clap.wav
192,192,128410,1,0,0:0:0:0:
448,192,128785,1,0,0:0:0:40:clap.wav
320,192,129160,1,0,0:0:0:0:
320,192,129910,1,0,0:0:0:0:
64,192,130285,1,0,0:0:0:40:clap.wav
64,192,131035,1,0,0:0:0:40:clap.wav
320,192,131410,1,0,0:0:0:0:
192,192,131785,1,0,0:0:0:40:clap.wav
448,192,132160,1,0,0:0:0:40:kick.wav
