osu file format v14

[General]
AudioFilename: audio.mp3
AudioLeadIn: 0
PreviewTime: -1
Countdown: 0
SampleSet: Normal
StackLeniency: 0.7
Mode: 3
LetterboxInBreaks: 0
SpecialStyle: 0
WidescreenStoryboard: 1

[Editor]
DistanceSpacing: 0.8
BeatDivisor: 4
GridSize: 32
TimelineZoom: 1.7

[Metadata]
Title:Ascend
TitleUnicode:Ascend
Artist:oDDling
ArtistUnicode:oDDling
Creator:Jole
Version:no LN
Source:
Tags:4 key jumpstream accuracy acc quad 1m bait vaporwave nostalgic jolo
BeatmapID:2252903
BeatmapSetID:982402

[Difficulty]
HPDrainRate:8
CircleSize:4
OverallDifficulty:8
ApproachRate:5
SliderMultiplier:1.4
SliderTickRate:1

[Events]
//Background and Video events
0,0,"bg.jpg",0,0
//Break Periods
//Storyboard Layer 0 (Background)
//Storyboard Layer 1 (Fail)
//Storyboard Layer 2 (Pass)
//Storyboard Layer 3 (Foreground)
//Storyboard Layer 4 (Overlay)
//Storyboard Sound Samples

[TimingPoints]
368,631.578947,4,1,0,5,1,0

[HitObjects]
320,192,368,5,0,0:0:0:0:
320,192,841,1,0,0:0:0:0:
448,192,1315,1,0,0:0:0:0:
448,192,1789,1,0,0:0:0:0:
448,192,2262,1,0,0:0:0:0:
64,192,2894,1,0,0:0:0:0:
320,192,2894,1,0,0:0:0:0:
320,192,3367,1,0,0:0:0:0:
64,192,3367,1,0,0:0:0:0:
320,192,3841,1,0,0:0:0:0:
64,192,3841,1,0,0:0:0:0:
320,192,4315,1,0,0:0:0:0:
64,192,4315,1,0,0:0:0:0:
64,192,4789,1,0,0:0:0:0:
320,192,4789,1,0,0:0:0:0:
64,192,5420,1,0,0:0:0:0:
320,192,5420,1,0,0:0:0:0:
448,192,5420,1,0,0:0:0:0:
448,192,5894,1,0,0:0:0:0:
320,192,5894,1,0,0:0:0:0:
64,192,5894,1,0,0:0:0:0:
64,192,6367,1,0,0:0:0:0:
320,192,6367,1,0,0:0:0:0:
448,192,6367,1,0,0:0:0:0:
448,192,6841,1,0,0:0:0:0:
320,192,6841,1,0,0:0:0:0:
64,192,6841,1,0,0:0:0:0:
64,192,7315,1,0,0:0:0:0:
320,192,7315,1,0,0:0:0:0:
448,192,7315,1,0,0:0:0:0:
64,192,7946,1,0,0:0:0:0:
192,192,7946,1,0,0:0:0:0:
448,192,7946,1,0,0:0:0:0:
64,192,8420,1,0,0:0:0:0:
192,192,8420,1,0,0:0:0:0:
448,192,8420,1,0,0:0:0:0:
64,192,8894,1,0,0:0:0:0:
192,192,8894,1,0,0:0:0:0:
448,192,8894,1,0,0:0:0:0:
64,192,9367,1,0,0:0:0:0:
192,192,9367,1,0,0:0:0:0:
448,192,9367,1,0,0:0:0:0:
64,192,9841,1,0,0:0:0:0:
192,192,9841,1,0,0:0:0:0:
448,192,9841,1,0,0:0:0:0:
64,192,10473,1,0,0:0:0:0:
320,192,10473,1,0,0:0:0:0:
192,192,10473,1,0,0:0:0:0:
64,192,10946,1,0,0:0:0:0:
320,192,10946,1,0,0:0:0:0:
192,192,10946,1,0,0:0:0:0:
320,192,11420,1,0,0:0:0:0:
448,192,11420,1,0,0:0:0:0:
192,192,11420,1,0,0:0:0:0:
320,192,11894,1,0,0:0:0:0:
448,192,11894,1,0,0:0:0:0:
192,192,11894,1,0,0:0:0:0:
320,192,12367,1,0,0:0:0:0:
448,192,12367,1,0,0:0:0:0:
192,192,12367,1,0,0:0:0:0:
192,192,12999,1,0,0:0:0:0:
320,192,12999,1,0,0:0:0:0:
64,192,12999,1,0,0:0:0:0:
192,192,13473,1,0,0:0:0:0:
320,192,13473,1,0,0:0:0:0:
64,192,13473,1,0,0:0:0:0:
192,192,13946,1,0,0:0:0:0:
320,192,13946,1,0,0:0:0:0:
64,192,13946,1,0,0:0:0:0:
192,192,14420,1,0,0:0:0:0:
320,192,14420,1,0,0:0:0:0:
64,192,14420,1,0,0:0:0:0:
192,192,14894,1,0,0:0:0:0:
320,192,14894,1,0,0:0:0:0:
64,192,14894,1,0,0:0:0:0:
192,192,15525,1,0,0:0:0:0:
320,192,15525,1,0,0:0:0:0:
64,192,15525,1,0,0:0:0:0:
192,192,15999,1,0,0:0:0:0:
320,192,15999,1,0,0:0:0:0:
64,192,15999,1,0,0:0:0:0:
192,192,16473,1,0,0:0:0:0:
320,192,16473,1,0,0:0:0:0:
64,192,16473,1,0,0:0:0:0:
192,192,16946,1,0,0:0:0:0:
320,192,16946,1,0,0:0:0:0:
64,192,16946,1,0,0:0:0:0:
192,192,17420,1,0,0:0:0:0:
320,192,17420,1,0,0:0:0:0:
64,192,17420,1,0,0:0:0:0:
320,192,18052,1,0,0:0:0:0:
448,192,18052,1,0,0:0:0:0:
192,192,18052,1,0,0:0:0:0:
320,192,18525,1,0,0:0:0:0:
448,192,18525,1,0,0:0:0:0:
192,192,18525,1,0,0:0:0:0:
320,192,18999,1,0,0:0:0:0:
448,192,18999,1,0,0:0:0:0:
192,192,18999,1,0,0:0:0:0:
64,192,19473,1,0,0:0:0:0:
448,192,19473,1,0,0:0:0:0:
192,192,19473,1,0,0:0:0:0:
64,192,19946,1,0,0:0:0:0:
448,192,19946,1,0,0:0:0:0:
192,192,19946,1,0,0:0:0:0:
64,192,20578,1,0,0:0:0:0:
320,192,20578,1,0,0:0:0:0:
192,192,20578,1,0,0:0:0:0:
64,192,21052,1,0,0:0:0:0:
320,192,21052,1,0,0:0:0:0:
192,192,21052,1,0,0:0:0:0:
320,192,21525,1,0,0:0:0:0:
448,192,21525,1,0,0:0:0:0:
192,192,21525,1,0,0:0:0:0:
320,192,21999,1,0,0:0:0:0:
448,192,21999,1,0,0:0:0:0:
192,192,21999,1,0,0:0:0:0:
320,192,22473,1,0,0:0:0:0:
448,192,22473,1,0,0:0:0:0:
192,192,22473,1,0,0:0:0:0:
448,192,22789,1,0,0:0:0:0:
192,192,22946,1,0,0:0:0:0:
64,192,23104,1,0,0:0:0:0:
320,192,23104,1,0,0:0:0:0:
448,192,23262,1,0,0:0:0:0:
192,192,23420,1,0,0:0:0:0:
64,192,23578,1,0,0:0:0:0:
320,192,23578,1,0,0:0:0:0:
448,192,23736,1,0,0:0:0:0:
192,192,23894,1,0,0:0:0:0:
64,192,24052,1,0,0:0:0:0:
320,192,24052,1,0,0:0:0:0:
448,192,24210,1,0,0:0:0:0:
192,192,24367,1,0,0:0:0:0:
64,192,24525,1,0,0:0:0:0:
320,192,24525,1,0,0:0:0:0:
192,192,24683,1,0,0:0:0:0:
448,192,24841,1,0,0:0:0:0:
64,192,24999,1,0,0:0:0:0:
320,192,24999,1,0,0:0:0:0:
448,192,25157,1,0,0:0:0:0:
192,192,25315,1,0,0:0:0:0:
320,192,25473,1,0,0:0:0:0:
192,192,25631,1,0,0:0:0:0:
448,192,25631,1,0,0:0:0:0:
64,192,25789,1,0,0:0:0:0:
320,192,25946,1,0,0:0:0:0:
192,192,26104,1,0,0:0:0:0:
448,192,26104,1,0,0:0:0:0:
64,192,26262,1,0,0:0:0:0:
320,192,26420,1,0,0:0:0:0:
192,192,26578,1,0,0:0:0:0:
448,192,26578,1,0,0:0:0:0:
64,192,26736,1,0,0:0:0:0:
320,192,26894,1,0,0:0:0:0:
192,192,27052,1,0,0:0:0:0:
448,192,27052,1,0,0:0:0:0:
320,192,27210,1,0,0:0:0:0:
64,192,27367,1,0,0:0:0:0:
192,192,27525,1,0,0:0:0:0:
448,192,27525,1,0,0:0:0:0:
64,192,27683,1,0,0:0:0:0:
192,192,27841,1,0,0:0:0:0:
320,192,27999,1,0,0:0:0:0:
64,192,28157,1,0,0:0:0:0:
192,192,28157,1,0,0:0:0:0:
448,192,28315,1,0,0:0:0:0:
320,192,28473,1,0,0:0:0:0:
64,192,28631,1,0,0:0:0:0:
192,192,28631,1,0,0:0:0:0:
448,192,28789,1,0,0:0:0:0:
320,192,28946,1,0,0:0:0:0:
64,192,29104,1,0,0:0:0:0:
192,192,29104,1,0,0:0:0:0:
448,192,29262,1,0,0:0:0:0:
320,192,29420,1,0,0:0:0:0:
64,192,29578,1,0,0:0:0:0:
192,192,29578,1,0,0:0:0:0:
448,192,29736,1,0,0:0:0:0:
320,192,29894,1,0,0:0:0:0:
64,192,30052,1,0,0:0:0:0:
192,192,30052,1,0,0:0:0:0:
448,192,30210,1,0,0:0:0:0:
320,192,30367,1,0,0:0:0:0:
192,192,30525,1,0,0:0:0:0:
64,192,30683,1,0,0:0:0:0:
320,192,30683,1,0,0:0:0:0:
192,192,30841,1,0,0:0:0:0:
448,192,30999,1,0,0:0:0:0:
64,192,31157,1,0,0:0:0:0:
320,192,31157,1,0,0:0:0:0:
192,192,31315,1,0,0:0:0:0:
64,192,31473,1,0,0:0:0:0:
192,192,31631,1,0,0:0:0:0:
448,192,31631,1,0,0:0:0:0:
320,192,31789,1,0,0:0:0:0:
64,192,31946,1,0,0:0:0:0:
192,192,32104,1,0,0:0:0:0:
448,192,32104,1,0,0:0:0:0:
320,192,32262,1,0,0:0:0:0:
64,192,32420,1,0,0:0:0:0:
192,192,32578,1,0,0:0:0:0:
448,192,32578,1,0,0:0:0:0:
320,192,32736,1,0,0:0:0:0:
64,192,32894,1,0,0:0:0:0:
448,192,33052,1,0,0:0:0:0:
192,192,33210,1,0,0:0:0:0:
320,192,33210,1,0,0:0:0:0:
64,192,33367,1,0,0:0:0:0:
448,192,33525,1,0,0:0:0:0:
192,192,33683,1,0,0:0:0:0:
320,192,33683,1,0,0:0:0:0:
64,192,33841,1,0,0:0:0:0:
448,192,33999,1,0,0:0:0:0:
192,192,34157,1,0,0:0:0:0:
320,192,34157,1,0,0:0:0:0:
64,192,34315,1,0,0:0:0:0:
448,192,34473,1,0,0:0:0:0:
192,192,34631,1,0,0:0:0:0:
320,192,34631,1,0,0:0:0:0:
64,192,34789,1,0,0:0:0:0:
448,192,34946,1,0,0:0:0:0:
192,192,35104,1,0,0:0:0:0:
320,192,35104,1,0,0:0:0:0:
64,192,35262,1,0,0:0:0:0:
192,192,35420,1,0,0:0:0:0:
448,192,35578,1,0,0:0:0:0:
192,192,35736,1,0,0:0:0:0:
320,192,35736,1,0,0:0:0:0:
64,192,35894,1,0,0:0:0:0:
448,192,36052,1,0,0:0:0:0:
192,192,36210,1,0,0:0:0:0:
320,192,36210,1,0,0:0:0:0:
64,192,36367,1,0,0:0:0:0:
448,192,36525,1,0,0:0:0:0:
192,192,36683,1,0,0:0:0:0:
320,192,36683,1,0,0:0:0:0:
64,192,36841,1,0,0:0:0:0:
448,192,36999,1,0,0:0:0:0:
192,192,37157,1,0,0:0:0:0:
320,192,37157,1,0,0:0:0:0:
64,192,37315,1,0,0:0:0:0:
448,192,37473,1,0,0:0:0:0:
192,192,37631,1,0,0:0:0:0:
320,192,37631,1,0,0:0:0:0:
64,192,37789,1,0,0:0:0:0:
448,192,37946,1,0,0:0:0:0:
64,192,38104,1,0,0:0:0:0:
192,192,38262,1,0,0:0:0:0:
448,192,38262,1,0,0:0:0:0:
320,192,38420,1,0,0:0:0:0:
64,192,38578,1,0,0:0:0:0:
192,192,38736,1,0,0:0:0:0:
448,192,38736,1,0,0:0:0:0:
320,192,38894,1,0,0:0:0:0:
64,192,39052,1,0,0:0:0:0:
192,192,39210,1,0,0:0:0:0:
448,192,39210,1,0,0:0:0:0:
320,192,39367,1,0,0:0:0:0:
64,192,39525,1,0,0:0:0:0:
192,192,39683,1,0,0:0:0:0:
448,192,39683,1,0,0:0:0:0:
320,192,39841,1,0,0:0:0:0:
64,192,39999,1,0,0:0:0:0:
192,192,40157,1,0,0:0:0:0:
448,192,40157,1,0,0:0:0:0:
320,192,40315,1,0,0:0:0:0:
64,192,40473,1,0,0:0:0:0:
192,192,40473,1,0,0:0:0:0:
448,192,40631,1,0,0:0:0:0:
64,192,40789,1,0,0:0:0:0:
320,192,40789,1,0,0:0:0:0:
192,192,40946,1,0,0:0:0:0:
320,192,41104,1,0,0:0:0:0:
448,192,41104,1,0,0:0:0:0:
64,192,41262,1,0,0:0:0:0:
192,192,41262,1,0,0:0:0:0:
448,192,41420,1,0,0:0:0:0:
320,192,41578,1,0,0:0:0:0:
192,192,41736,1,0,0:0:0:0:
448,192,41736,1,0,0:0:0:0:
64,192,41894,1,0,0:0:0:0:
448,192,42052,1,0,0:0:0:0:
64,192,42210,1,0,0:0:0:0:
192,192,42210,1,0,0:0:0:0:
320,192,42367,1,0,0:0:0:0:
448,192,42367,1,0,0:0:0:0:
64,192,42525,1,0,0:0:0:0:
192,192,42683,1,0,0:0:0:0:
448,192,42683,1,0,0:0:0:0:
320,192,42841,1,0,0:0:0:0:
64,192,42999,1,0,0:0:0:0:
448,192,43157,1,0,0:0:0:0:
64,192,43315,1,0,0:0:0:0:
320,192,43315,1,0,0:0:0:0:
448,192,43473,1,0,0:0:0:0:
64,192,43631,1,0,0:0:0:0:
192,192,43631,1,0,0:0:0:0:
320,192,43789,1,0,0:0:0:0:
448,192,43789,1,0,0:0:0:0:
64,192,43946,1,0,0:0:0:0:
448,192,44104,1,0,0:0:0:0:
64,192,44262,1,0,0:0:0:0:
320,192,44262,1,0,0:0:0:0:
192,192,44420,1,0,0:0:0:0:
64,192,44578,1,0,0:0:0:0:
320,192,44736,1,0,0:0:0:0:
448,192,44736,1,0,0:0:0:0:
64,192,44894,1,0,0:0:0:0:
192,192,44894,1,0,0:0:0:0:
448,192,45052,1,0,0:0:0:0:
64,192,45210,1,0,0:0:0:0:
320,192,45210,1,0,0:0:0:0:
192,192,45367,1,0,0:0:0:0:
320,192,45525,1,0,0:0:0:0:
448,192,45525,1,0,0:0:0:0:
192,192,45683,1,0,0:0:0:0:
64,192,45841,1,0,0:0:0:0:
320,192,45841,1,0,0:0:0:0:
448,192,45999,1,0,0:0:0:0:
64,192,46157,1,0,0:0:0:0:
192,192,46157,1,0,0:0:0:0:
320,192,46315,1,0,0:0:0:0:
448,192,46315,1,0,0:0:0:0:
64,192,46473,1,0,0:0:0:0:
448,192,46631,1,0,0:0:0:0:
64,192,46789,1,0,0:0:0:0:
320,192,46789,1,0,0:0:0:0:
192,192,46946,1,0,0:0:0:0:
64,192,47104,1,0,0:0:0:0:
320,192,47262,1,0,0:0:0:0:
448,192,47262,1,0,0:0:0:0:
64,192,47420,1,0,0:0:0:0:
192,192,47420,1,0,0:0:0:0:
448,192,47578,1,0,0:0:0:0:
64,192,47736,1,0,0:0:0:0:
320,192,47736,1,0,0:0:0:0:
448,192,47894,1,0,0:0:0:0:
192,192,48052,1,0,0:0:0:0:
320,192,48052,1,0,0:0:0:0:
448,192,48210,1,0,0:0:0:0:
64,192,48367,1,0,0:0:0:0:
192,192,48367,1,0,0:0:0:0:
448,192,48525,1,0,0:0:0:0:
64,192,48683,1,0,0:0:0:0:
192,192,48683,1,0,0:0:0:0:
320,192,48841,1,0,0:0:0:0:
448,192,48841,1,0,0:0:0:0:
64,192,48999,1,0,0:0:0:0:
448,192,49157,1,0,0:0:0:0:
64,192,49315,1,0,0:0:0:0:
192,192,49315,1,0,0:0:0:0:
320,192,49473,1,0,0:0:0:0:
64,192,49631,1,0,0:0:0:0:
320,192,49789,1,0,0:0:0:0:
448,192,49789,1,0,0:0:0:0:
64,192,49946,1,0,0:0:0:0:
192,192,49946,1,0,0:0:0:0:
320,192,50104,1,0,0:0:0:0:
64,192,50262,1,0,0:0:0:0:
192,192,50262,1,0,0:0:0:0:
448,192,50420,1,0,0:0:0:0:
192,192,50578,1,0,0:0:0:0:
320,192,50578,1,0,0:0:0:0:
448,192,50736,1,0,0:0:0:0:
64,192,50894,1,0,0:0:0:0:
320,192,50894,1,0,0:0:0:0:
192,192,51052,1,0,0:0:0:0:
320,192,51210,1,0,0:0:0:0:
448,192,51210,1,0,0:0:0:0:
64,192,51367,1,0,0:0:0:0:
192,192,51367,1,0,0:0:0:0:
448,192,51525,1,0,0:0:0:0:
320,192,51683,1,0,0:0:0:0:
192,192,51841,1,0,0:0:0:0:
448,192,51841,1,0,0:0:0:0:
64,192,51999,1,0,0:0:0:0:
320,192,52157,1,0,0:0:0:0:
64,192,52315,1,0,0:0:0:0:
192,192,52315,1,0,0:0:0:0:
320,192,52473,1,0,0:0:0:0:
448,192,52473,1,0,0:0:0:0:
64,192,52631,1,0,0:0:0:0:
192,192,52789,1,0,0:0:0:0:
448,192,52789,1,0,0:0:0:0:
320,192,52946,1,0,0:0:0:0:
64,192,53104,1,0,0:0:0:0:
192,192,53104,1,0,0:0:0:0:
448,192,53262,1,0,0:0:0:0:
64,192,53420,1,0,0:0:0:0:
320,192,53420,1,0,0:0:0:0:
448,192,53578,1,0,0:0:0:0:
64,192,53736,1,0,0:0:0:0:
192,192,53736,1,0,0:0:0:0:
320,192,53894,1,0,0:0:0:0:
448,192,53894,1,0,0:0:0:0:
64,192,54052,1,0,0:0:0:0:
448,192,54210,1,0,0:0:0:0:
64,192,54367,1,0,0:0:0:0:
320,192,54367,1,0,0:0:0:0:
192,192,54525,1,0,0:0:0:0:
64,192,54683,1,0,0:0:0:0:
320,192,54841,1,0,0:0:0:0:
448,192,54841,1,0,0:0:0:0:
64,192,54999,1,0,0:0:0:0:
192,192,54999,1,0,0:0:0:0:
448,192,55157,1,0,0:0:0:0:
64,192,55315,1,0,0:0:0:0:
320,192,55315,1,0,0:0:0:0:
192,192,55473,1,0,0:0:0:0:
320,192,55631,1,0,0:0:0:0:
448,192,55631,1,0,0:0:0:0:
192,192,55789,1,0,0:0:0:0:
64,192,55946,1,0,0:0:0:0:
320,192,55946,1,0,0:0:0:0:
448,192,56104,1,0,0:0:0:0:
64,192,56262,1,0,0:0:0:0:
192,192,56262,1,0,0:0:0:0:
320,192,56420,1,0,0:0:0:0:
448,192,56420,1,0,0:0:0:0:
64,192,56578,1,0,0:0:0:0:
448,192,56736,1,0,0:0:0:0:
64,192,56894,1,0,0:0:0:0:
320,192,56894,1,0,0:0:0:0:
192,192,57052,1,0,0:0:0:0:
64,192,57210,1,0,0:0:0:0:
320,192,57367,1,0,0:0:0:0:
448,192,57367,1,0,0:0:0:0:
64,192,57525,1,0,0:0:0:0:
192,192,57525,1,0,0:0:0:0:
448,192,57683,1,0,0:0:0:0:
64,192,57841,1,0,0:0:0:0:
320,192,57841,1,0,0:0:0:0:
448,192,57999,1,0,0:0:0:0:
64,192,58157,1,0,0:0:0:0:
192,192,58157,1,0,0:0:0:0:
320,192,58315,1,0,0:0:0:0:
192,192,58473,1,0,0:0:0:0:
448,192,58473,1,0,0:0:0:0:
64,192,58631,1,0,0:0:0:0:
320,192,58789,1,0,0:0:0:0:
448,192,58789,1,0,0:0:0:0:
64,192,58946,1,0,0:0:0:0:
192,192,58946,1,0,0:0:0:0:
448,192,59104,1,0,0:0:0:0:
64,192,59262,1,0,0:0:0:0:
192,192,59420,1,0,0:0:0:0:
448,192,59420,1,0,0:0:0:0:
320,192,59578,1,0,0:0:0:0:
64,192,59736,1,0,0:0:0:0:
320,192,59894,1,0,0:0:0:0:
448,192,59894,1,0,0:0:0:0:
64,192,60052,1,0,0:0:0:0:
192,192,60052,1,0,0:0:0:0:
320,192,60210,1,0,0:0:0:0:
192,192,60367,1,0,0:0:0:0:
448,192,60367,1,0,0:0:0:0:
64,192,60525,1,0,0:0:0:0:
320,192,60683,1,0,0:0:0:0:
448,192,60683,1,0,0:0:0:0:
192,192,60841,1,0,0:0:0:0:
64,192,60999,1,0,0:0:0:0:
320,192,60999,1,0,0:0:0:0:
192,192,61157,1,0,0:0:0:0:
320,192,61315,1,0,0:0:0:0:
448,192,61315,1,0,0:0:0:0:
64,192,61473,1,0,0:0:0:0:
192,192,61473,1,0,0:0:0:0:
448,192,61631,1,0,0:0:0:0:
320,192,61789,1,0,0:0:0:0:
192,192,61946,1,0,0:0:0:0:
448,192,61946,1,0,0:0:0:0:
64,192,62104,1,0,0:0:0:0:
448,192,62262,1,0,0:0:0:0:
64,192,62420,1,0,0:0:0:0:
192,192,62420,1,0,0:0:0:0:
320,192,62578,1,0,0:0:0:0:
448,192,62578,1,0,0:0:0:0:
64,192,62736,1,0,0:0:0:0:
192,192,62894,1,0,0:0:0:0:
448,192,62894,1,0,0:0:0:0:
320,192,63052,1,0,0:0:0:0:
64,192,63210,1,0,0:0:0:0:
448,192,63367,1,0,0:0:0:0:
64,192,63525,1,0,0:0:0:0:
320,192,63525,1,0,0:0:0:0:
448,192,63683,1,0,0:0:0:0:
64,192,63841,1,0,0:0:0:0:
192,192,63841,1,0,0:0:0:0:
320,192,63999,1,0,0:0:0:0:
448,192,63999,1,0,0:0:0:0:
64,192,64157,1,0,0:0:0:0:
448,192,64315,1,0,0:0:0:0:
64,192,64473,1,0,0:0:0:0:
320,192,64473,1,0,0:0:0:0:
192,192,64631,1,0,0:0:0:0:
64,192,64789,1,0,0:0:0:0:
320,192,64946,1,0,0:0:0:0:
448,192,64946,1,0,0:0:0:0:
64,192,65104,1,0,0:0:0:0:
192,192,65104,1,0,0:0:0:0:
448,192,65262,1,0,0:0:0:0:
64,192,65420,1,0,0:0:0:0:
320,192,65420,1,0,0:0:0:0:
192,192,65578,1,0,0:0:0:0:
320,192,65736,1,0,0:0:0:0:
448,192,65736,1,0,0:0:0:0:
192,192,65894,1,0,0:0:0:0:
64,192,66052,1,0,0:0:0:0:
320,192,66052,1,0,0:0:0:0:
448,192,66210,1,0,0:0:0:0:
64,192,66367,1,0,0:0:0:0:
192,192,66367,1,0,0:0:0:0:
320,192,66525,1,0,0:0:0:0:
448,192,66525,1,0,0:0:0:0:
64,192,66683,1,0,0:0:0:0:
448,192,66841,1,0,0:0:0:0:
64,192,66999,1,0,0:0:0:0:
320,192,66999,1,0,0:0:0:0:
192,192,67157,1,0,0:0:0:0:
64,192,67315,1,0,0:0:0:0:
320,192,67473,1,0,0:0:0:0:
448,192,67473,1,0,0:0:0:0:
64,192,67631,1,0,0:0:0:0:
192,192,67631,1,0,0:0:0:0:
448,192,67789,1,0,0:0:0:0:
64,192,67946,1,0,0:0:0:0:
320,192,67946,1,0,0:0:0:0:
448,192,68104,1,0,0:0:0:0:
192,192,68262,1,0,0:0:0:0:
320,192,68262,1,0,0:0:0:0:
448,192,68420,1,0,0:0:0:0:
64,192,68578,1,0,0:0:0:0:
192,192,68578,1,0,0:0:0:0:
448,192,68736,1,0,0:0:0:0:
64,192,68894,1,0,0:0:0:0:
192,192,68894,1,0,0:0:0:0:
320,192,69052,1,0,0:0:0:0:
448,192,69052,1,0,0:0:0:0:
64,192,69210,1,0,0:0:0:0:
448,192,69367,1,0,0:0:0:0:
64,192,69525,1,0,0:0:0:0:
192,192,69525,1,0,0:0:0:0:
320,192,69683,1,0,0:0:0:0:
64,192,69841,1,0,0:0:0:0:
320,192,69999,1,0,0:0:0:0:
448,192,69999,1,0,0:0:0:0:
64,192,70157,1,0,0:0:0:0:
192,192,70157,1,0,0:0:0:0:
320,192,70315,1,0,0:0:0:0:
64,192,70473,1,0,0:0:0:0:
192,192,70473,1,0,0:0:0:0:
448,192,70631,1,0,0:0:0:0:
192,192,70789,1,0,0:0:0:0:
320,192,70789,1,0,0:0:0:0:
448,192,70946,1,0,0:0:0:0:
64,192,71104,1,0,0:0:0:0:
320,192,71104,1,0,0:0:0:0:
192,192,71262,1,0,0:0:0:0:
320,192,71420,1,0,0:0:0:0:
448,192,71420,1,0,0:0:0:0:
64,192,71578,1,0,0:0:0:0:
192,192,71578,1,0,0:0:0:0:
448,192,71736,1,0,0:0:0:0:
320,192,71894,1,0,0:0:0:0:
192,192,72052,1,0,0:0:0:0:
448,192,72052,1,0,0:0:0:0:
64,192,72210,1,0,0:0:0:0:
320,192,72367,1,0,0:0:0:0:
64,192,72525,1,0,0:0:0:0:
192,192,72525,1,0,0:0:0:0:
320,192,72683,1,0,0:0:0:0:
448,192,72683,1,0,0:0:0:0:
64,192,72841,1,0,0:0:0:0:
192,192,72999,1,0,0:0:0:0:
448,192,72999,1,0,0:0:0:0:
320,192,73157,1,0,0:0:0:0:
64,192,73315,1,0,0:0:0:0:
192,192,73315,1,0,0:0:0:0:
448,192,73473,1,0,0:0:0:0:
64,192,73631,1,0,0:0:0:0:
320,192,73631,1,0,0:0:0:0:
448,192,73789,1,0,0:0:0:0:
64,192,73946,1,0,0:0:0:0:
192,192,73946,1,0,0:0:0:0:
320,192,74104,1,0,0:0:0:0:
448,192,74104,1,0,0:0:0:0:
64,192,74262,1,0,0:0:0:0:
448,192,74420,1,0,0:0:0:0:
64,192,74578,1,0,0:0:0:0:
320,192,74578,1,0,0:0:0:0:
192,192,74736,1,0,0:0:0:0:
64,192,74894,1,0,0:0:0:0:
320,192,75052,1,0,0:0:0:0:
448,192,75052,1,0,0:0:0:0:
64,192,75210,1,0,0:0:0:0:
192,192,75210,1,0,0:0:0:0:
448,192,75367,1,0,0:0:0:0:
64,192,75525,1,0,0:0:0:0:
320,192,75525,1,0,0:0:0:0:
192,192,75683,1,0,0:0:0:0:
320,192,75841,1,0,0:0:0:0:
448,192,75841,1,0,0:0:0:0:
192,192,75999,1,0,0:0:0:0:
64,192,76157,1,0,0:0:0:0:
320,192,76157,1,0,0:0:0:0:
448,192,76315,1,0,0:0:0:0:
64,192,76473,1,0,0:0:0:0:
192,192,76473,1,0,0:0:0:0:
320,192,76631,1,0,0:0:0:0:
448,192,76631,1,0,0:0:0:0:
64,192,76789,1,0,0:0:0:0:
448,192,76946,1,0,0:0:0:0:
64,192,77104,1,0,0:0:0:0:
320,192,77104,1,0,0:0:0:0:
192,192,77262,1,0,0:0:0:0:
64,192,77420,1,0,0:0:0:0:
320,192,77578,1,0,0:0:0:0:
448,192,77578,1,0,0:0:0:0:
64,192,77736,1,0,0:0:0:0:
192,192,77736,1,0,0:0:0:0:
448,192,77894,1,0,0:0:0:0:
64,192,78052,1,0,0:0:0:0:
320,192,78052,1,0,0:0:0:0:
448,192,78210,1,0,0:0:0:0:
64,192,78367,1,0,0:0:0:0:
192,192,78367,1,0,0:0:0:0:
320,192,78525,1,0,0:0:0:0:
192,192,78683,1,0,0:0:0:0:
448,192,78683,1,0,0:0:0:0:
64,192,78841,1,0,0:0:0:0:
320,192,78999,1,0,0:0:0:0:
448,192,78999,1,0,0:0:0:0:
64,192,79157,1,0,0:0:0:0:
192,192,79157,1,0,0:0:0:0:
448,192,79315,1,0,0:0:0:0:
64,192,79473,1,0,0:0:0:0:
320,192,79631,1,0,0:0:0:0:
448,192,79631,1,0,0:0:0:0:
192,192,79789,1,0,0:0:0:0:
448,192,80104,1,0,0:0:0:0:
320,192,80262,1,0,0:0:0:0:
320,192,80578,1,0,0:0:0:0:
