osu file format v14

[General]
AudioFilename: audio.mp3
AudioLeadIn: 0
PreviewTime: 22512
Countdown: 0
SampleSet: Soft
StackLeniency: 0.7
Mode: 0
LetterboxInBreaks: 0
WidescreenStoryboard: 1

[Editor]
DistanceSpacing: 1.3
BeatDivisor: 4
GridSize: 32
TimelineZoom: 3.399999

[Metadata]
Title:Snorkel
TitleUnicode:Snorkel
Artist:nyankobrq
ArtistUnicode:nyankobrq
Creator:Ogura Yui
Version:Hard
Source:
Tags:yuuma 中村さんそ nakamura sanso japanese electronic future bass real cat fa featured artist mpg mappers' guild
BeatmapID:3905285
BeatmapSetID:1886230

[Difficulty]
HPDrainRate:4
CircleSize:3.5
OverallDifficulty:6
ApproachRate:7
SliderMultiplier:1.4
SliderTickRate:1

[Events]
//Background and Video events
0,0,"wotoha love hard.jpg",0,0
//Break Periods
//Storyboard Layer 0 (Background)
//Storyboard Layer 1 (Fail)
//Storyboard Layer 2 (Pass)
//Storyboard Layer 3 (Foreground)
//Storyboard Layer 4 (Overlay)
//Storyboard Sound Samples

[TimingPoints]
12,375,4,2,1,50,1,0
12,-125,4,2,1,50,0,0
12012,-111.111111111111,4,2,1,60,0,0
23262,-111.111111111111,4,2,1,70,0,0
24012,-100,4,2,1,80,0,0
36012,-100,4,2,1,70,0,0
42012,-100,4,2,1,80,0,0
45012,-100,4,2,1,70,0,0
46512,-100,4,2,1,80,0,0
48012,-111.111111111111,4,2,1,70,0,0
72012,-125,4,2,1,60,0,0
96012,-142.857142857143,4,2,1,40,0,0
120012,-111.111111111111,4,2,1,50,0,0
132012,-111.111111111111,4,2,1,60,0,0
143262,-111.111111111111,4,2,1,70,0,0
144012,-100,4,2,1,80,0,0
147012,-100,4,2,1,70,0,0
150012,-100,4,2,1,80,0,0
153012,-100,4,2,1,70,0,0
156012,-100,4,2,1,80,0,0
159012,-100,4,2,1,70,0,0
162012,-100,4,2,1,80,0,0
165012,-100,4,2,1,70,0,0
168012,-125,4,2,1,60,0,0
192012,-125,4,2,1,50,0,0

[Colours]
Combo1 : 103,3,252
Combo2 : 128,255,255
Combo3 : 128,128,255

[HitObjects]
439,130,12,6,0,P|414:64|320:59,1,168,6|0,0:0|0:0,0:0:0:0:
263,110,762,2,0,L|281:228,1,112,10|2,0:0|0:0,0:0:0:0:
368,353,1512,2,0,B|292:344|295:286|190:291,1,168,2|0,0:0|0:0,0:0:0:0:
142,336,2262,2,0,P|84:351|28:328,1,112,10|2,0:0|0:0,0:0:0:0:
102,207,3012,6,0,P|154:154|94:76,1,168,2|0,0:0|0:0,0:0:0:0:
178,21,3762,2,0,L|288:48,1,112,10|2,0:0|0:0,0:0:0:0:
248,208,4512,2,0,L|428:174,1,168,2|0,0:0|0:0,0:0:0:0:
498,157,5262,1,10,0:0:0:0:
474,240,5449,2,0,L|489:293,2,56,2|2|2,0:0|0:0|0:0,0:0:0:0:
413,176,6012,6,0,L|419:114,2,56,2|2|2,0:0|0:0|0:0,0:0:0:0:
388,263,6574,2,0,P|349:293|278:288,1,112,2|2,0:0|0:0,0:0:0:0:
208,254,7137,2,0,P|173:240|146:240,1,56,2|2,0:0|0:0,0:0:0:0:
69,261,7512,1,2,0:0:0:0:
26,183,7699,1,2,0:0:0:0:
86,114,7887,1,2,0:0:0:0:
168,153,8074,2,0,P|220:167|280:174,1,112,2|2,0:0|0:0,0:0:0:0:
362,156,8637,2,0,P|401:139|413:131,1,56,2|2,0:0|0:0,0:0:0:0:
452,58,9012,6,0,P|418:11|297:89,1,224,2|10,0:0|0:0,0:0:0:0:
362,156,9949,2,0,P|357:187|350:219,1,56,2|2,0:0|0:0,0:0:0:0:
280,270,10324,1,2,0:0:0:0:
339,339,10512,2,0,P|387:332|403:327,2,56,2|2|2,0:0|0:0|0:0,0:0:0:0:
339,339,11074,1,2,0:0:0:0:
280,270,11262,2,0,P|223:257|212:257,1,56,10|2,0:0|0:0,0:0:0:0:
155,314,11637,2,0,P|117:322|87:325,1,56,2|2,0:0|0:0,0:0:0:0:
34,257,12012,6,0,L|52:128,1,125.999996154785,14|10,3:2|0:0,0:0:0:0:
121,75,12574,1,10,0:0:0:0:
204,121,12762,1,10,0:0:0:0:
347,16,13137,1,10,0:0:0:0:
466,164,13512,6,0,L|448:238,1,62.9999980773926,10|10,3:2|0:0,0:0:0:0:
360,169,13887,2,0,L|351:99,1,62.9999980773926,10|0,0:0|0:0,0:0:0:0:
257,156,14262,1,10,0:0:0:0:
155,314,14637,1,10,0:0:0:0:
246,352,14824,1,10,0:0:0:0:
246,352,14918,1,10,0:0:0:0:
246,352,15012,6,0,P|271:303|239:233,1,125.999996154785,10|10,3:2|0:0,0:0:0:0:
170,189,15574,1,10,0:0:0:0:
227,112,15762,1,10,0:0:0:0:
385,216,16137,1,10,0:0:0:0:
498,59,16512,6,0,L|410:43,1,62.9999980773926,10|10,3:2|0:0,0:0:0:0:
347,27,16887,2,0,L|259:11,1,62.9999980773926,10|2,0:0|0:0,0:0:0:0:
198,42,17262,1,10,0:0:0:0:
305,169,17637,2,0,L|295:210,3,31.4999990386963,10|8|10|8,0:0|0:0|0:0|0:0,0:0:0:0:
312,228,18012,6,0,L|298:278,7,31.4999990386963,10|8|8|8|10|8|10|8,0:0|0:0|0:0|0:0|0:0|0:0|0:0|0:0,0:0:0:0:
318,286,18762,2,0,P|358:320|432:314,1,125.999996154785,10|10,0:0|0:0,0:0:0:0:
495,153,19512,6,0,L|488:110,7,31.4999990386963,10|8|10|8|10|8|10|8,0:0|0:0|0:0|0:0|0:0|0:0|0:0|0:0,0:0:0:0:
483,90,20262,2,0,P|430:50|353:61,1,125.999996154785,10|10,0:0|0:0,0:0:0:0:
233,108,21012,6,0,L|214:104,28,15.7499995193482,10|8|8|8|10|8|8|0|10|8|8|8|10|8|8|0|10|8|8|8|8|8|8|0|10|8|8|8|8,0:0|0:0|0:0|0:0|0:0|0:0|0:0|0:0|0:0|0:0|0:0|0:0|0:0|0:0|0:0|0:0|0:0|0:0|0:0|0:0|0:0|0:0|0:0|0:0|0:0|0:0|0:0|0:0|0:0,0:0:0:0:
286,181,22512,6,0,L|261:295,2,94.499997116089,10|10|2,0:0|0:0|0:0,0:0:0:0:
372,150,23262,2,0,P|409:161|429:182,1,62.9999980773926,10|10,0:0|0:0,0:0:0:0:
472,252,23637,2,0,P|483:288|472:322,1,62.9999980773926,10|10,0:0|0:0,0:0:0:0:
388,347,24012,6,0,L|241:317,1,140,6|10,3:2|0:0,0:0:0:0:
159,348,24574,1,2,3:2:0:0:
71,224,24949,1,2,3:2:0:0:
184,119,25324,2,0,L|334:151,1,140,2|10,0:0|0:0,0:0:0:0:
342,163,25793,1,10,0:0:0:0:
342,163,25887,2,0,P|389:183|426:175,1,70,10|10,0:0|0:0,0:0:0:0:
502,192,26262,2,0,P|495:141|470:113,1,70,2|2,3:2|0:0,0:0:0:0:
448,39,26637,2,0,P|407:69|395:105,1,70,10|2,3:2|3:2,0:0:0:0:
342,163,27012,6,0,L|361:306,1,140,6|2,0:0|3:2,0:0:0:0:
282,357,27574,1,2,3:2:0:0:
202,308,27762,1,10,0:0:0:0:
202,308,27949,2,0,P|138:269|72:277,1,140,2|2,0:0|0:0,0:0:0:0:
10,195,28512,6,0,P|60:171|86:172,1,70,2|10,3:2|0:0,0:0:0:0:
100,180,28793,1,10,0:0:0:0:
100,180,28887,2,0,P|117:143|111:104,1,70,10|2,0:0|0:0,0:0:0:0:
71,32,29262,1,10,0:0:0:0:
162,0,29449,1,10,0:0:0:0:
230,66,29637,1,10,3:2:0:0:
320,40,29824,1,10,3:2:0:0:
392,108,30012,6,0,P|381:158|366:254,1,140,6|10,3:2|0:0,0:0:0:0:
383,340,30574,1,2,3:2:0:0:
503,234,30949,1,2,3:2:0:0:
392,108,31324,2,0,P|326:120|248:140,1,140,2|10,0:0|0:0,0:0:0:0:
234,160,31793,1,10,0:0:0:0:
234,160,31887,2,0,P|221:203|214:244,1,70,10|10,3:2|0:0,0:0:0:0:
170,315,32262,2,0,P|139:282|107:255,1,70,2|2,3:2|0:0,0:0:0:0:
67,182,32637,2,0,P|110:171|149:157,1,70,10|2,3:2|3:2,0:0:0:0:
234,160,33012,6,0,P|266:91|222:16,1,140,6|2,3:2|3:2,0:0:0:0:
154,9,33574,1,2,3:2:0:0:
72,66,33762,1,10,0:0:0:0:
72,66,33949,2,0,L|94:212,1,140,2|2,0:0|0:0,0:0:0:0:
73,314,34512,6,0,P|125:312|154:292,1,70,2|10,3:2|0:0,0:0:0:0:
169,290,34793,1,10,0:0:0:0:
169,290,34887,2,0,P|210:272|249:279,1,70,10|2,0:0|0:0,0:0:0:0:
313,327,35262,1,10,0:0:0:0:
387,268,35449,1,10,0:0:0:0:
355,179,35636,1,10,3:2:0:0:
260,182,35824,1,10,3:2:0:0:
234,273,36012,6,0,P|191:305|95:284,1,140,6|10,3:2|0:0,0:0:0:0:
36,241,36574,1,2,3:2:0:0:
132,85,36949,1,2,3:2:0:0:
215,120,37137,1,10,0:0:0:0:
291,71,37324,2,0,P|323:55|358:51,1,70,2|4,0:0|3:2,0:0:0:0:
450,81,37699,5,10,0:0:0:0:
450,81,37793,1,10,0:0:0:0:
450,81,37887,2,0,L|435:167,1,70,10|10,0:0|0:0,0:0:0:0:
357,214,38262,2,0,L|344:145,1,70,2|2,3:2|0:0,0:0:0:0:
252,102,38637,2,0,L|237:188,1,70,10|2,3:2|3:2,0:0:0:0:
256,269,39012,6,0,L|180:251,1,70,6|2,3:2|0:0,0:0:0:0:
131,332,39387,2,0,L|55:314,1,70,2|2,3:2|3:2,0:0:0:0:
30,226,39762,1,10,0:0:0:0:
30,226,39949,2,0,P|5:158|27:93,1,140,2|2,0:0|0:0,0:0:0:0:
99,33,40512,5,2,3:2:0:0:
180,93,40699,1,10,0:0:0:0:
180,93,40793,1,10,0:0:0:0:
180,93,40887,2,0,L|256:80,1,70,10|2,0:0|0:0,0:0:0:0:
340,46,41262,1,10,0:0:0:0:
398,124,41449,1,10,0:0:0:0:
306,160,41637,1,10,3:2:0:0:
248,81,41824,1,10,3:2:0:0:
340,46,42012,6,0,P|396:59|480:91,1,140,6|10,3:2|0:0,0:0:0:0:
507,182,42574,1,2,3:2:0:0:
357,237,42949,1,2,3:2:0:0:
487,344,43324,2,0,P|413:331|344:323,1,140,2|10,0:0|0:0,0:0:0:0:
315,334,43793,1,10,0:0:0:0:
315,334,43887,2,0,P|260:347|230:349,1,70,10|10,0:0|0:0,0:0:0:0:
150,354,44262,2,0,P|166:299|179:272,1,70,2|2,3:2|0:0,0:0:0:0:
215,201,44637,2,0,P|253:242|270:267,1,70,10|10,3:2|3:2,0:0:0:0:
315,334,45012,6,0,P|342:271|359:195,1,140,6|2,3:2|3:2,0:0:0:0:
434,147,45574,1,2,3:2:0:0:
369,83,45762,1,10,0:0:0:0:
369,83,45949,2,0,P|314:91|229:121,1,140,2|2,0:0|0:0,0:0:0:0:
155,176,46512,6,0,P|102:163|52:146,2,105,10|10|10,0:0|0:0|0:0,0:0:0:0:
246,212,47262,2,0,P|257:255|242:297,1,70,10|10,0:0|0:0,0:0:0:0:
235,311,47543,1,10,0:0:0:0:
235,311,47637,2,0,L|156:329,1,70,10|2,0:0|0:0,0:0:0:0:
66,351,48012,6,0,P|20:288|35:225,1,125.999996154785,6|2,3:2|1:2,0:0:0:0:
57,165,48574,1,2,0:0:0:0:
141,136,48762,2,0,P|156:179|148:219,1,62.9999980773926,10|2,0:0|0:0,0:0:0:0:
114,275,49137,1,2,0:0:0:0:
114,275,49324,6,0,P|181:237|246:249,1,125.999996154785,2|0,3:2|0:0,0:0:0:0:
312,269,49887,2,0,P|352:286|390:279,1,62.9999980773926,2|2,1:2|0:0,0:0:0:0:
397,190,50262,1,10,0:0:0:0:
397,190,50449,2,0,P|358:173|319:180,1,62.9999980773926,2|0,0:0|1:0,0:0:0:0:
253,202,50824,6,0,B|240:170|224:153|224:153|242:66,2,125.999996154785,2|2|2,0:0|0:0|3:2,0:0:0:0:
223,284,51762,1,8,0:0:0:0:
223,284,51949,2,0,P|166:267|76:254,1,125.999996154785,2|2,0:0|3:2,0:0:0:0:
38,193,52512,6,0,P|6:137|25:82,1,125.999996154785,2|2,0:0|1:2,0:0:0:0:
113,68,53074,1,2,3:2:0:0:
113,68,53262,2,0,L|99:148,1,62.9999980773926,10|2,0:0|0:0,0:0:0:0:
190,143,53637,2,0,L|200:80,1,62.9999980773926,2|2,1:2|0:0,0:0:0:0:
287,51,54012,6,0,B|331:42|331:42|367:53|367:53|417:44,1,125.999996154785,2|2,3:2|1:2,0:0:0:0:
484,104,54574,1,2,0:0:0:0:
484,104,54762,2,0,P|482:150|451:178,1,62.9999980773926,10|2,0:0|0:0,0:0:0:0:
380,181,55137,1,2,0:0:0:0:
430,259,55324,6,0,P|392:235|301:237,1,125.999996154785,2|0,3:2|0:0,0:0:0:0:
239,285,55887,2,0,L|255:361,1,62.9999980773926,2|2,1:2|0:0,0:0:0:0:
152,306,56262,1,10,0:0:0:0:
152,306,56449,2,0,L|133:228,1,62.9999980773926,2|0,0:0|1:0,0:0:0:0:
175,158,56824,6,0,P|122:148|55:196,2,125.999996154785,2|2|2,0:0|0:0|3:2,0:0:0:0:
264,116,57762,1,8,0:0:0:0:
264,116,57949,2,0,P|277:73|269:40,1,62.9999980773926
187,22,58324,1,2,3:2:0:0:
110,81,58512,6,0,L|131:232,1,125.999996154785,2|2,0:0|1:2,0:0:0:0:
205,270,59074,1,2,3:2:0:0:
205,270,59262,2,0,L|218:198,1,62.9999980773926,10|2,0:0|0:0,0:0:0:0:
302,185,59637,2,0,L|313:246,1,62.9999980773926,2|2,1:2|0:0,0:0:0:0:
391,306,60012,6,0,P|343:345|282:338,1,125.999996154785,6|2,3:2|1:2,0:0:0:0:
212,288,60574,1,2,0:0:0:0:
130,329,60762,2,0,P|115:287|114:256,1,62.9999980773926,10|2,0:0|0:0,0:0:0:0:
60,202,61137,1,2,0:0:0:0:
60,202,61324,6,0,P|78:122|81:64,1,125.999996154785,2|0,3:2|0:0,0:0:0:0:
161,28,61887,2,0,P|174:70|177:100,1,62.9999980773926,2|2,1:2|0:0,0:0:0:0:
233,155,62262,1,10,0:0:0:0:
233,155,62449,2,0,P|287:137|316:136,1,62.9999980773926,2|2,0:0|1:2,0:0:0:0:
381,175,62824,6,0,P|449:196|519:205,2,125.999996154785,2|2|2,0:0|0:0|3:2,0:0:0:0:
298,229,63762,1,8,0:0:0:0:
298,229,63949,2,0,P|254:239|227:248,1,62.9999980773926,2|2,0:0|0:0,0:0:0:0:
160,292,64324,1,2,3:2:0:0:
68,267,64512,6,0,L|43:141,1,125.999996154785,2|2,0:0|1:2,0:0:0:0:
105,76,65074,1,2,3:2:0:0:
105,76,65262,2,0,P|158:86|188:96,1,62.9999980773926,10|2,0:0|0:0,0:0:0:0:
226,154,65637,2,0,P|257:146|285:133,1,62.9999980773926,2|2,1:2|0:0,0:0:0:0:
322,54,66012,6,0,P|373:69|442:102,1,125.999996154785,2|2,3:2|1:2,0:0:0:0:
469,188,66574,1,2,0:0:0:0:
469,188,66762,2,0,P|435:188|406:202,1,62.9999980773926,10|2,0:0|0:0,0:0:0:0:
340,259,67137,1,2,0:0:0:0:
414,317,67324,6,0,P|370:351|295:346,1,125.999996154785,2|0,3:2|0:0,0:0:0:0:
213,340,67887,2,0,L|197:264,1,62.9999980773926,2|2,1:2|0:0,0:0:0:0:
134,224,68262,1,10,0:0:0:0:
134,224,68449,2,0,L|149:141,1,62.9999980773926,2|2,0:0|1:2,0:0:0:0:
187,80,68824,6,0,P|134:70|67:118,2,125.999996154785,2|2|2,0:0|0:0|3:2,0:0:0:0:
255,144,69762,1,8,0:0:0:0:
255,144,69949,2,0,P|299:163|336:157,1,62.9999980773926,2|2,0:0|0:0,0:0:0:0:
380,110,70324,1,2,3:2:0:0:
422,181,70512,6,0,P|448:234|419:302,1,125.999996154785,2|2,0:0|0:0,0:0:0:0:
345,338,71074,1,2,3:2:0:0:
345,338,71262,2,0,L|273:345,1,62.9999980773926,10|2,0:0|0:0,0:0:0:0:
202,298,71637,2,0,L|130:305,1,62.9999980773926,2|2,3:2|0:0,0:0:0:0:
73,367,72012,6,0,P|50:317|60:255,1,112,6|2,3:2|1:2,0:0:0:0:
97,184,72574,1,0,0:0:0:0:
97,184,72762,2,0,L|219:205,1,112,10|2,0:0|0:0,0:0:0:0:
287,154,73324,1,2,3:2:0:0:
358,212,73512,2,0,L|376:326,2,112,2|2|10,0:0|1:2|0:0,0:0:0:0:
358,212,74637,2,0,P|374:177|376:144,1,56,2|0,1:2|0:0,0:0:0:0:
436,101,75012,6,0,P|396:73|331:67,1,112,2|2,3:2|1:2,0:0:0:0:
249,97,75574,1,2,3:2:0:0:
163,77,75762,2,0,P|149:41|144:19,1,56,10|2,0:0|0:0,0:0:0:0:
72,79,76137,2,0,P|56:117|49:142,1,56,2|2,0:0|3:2,0:0:0:0:
15,210,76512,6,0,P|62:184|130:171,1,112,2|2,0:0|1:2,0:0:0:0:
203,192,77074,1,2,3:2:0:0:
195,278,77262,2,0,P|236:298|308:301,1,112,10|0,0:0|1:2,0:0:0:0:
377,270,77824,1,2,0:0:0:0:
311,216,78012,6,0,P|305:184|313:151,1,56,2|0,3:2|0:0,0:0:0:0:
395,181,78387,2,0,P|424:126|406:65,1,112,2|10,1:2|0:0,0:0:0:0:
350,20,78949,1,2,0:0:0:0:
272,59,79137,2,0,L|214:45,1,56,2|2,0:0|3:2,0:0:0:0:
128,24,79512,6,0,L|141:142,1,112,2|2,0:0|1:2,0:0:0:0:
221,178,80074,1,0,0:0:0:0:
221,178,80262,2,0,L|202:294,1,112,10|2,0:0|1:2,0:0:0:0:
136,346,80824,1,2,0:0:0:0:
60,295,81012,6,0,P|42:273|36:239,1,56,2|0,3:2|0:0,0:0:0:0:
53,161,81387,1,2,1:2:0:0:
53,161,81574,1,2,3:2:0:0:
127,218,81762,2,0,P|164:210|187:186,1,56,10|0,0:0|0:0,0:0:0:0:
258,242,82137,2,0,P|284:204|286:174,1,56,2|2,0:0|3:2,0:0:0:0:
376,173,82512,6,0,P|354:121|291:95,1,112,2|2,0:0|1:2,0:0:0:0:
217,65,83074,1,2,3:2:0:0:
217,65,83262,1,10,0:0:0:0:
258,242,83637,1,2,1:2:0:0:
405,361,84012,6,0,L|430:238,1,112,6|2,3:2|1:2,0:0:0:0:
471,170,84574,1,2,0:0:0:0:
382,178,84762,2,0,L|360:57,1,112,10|2,0:0|0:0,0:0:0:0:
291,15,85324,1,2,3:2:0:0:
222,67,85512,6,0,P|177:97|111:120,2,112,2|2|10,0:0|1:2|0:0,0:0:0:0:
222,67,86637,2,0,P|235:102|241:138,1,56,0|2,1:2|0:0,0:0:0:0:
184,191,87012,6,0,P|172:238|169:303,1,112,2|2,3:2|1:2,0:0:0:0:
229,358,87574,1,2,3:2:0:0:
265,280,87762,2,0,P|306:287|328:298,1,56,10|2,0:0|0:0,0:0:0:0:
391,335,88137,2,0,P|418:344|445:347,1,56,2|2,0:0|3:2,0:0:0:0:
441,255,88512,6,0,P|454:227|459:193,1,56,2|2,0:0|0:0,0:0:0:0:
427,122,88887,1,2,1:2:0:0:
427,122,89074,1,2,3:2:0:0:
369,201,89262,2,0,P|342:142|332:82,1,112,10|0,0:0|1:2,0:0:0:0:
263,37,89824,1,2,0:0:0:0:
179,72,90012,6,0,P|163:122|156:188,2,112,2|2|10,3:2|1:2|0:0,0:0:0:0:
111,25,90949,1,2,0:0:0:0:
111,25,91137,2,0,P|71:42|48:41,1,56,2|2,0:0|3:2,0:0:0:0:
0,115,91512,6,0,P|72:126|117:145,2,112,2|2|10,0:0|1:2|0:0,0:0:0:0:
0,115,92637,2,0,P|11:160|14:186,1,56,0|2,1:2|0:0,0:0:0:0:
1,250,93012,6,0,P|31:280|100:285,1,112,2|2,3:2|1:2,0:0:0:0:
176,243,93574,1,2,3:2:0:0:
253,283,93762,2,0,P|267:237|260:215,1,56,10|2,0:0|0:0,0:0:0:0:
214,162,94137,2,0,P|207:125|221:91,1,56,2|2,0:0|3:2,0:0:0:0:
268,37,94512,6,0,L|393:60,1,112,2|2,0:0|0:0,0:0:0:0:
464,87,95074,1,2,3:2:0:0:
484,172,95262,2,0,L|415:186,1,56,10|2,0:0|0:0,0:0:0:0:
378,258,95637,2,0,L|447:272,1,56,2|2,3:2|0:0,0:0:0:0:
353,342,96012,6,0,P|293:303|169:277,1,195.999994018555,6|10,0:0|0:0,0:0:0:0:
40,135,97512,2,0,P|103:106|236:94,1,195.999994018555,2|10,0:0|0:0,0:0:0:0:
404,28,99012,2,0,L|369:237,1,195.999994018555,2|10,0:0|0:0,0:0:0:0:
238,366,100512,2,0,L|206:216,1,146.999995513916,2|2,0:0|0:0,0:0:0:0:
120,213,101262,2,0,L|150:356,1,146.999995513916,10|2,0:0|0:0,0:0:0:0:
238,366,102012,6,0,B|325:355|319:290|427:283,1,195.999994018555,2|10,0:0|0:0,0:0:0:0:
484,92,103512,2,0,B|390:97|396:162|309:173,1,195.999994018555,2|10,0:0|0:0,0:0:0:0:
168,50,105012,2,0,P|115:43|18:149,1,195.999994018555,2|10,0:0|0:0,0:0:0:0:
23,342,106512,2,0,P|99:337|148:273,1,146.999995513916,2|0,0:0|0:0,0:0:0:0:
181,211,107262,2,0,P|230:158|301:155,1,146.999995513916,10|2,0:0|0:0,0:0:0:0:
379,195,108012,6,0,B|380:253|346:309|346:309|303:283|255:284,1,195.999994018555,6|10,0:0|0:0,0:0:0:0:
86,164,109512,2,0,B|85:106|119:50|119:50|162:76|210:75,1,195.999994018555,2|10,0:0|0:0,0:0:0:0:
378,45,111012,2,0,B|425:66|471:28|471:28|466:94|509:114,1,195.999994018555,2|10,0:0|0:0,0:0:0:0:
464,297,112512,2,0,P|438:254|331:236,1,146.999995513916,2|2,0:0|0:0,0:0:0:0:
301,306,113262,2,0,P|257:237|278:177,1,146.999995513916,10|2,0:0|0:0,0:0:0:0:
340,112,114012,6,0,P|332:47|213:34,1,195.999994018555,2|10,0:0|0:0,0:0:0:0:
69,135,115512,2,0,L|275:96,1,195.999994018555,2|10,0:0|0:0,0:0:0:0:
424,207,117012,2,0,B|472:182|472:134|472:134|454:102|454:63|454:63|467:78|483:79,2,195.999994018555,2|10|2,0:0|0:0|0:0,0:0:0:0:
50,45,120012,6,0,L|66:174,1,125.999996154785,14|10,0:0|0:0,0:0:0:0:
80,256,120574,1,10,0:0:0:0:
146,201,120762,1,10,0:0:0:0:
243,304,121137,1,10,0:0:0:0:
390,339,121512,6,0,P|425:338|458:318,1,62.9999980773926,10|10,0:0|0:0,0:0:0:0:
464,236,121887,2,0,P|429:237|396:257,1,62.9999980773926,10|0,0:0|0:0,0:0:0:0:
325,287,122262,1,10,0:0:0:0:
239,175,122637,1,10,0:0:0:0:
303,109,122824,1,10,0:0:0:0:
303,109,122918,1,10,0:0:0:0:
303,109,123012,6,0,P|356:120|435:138,1,125.999996154785,10|10,0:0|0:0,0:0:0:0:
506,175,123574,1,10,0:0:0:0:
497,79,123762,1,10,0:0:0:0:
429,229,124137,1,10,0:0:0:0:
279,286,124512,6,0,L|191:270,1,62.9999980773926,10|10,0:0|0:0,0:0:0:0:
153,217,124887,2,0,L|65:201,1,62.9999980773926,10|0,0:0|0:0,0:0:0:0:
19,255,125262,1,10,0:0:0:0:
19,255,125449,2,0,L|29:319,2,62.9999980773926,0|10|10,0:0|0:0|0:0,0:0:0:0:
5,151,126012,6,0,P|38:126|75:120,1,62.9999980773926,10|2,0:0|0:0,0:0:0:0:
129,54,126387,1,10,0:0:0:0:
129,54,126574,2,0,P|213:88|257:85,1,125.999996154785,10|2,0:0|0:0,0:0:0:0:
336,58,127137,2,0,P|372:44|405:41,1,62.9999980773926,10|2,0:0|0:0,0:0:0:0:
483,88,127512,5,10,0:0:0:0:
400,129,127699,1,10,0:0:0:0:
473,181,127887,1,10,0:0:0:0:
388,221,128074,2,0,L|398:291,1,62.9999980773926,2|8,0:0|0:0,0:0:0:0:
473,334,128449,2,0,L|491:263,2,62.9999980773926,2|10|10,0:0|0:0|0:0,0:0:0:0:
450,363,128918,1,10,0:0:0:0:
450,363,129012,6,0,P|404:347|326:340,1,125.999996154785,10|8,0:0|0:0,0:0:0:0:
266,260,129574,2,0,P|212:277|185:278,1,62.9999980773926,10|10,0:0|0:0,0:0:0:0:
137,334,129949,2,0,P|101:323|73:305,2,62.9999980773926,2|10|2,0:0|0:0|0:0,0:0:0:0:
226,375,130512,6,0,P|236:334|228:308,1,62.9999980773926,10|10,0:0|0:0,0:0:0:0:
191,229,130887,2,0,P|182:193|195:148,1,62.9999980773926,10|2,0:0|0:0,0:0:0:0:
211,78,131262,1,10,0:0:0:0:
211,78,131449,1,2,0:0:0:0:
300,115,131637,1,10,0:0:0:0:
375,62,131824,1,10,0:0:0:0:
398,56,131918,1,10,0:0:0:0:
421,62,132012,6,0,P|441:108|445:193,1,125.999996154785,14|10,3:2|0:0,0:0:0:0:
420,271,132574,1,10,0:0:0:0:
358,206,132762,1,10,3:2:0:0:
301,345,133137,1,10,0:0:0:0:
207,233,133512,6,0,L|123:245,1,62.9999980773926,10|10,3:2|0:0,0:0:0:0:
61,255,133887,1,10,0:0:0:0:
61,255,134074,1,2,0:0:0:0:
91,166,134262,1,10,3:2:0:0:
115,329,134637,1,10,0:0:0:0:
203,357,134824,1,10,0:0:0:0:
203,357,134918,1,10,0:0:0:0:
203,357,135012,6,0,P|236:289|221:233,1,125.999996154785,10|10,3:2|0:0,0:0:0:0:
180,164,135574,1,10,0:0:0:0:
235,83,135762,1,10,3:2:0:0:
368,136,136137,1,10,0:0:0:0:
482,32,136512,6,0,P|496:66|491:104,1,62.9999980773926,10|10,3:2|0:0,0:0:0:0:
454,166,136887,2,0,P|444:209|453:242,1,62.9999980773926,10|2,0:0|0:0,0:0:0:0:
501,298,137262,1,10,3:2:0:0:
361,354,137637,2,0,L|313:344,3,31.4999990386963,10|8|10|8,0:0|0:0|0:0|0:0,0:0:0:0:
301,328,138012,6,0,L|253:318,7,31.4999990386963,10|8|10|8|10|8|10|8,3:2|0:0|0:0|0:0|3:2|0:0|0:0|0:0,0:0:0:0:
246,295,138762,2,0,L|179:304,1,62.9999980773926,10|8,3:2|0:0,0:0:0:0:
113,241,139137,2,0,L|46:250,1,62.9999980773926,10|8,3:2|0:0,0:0:0:0:
25,151,139512,6,0,L|33:105,7,31.4999990386963,10|8|10|8|10|8|10|8,3:2|0:0|0:0|0:0|3:2|0:0|0:0|0:0,0:0:0:0:
61,96,140262,2,0,L|126:84,1,62.9999980773926,8|8,3:2|0:0,0:0:0:0:
209,130,140637,2,0,L|274:118,1,62.9999980773926,10|8,3:2|0:0,0:0:0:0:
371,113,141012,6,0,L|376:88,28,15.7499995193482,10|8|8|0|10|8|8|0|10|8|8|0|10|8|8|0|10|8|8|8|8|8|8|8|10|8|8|8|8,3:2|0:0|0:0|0:0|3:2|0:0|0:0|0:0|3:2|0:0|0:0|0:0|3:2|0:0|0:0|0:0|3:2|0:0|3:2|0:0|3:2|0:0|3:2|0:0|3:2|0:0|3:2|0:0|3:2,0:0:0:0:
362,211,142512,2,0,P|422:207|458:176,2,94.499997116089,10|10|10,0:0|0:0|0:0,0:0:0:0:
265,190,143262,2,0,P|219:181|194:188,1,62.9999980773926,10|10,0:0|0:0,0:0:0:0:
106,209,143637,2,0,P|87:238|79:272,1,62.9999980773926,10|10,0:0|0:0,0:0:0:0:
122,353,144012,6,0,L|269:323,1,140,6|10,3:2|0:0,0:0:0:0:
351,354,144574,1,2,3:2:0:0:
439,230,144949,1,2,3:2:0:0:
326,125,145324,2,0,L|176:157,1,140,2|10,0:0|0:0,0:0:0:0:
168,169,145793,1,10,0:0:0:0:
168,169,145887,2,0,P|121:189|84:181,1,70,10|10,0:0|0:0,0:0:0:0:
8,198,146262,2,0,P|15:147|40:119,1,70,2|2,3:2|0:0,0:0:0:0:
62,45,146637,2,0,P|103:75|115:111,1,70,10|2,3:2|3:2,0:0:0:0:
168,169,147012,6,0,L|149:312,1,140,6|2,3:2|3:2,0:0:0:0:
228,363,147574,1,2,3:2:0:0:
308,314,147762,1,10,0:0:0:0:
308,314,147949,2,0,P|372:275|438:283,1,140,2|2,0:0|0:0,0:0:0:0:
500,201,148512,6,0,P|450:177|424:178,1,70,2|10,3:2|0:0,0:0:0:0:
410,186,148793,1,10,0:0:0:0:
410,186,148887,2,0,P|393:149|399:110,1,70,10|2,0:0|0:0,0:0:0:0:
439,38,149262,1,10,0:0:0:0:
348,6,149449,1,10,0:0:0:0:
280,72,149637,1,10,3:2:0:0:
190,46,149824,1,10,3:2:0:0:
118,114,150012,6,0,P|129:164|144:260,1,140,6|10,3:2|0:0,0:0:0:0:
127,346,150574,1,2,3:2:0:0:
7,240,150949,1,2,3:2:0:0:
118,114,151324,2,0,P|184:126|262:146,1,140,2|10,0:0|0:0,0:0:0:0:
276,166,151793,1,10,0:0:0:0:
276,166,151887,2,0,P|289:209|296:250,1,70,10|10,0:0|0:0,0:0:0:0:
340,321,152262,2,0,P|371:288|403:261,1,70,2|2,3:2|0:0,0:0:0:0:
443,188,152637,2,0,P|400:177|361:163,1,70,10|2,3:2|3:2,0:0:0:0:
276,166,153012,6,0,P|244:97|288:22,1,140,6|2,3:2|3:2,0:0:0:0:
356,15,153574,1,2,3:2:0:0:
438,72,153762,1,10,0:0:0:0:
438,72,153949,2,0,L|416:218,1,140,2|2,0:0|0:0,0:0:0:0:
437,320,154512,6,0,P|385:318|356:298,1,70,2|10,3:2|0:0,0:0:0:0:
341,296,154793,1,10,0:0:0:0:
341,296,154887,2,0,P|300:278|261:285,1,70,10|2,0:0|0:0,0:0:0:0:
197,333,155262,1,10,0:0:0:0:
123,274,155449,1,10,0:0:0:0:
155,185,155636,1,10,3:2:0:0:
250,188,155824,1,10,3:2:0:0:
276,279,156012,6,0,P|319:311|415:290,1,140,6|10,3:2|0:0,0:0:0:0:
474,247,156574,1,2,3:2:0:0:
378,91,156949,1,2,3:2:0:0:
295,126,157137,1,10,0:0:0:0:
219,77,157324,2,0,P|187:61|152:57,1,70,2|4,0:0|3:2,0:0:0:0:
60,87,157699,5,10,0:0:0:0:
60,87,157793,1,10,0:0:0:0:
60,87,157887,2,0,L|75:173,1,70,10|10,0:0|3:2,0:0:0:0:
153,220,158262,2,0,L|166:151,1,70,2|2,0:0|0:0,0:0:0:0:
258,108,158637,2,0,L|273:194,1,70,10|2,3:2|3:2,0:0:0:0:
254,275,159012,6,0,L|330:257,1,70,6|2,3:2|0:0,0:0:0:0:
379,338,159387,2,0,L|455:320,1,70,2|2,3:2|3:2,0:0:0:0:
480,232,159762,1,10,0:0:0:0:
480,232,159949,2,0,P|505:164|483:99,1,140,2|2,0:0|0:0,0:0:0:0:
411,39,160512,5,2,3:2:0:0:
330,99,160699,1,10,0:0:0:0:
330,99,160793,1,10,0:0:0:0:
330,99,160887,2,0,L|254:86,1,70,10|2,0:0|0:0,0:0:0:0:
170,52,161262,1,10,0:0:0:0:
112,130,161449,1,10,0:0:0:0:
204,166,161637,1,10,3:2:0:0:
262,87,161824,1,10,3:2:0:0:
170,52,162012,6,0,P|114:65|30:97,1,140,6|10,3:2|0:0,0:0:0:0:
3,188,162574,1,2,3:2:0:0:
153,243,162949,1,2,3:2:0:0:
23,350,163324,2,0,P|97:337|166:329,1,140,2|10,0:0|0:0,0:0:0:0:
195,340,163793,1,10,0:0:0:0:
195,340,163887,2,0,P|250:353|280:355,1,70,10|10,0:0|0:0,0:0:0:0:
360,360,164262,2,0,P|344:305|331:278,1,70,2|2,3:2|0:0,0:0:0:0:
295,207,164637,2,0,P|257:248|240:273,1,70,10|2,3:2|3:2,0:0:0:0:
195,340,165012,6,0,P|168:277|151:201,1,140,6|2,3:2|3:2,0:0:0:0:
76,153,165574,1,2,3:2:0:0:
141,89,165762,1,10,0:0:0:0:
141,89,165949,2,0,P|196:97|281:127,1,140,2|2,0:0|0:0,0:0:0:0:
355,182,166512,6,0,P|408:169|458:152,2,105,10|10|10,0:0|0:0|0:0,0:0:0:0:
264,218,167262,2,0,P|253:261|268:303,1,70,10|10,0:0|0:0,0:0:0:0:
275,317,167543,1,10,0:0:0:0:
275,317,167637,2,0,L|354:335,1,70,10|10,0:0|0:0,0:0:0:0:
439,367,168012,6,0,P|462:317|452:255,1,112,6|2,3:2|1:2,0:0:0:0:
415,184,168574,1,0,0:0:0:0:
415,184,168762,2,0,L|293:205,1,112,10|2,0:0|0:0,0:0:0:0:
225,154,169324,1,2,3:2:0:0:
154,212,169512,2,0,L|136:326,2,112,2|2|10,0:0|1:2|0:0,0:0:0:0:
154,212,170637,2,0,P|138:177|136:144,1,56,2|0,1:2|0:0,0:0:0:0:
76,101,171012,6,0,P|116:73|181:67,1,112,2|2,3:2|1:2,0:0:0:0:
263,97,171574,1,2,3:2:0:0:
349,77,171762,2,0,P|363:41|368:19,1,56,10|2,0:0|0:0,0:0:0:0:
440,79,172137,2,0,P|456:117|463:142,1,56,2|2,0:0|3:2,0:0:0:0:
497,210,172512,6,0,P|450:184|382:171,1,112,2|2,0:0|1:2,0:0:0:0:
309,192,173074,1,2,3:2:0:0:
317,278,173262,2,0,P|276:298|204:301,1,112,10|0,0:0|1:2,0:0:0:0:
135,270,173824,1,2,0:0:0:0:
201,216,174012,6,0,P|207:184|199:151,1,56,2|0,3:2|0:0,0:0:0:0:
117,181,174387,2,0,P|88:126|106:65,1,112,2|10,1:2|0:0,0:0:0:0:
162,20,174949,1,2,0:0:0:0:
240,59,175137,2,0,L|298:45,1,56,2|2,0:0|3:2,0:0:0:0:
384,24,175512,6,0,L|371:142,1,112,2|2,0:0|1:2,0:0:0:0:
291,178,176074,1,0,0:0:0:0:
291,178,176262,2,0,L|310:294,1,112,10|2,0:0|1:2,0:0:0:0:
376,346,176824,1,2,0:0:0:0:
452,295,177012,6,0,P|470:273|476:239,1,56,2|0,3:2|0:0,0:0:0:0:
459,161,177387,1,2,1:2:0:0:
459,161,177574,1,2,3:2:0:0:
385,218,177762,2,0,P|348:210|325:186,1,56,10|0,0:0|0:0,0:0:0:0:
254,242,178137,2,0,P|228:204|226:174,1,56,2|2,0:0|3:2,0:0:0:0:
136,173,178512,6,0,P|158:121|221:95,1,112,2|2,0:0|1:2,0:0:0:0:
295,65,179074,1,2,3:2:0:0:
295,65,179262,1,10,0:0:0:0:
254,242,179637,1,2,1:2:0:0:
107,361,180012,6,0,L|82:238,1,112,6|2,3:2|1:2,0:0:0:0:
41,170,180574,1,2,0:0:0:0:
130,178,180762,2,0,L|152:57,1,112,10|2,0:0|0:0,0:0:0:0:
221,15,181324,1,2,3:2:0:0:
290,67,181512,6,0,P|335:97|401:120,2,112,2|2|10,0:0|1:2|0:0,0:0:0:0:
290,67,182637,2,0,P|277:102|271:138,1,56,0|2,1:2|0:0,0:0:0:0:
328,191,183012,6,0,P|340:238|343:303,1,112,2|2,3:2|1:2,0:0:0:0:
283,358,183574,1,2,3:2:0:0:
247,280,183762,2,0,P|206:287|184:298,1,56,10|2,0:0|0:0,0:0:0:0:
121,335,184137,2,0,P|94:344|67:347,1,56,2|2,0:0|3:2,0:0:0:0:
71,255,184512,6,0,P|58:227|53:193,1,56,2|2,0:0|0:0,0:0:0:0:
85,122,184887,1,2,1:2:0:0:
85,122,185074,1,2,3:2:0:0:
143,201,185262,2,0,P|170:142|180:82,1,112,10|0,0:0|1:2,0:0:0:0:
249,37,185824,1,2,0:0:0:0:
333,72,186012,6,0,P|349:122|356:188,2,112,2|2|10,3:2|1:2|0:0,0:0:0:0:
401,25,186949,1,2,0:0:0:0:
401,25,187137,2,0,P|441:42|464:41,1,56,2|2,0:0|3:2,0:0:0:0:
512,115,187512,6,0,P|440:126|395:145,2,112,2|2|10,0:0|1:2|0:0,0:0:0:0:
512,115,188637,2,0,P|501:160|498:186,1,56,0|2,1:2|0:0,0:0:0:0:
511,250,189012,6,0,P|481:280|412:285,1,112,2|2,3:2|1:2,0:0:0:0:
336,243,189574,1,2,3:2:0:0:
259,283,189762,2,0,P|245:237|252:215,1,56,10|2,0:0|0:0,0:0:0:0:
298,162,190137,2,0,P|305:125|291:91,1,56,2|2,0:0|3:2,0:0:0:0:
244,37,190512,6,0,L|119:60,1,112,2|2,0:0|1:2,0:0:0:0:
48,87,191074,1,2,3:2:0:0:
28,172,191262,2,0,L|97:186,1,56,10|2,0:0|0:0,0:0:0:0:
134,258,191637,2,0,L|65:272,1,56,2|2,1:2|0:0,0:0:0:0:
123,352,192012,6,0,P|180:348|204:208,1,224,6|2,0:0|0:0,0:0:0:0:
205,209,193137,1,2,0:0:0:0:
156,122,193512,2,0,B|185:105|215:105|215:105|255:120|255:120|289:94|334:97,1,168,2|2,0:0|0:0,0:0:0:0:
312,97,194449,2,0,P|349:109|377:108,2,56,2|2|2,0:0|0:0|0:0,0:0:0:0:
361,26,195012,6,0,P|420:33|459:142,1,168,2|2,0:0|0:0,0:0:0:0:
405,185,195762,2,0,P|383:224|376:241,1,56,2|2,0:0|0:0,0:0:0:0:
467,246,196137,2,0,P|489:285|496:302,1,56,2|2,0:0|0:0,0:0:0:0:
403,318,196512,2,0,P|347:306|175:283,1,224,2|2,0:0|0:0,0:0:0:0:
103,318,197449,2,0,P|66:327|41:333,2,56,2|2|2,0:0|0:0|0:0,0:0:0:0:
110,232,198012,6,0,P|72:176|188:108,1,224,2|2,0:0|0:0,0:0:0:0:
173,100,199137,1,2,0:0:0:0:
256,186,199512,2,0,P|317:172|421:142,1,168,2|2,0:0|0:0,0:0:0:0:
418,142,200449,2,0,P|457:121|479:109,2,56,2|2|2,0:0|0:0|0:0,0:0:0:0:
341,108,201012,6,0,B|304:216|397:166|363:287,1,168,2|2,0:0|0:0,0:0:0:0:
385,345,201762,2,0,P|354:346|323:333,1,56,2|2,0:0|0:0,0:0:0:0:
261,300,202137,2,0,P|217:283|190:288,1,56,2|2,0:0|0:0,0:0:0:0:
136,319,202512,2,0,P|89:318|53:170,1,224,2|2,0:0|0:0,0:0:0:0:
103,110,203449,2,0,L|169:120,2,56,2|2|2,0:0|0:0|0:0,0:0:0:0:
