osu file format v14

[General]
AudioFilename: audio.mp3
AudioLeadIn: 0
PreviewTime: 14585
Countdown: 0
SampleSet: Soft
StackLeniency: 0.7
Mode: 0
LetterboxInBreaks: 0
WidescreenStoryboard: 0

[Editor]
Bookmarks: 12476,22476,32476,37476,42476,47476,52476,62476,72476,82476,92476,102476,104976,112476,122476,124819
DistanceSpacing: 1.2
BeatDivisor: 8
GridSize: 32
TimelineZoom: 2.3

[Metadata]
Title:do u love me ?
TitleUnicode:do u love me ?
Artist:nujioh
ArtistUnicode:nujioh
Creator:wafer
Version:no matter which love line , what time , or where i am , i will always love you
Source:
Tags:artes 2 hyperpop hyperflip hyper flip pop dariacore daria core edm dance electronic goopert kami no kotoba BROCKHAMPTON sugar zedd clarity silverboxer english instrumental electronic jas craezy honne blastthekid deppyforce dragonicz john mapping gold ayyri eiri- annabel
BeatmapID:4281456
BeatmapSetID:2050376

[Difficulty]
HPDrainRate:5
CircleSize:3.6
OverallDifficulty:9
ApproachRate:9.4
SliderMultiplier:1.9
SliderTickRate:1

[Events]
//Background and Video events
0,0,"nuji2.jpg",0,0
//Break Periods
//Storyboard Layer 0 (Background)
//Storyboard Layer 1 (Fail)
//Storyboard Layer 2 (Pass)
//Storyboard Layer 3 (Foreground)
//Storyboard Layer 4 (Overlay)
//Storyboard Sound Samples

[TimingPoints]
275,312.5,4,2,0,50,1,0
1338,-250,4,2,0,40,0,0
2120,-333.333333333333,4,2,0,40,0,0
2745,-166.666666666667,4,2,0,50,0,0
12745,-133.333333333333,4,2,0,60,0,0
22745,-117.647058823529,4,2,0,65,0,0
32588,-117.647058823529,4,2,0,30,0,0
32745,-133.333333333333,4,2,0,70,0,0
37745,-250,4,2,0,70,0,0
38057,-83.3333333333333,4,2,0,80,0,0
38087,312.5,4,2,0,80,1,0
38087,-83.3333333333333,4,2,0,80,0,0
42774,312.5,4,2,0,80,1,0
42774,-83.3333333333333,4,2,0,80,0,0
48086,312.5,4,2,0,80,1,0
48086,-83.3333333333333,4,2,0,80,0,0
51523,312.5,4,2,0,80,1,0
52432,-166.666666666667,4,2,0,80,0,0
52588,-50,4,2,0,80,0,0
52745,-50,4,2,0,60,0,0
52773,312.5,4,2,0,60,1,0
53057,-133.333333333333,4,2,0,65,0,0
60245,-105.263157894737,4,2,0,65,0,0
62432,-333.333333333333,4,2,0,65,0,0
62745,-83.3333333333333,4,2,0,80,0,0
81495,-83.3333333333333,4,2,0,60,0,0
82471,-83.3333333333333,4,2,0,5,0,0
82745,-166.666666666667,4,2,0,60,0,0
83370,-200,4,2,0,60,0,0
92432,-100,4,2,0,60,0,0
92745,-117.647058823529,4,2,0,70,0,0
97432,-200,4,2,0,70,0,0
97745,-117.647058823529,4,2,0,70,0,0
102120,-250,4,2,0,70,0,0
105245,-76.9230769230769,4,2,0,80,0,0
122745,-76.9230769230769,4,2,0,60,0,0
125077,366.97247706422,4,2,0,70,1,0
125088,-76.9230769230769,4,2,0,70,0,0
125118,-76.9230769230769,4,2,0,70,0,0
125443,312.5,4,2,0,70,1,0
125443,-76.9230769230769,4,2,0,70,0,0
125476,-76.9230769230769,4,2,0,70,0,0
126380,312.5,4,2,0,70,1,0
126458,-76.9230769230769,4,2,0,70,0,0
127588,-200,4,2,0,50,0,0
127630,285.714285714286,4,2,0,50,1,0
127915,352.941176470588,4,2,0,50,1,0
128267,315.78947368421,4,2,0,50,1,0
128503,339.943342776204,4,2,0,50,1,0
129182,312.5,4,2,0,50,1,0
129619,-200,4,2,0,40,0,0

[Colours]
Combo1 : 226,226,226
Combo2 : 197,216,237

[HitObjects]
32,192,1367,5,2,0:0:0:0:
33,110,1524,2,0,L|51:162,1,38
45,145,1758,1,0,0:0:0:0:
45,145,1836,1,0,0:0:0:0:
150,64,1992,1,2,0:0:0:0:
215,16,2149,6,2,L|198:127,1,106.874996738434,2|0,0:1|0:0,0:1:0:0:
216,147,2774,5,2,0:0:0:0:
177,230,2930,1,0,0:0:0:0:
199,122,3086,2,0,L|226:249,1,113.999996520996,2|0,0:0|0:0,0:0:0:0:
162,309,3555,1,0,0:0:0:0:
223,234,3711,2,0,L|246:140,1,85.4999973907472,2|0,0:0|0:0,0:0:0:0:
243,150,4024,5,0,0:0:0:0:
243,150,4180,1,0,0:0:0:0:
240,261,4336,2,0,L|250:380,1,113.999996520996,2|0,0:0|0:0,0:0:0:0:
249,374,4961,5,0,0:0:0:0:
264,349,5039,1,0,0:0:0:0:
247,323,5117,1,0,0:0:0:0:
324,331,5274,1,2,0:0:0:0:
396,302,5430,1,2,0:0:0:0:
468,215,5586,2,0,P|468:173|440:104,1,113.999996520996,2|0,0:0|0:0,0:0:0:0:
321,171,6055,1,0,0:0:0:0:
442,107,6211,2,0,P|432:136|380:182,1,85.4999973907472,2|0,0:0|0:0,0:0:0:0:
395,175,6524,5,2,0:0:0:0:
324,139,6680,1,0,0:0:0:0:
328,221,6836,1,2,0:0:0:0:
311,146,6992,2,0,L|304:113,1,28.4999991302491,2|0,0:0|0:0,0:0:0:0:
217,273,7149,2,0,L|236:190,1,85.4999973907472
164,141,7461,5,0,0:0:0:0:
179,126,7539,1,0,0:0:0:0:
149,138,7617,1,0,0:0:0:0:
164,160,7695,1,0,0:0:0:0:
94,194,7774,5,2,0:0:0:0:
32,150,7930,1,0,0:0:0:0:
256,96,8086,6,0,P|307:120|363:127,1,113.999996520996,2|0,0:0|0:0,0:0:0:0:
363,126,8711,5,0,0:0:0:0:
402,94,8789,1,0,0:0:0:0:
363,102,8867,1,0,0:0:0:0:
407,129,8945,1,0,0:0:0:0:
438,94,9024,5,2,0:0:0:0:
397,56,9102,1,0,0:0:0:0:
412,10,9180,1,0,0:0:0:0:
347,56,9258,1,0,0:0:0:0:
283,114,9336,6,0,P|256:175|252:233,1,113.999996520996,2|0,0:0|0:0,0:0:0:0:
251,221,9883,5,0,0:3:0:0:
275,248,9961,1,0,0:0:0:0:
326,260,10039,1,2,0:0:0:0:
188,276,10195,2,0,L|103:289,1,85.4999973907472,2|0,0:0|0:0,0:0:0:0:
79,292,10508,1,0,0:0:0:0:
33,253,10586,1,2,0:0:0:0:
33,253,10664,1,2,0:0:0:0:
33,253,10742,1,2,0:0:0:0:
119,381,10899,5,2,0:0:0:0:
119,381,11211,2,0,L|135:308,1,56.9999982604981,2|0,0:1|0:0,0:0:0:0:
269,287,11524,6,0,L|372:316,1,99.7499969558717,2|0,0:0|0:0,0:0:0:0:
311,254,11836,2,0,L|208:283,1,99.7499969558717,2|0,0:0|0:0,0:0:0:0:
287,230,12149,1,2,0:0:0:0:
302,319,12305,1,2,0:0:0:0:
285,336,12461,2,0,L|255:384,1,56.9999982604981,2|0,0:0|0:0,0:0:0:0:
497,210,12774,6,0,B|519:130|401:193,1,124.687504756451,4|0,1:0|0:0,0:0:0:0:
383,165,13086,1,2,0:0:0:0:
461,110,13242,2,2,P|474:92|461:106,1,106.875004076958,0|0,0:0|0:0,0:1:0:0:
347,173,13555,2,0,B|329:207|326:221|336:259,1,71.2500027179719,0|2,0:0|0:0,0:0:0:0:
331,240,13867,1,0,0:0:0:0:
270,193,14024,1,2,0:0:0:0:
451,281,14180,2,0,B|433:272|425:260|414:223,1,71.2500027179719,0|2,0:0|0:0,0:0:0:0:
413,222,14492,2,0,L|235:240,1,178.12500679493
154,238,14961,5,2,0:0:0:0:
170,153,15117,1,2,0:0:0:0:
37,0,15274,6,0,B|-18:26|20:96,1,106.875004076958,2|0,0:0|0:0,0:0:0:0:
57,27,15586,1,2,0:0:0:0:
13,136,15742,2,2,B|20:118|20:118|-5:148,1,35.625001358986,0|0,0:0|0:0,0:1:0:0:
86,202,15899,2,0,B|104:195|120:177|128:138,1,71.2500027179719,2|0,0:0|0:0,0:0:0:0:
134,155,16133,1,0,0:0:0:0:
134,155,16211,2,0,B|133:211|129:226|100:285,1,106.875004076958,2|0,0:0|0:0,0:0:0:0:
279,208,16524,1,2,0:0:0:0:
201,261,16680,2,0,B|211:292|259:334|335:314,1,142.500005435944,0|2,0:0|0:0,0:0:0:0:
319,317,17149,2,0,L|274:333,1,35.625001358986,2|0,0:0|0:0,0:0:0:0:
195,324,17305,2,0,L|159:366,1,35.625001358986,2|0,0:0|0:0,0:0:0:0:
55,361,17461,5,2,0:0:0:0:
55,361,17617,1,2,0:0:0:0:
175,225,17774,6,2,B|153:305|269:332|316:200|357:196|235:247|300:293|250:336|433:353,1,356.25001358986,4|0,0:0|0:0,0:1:0:0:
423,358,18633,1,0,0:0:0:0:
488,325,18711,2,0,B|500:290|486:283|457:265,1,71.2500027179719,2|0,0:0|0:0,0:0:0:0:
349,327,19024,1,2,2:0:0:0:
344,247,19180,2,0,B|376:226|386:216|391:196,1,71.2500027179719,0|2,2:0|2:0,2:0:0:0:
390,196,19492,2,0,L|406:322,1,106.875004076958
403,302,19805,1,2,0:0:0:0:
314,161,19961,5,2,0:0:0:0:
281,80,20117,1,2,0:0:0:0:
172,123,20274,6,0,B|154:102|159:68|173:50,1,71.2500027179719,2|2,0:0|0:0,0:0:0:0:
237,183,20586,1,2,0:0:0:0:
160,54,20742,2,2,B|142:47|142:47|172:72,1,35.625001358986,0|0,0:0|0:0,0:1:0:0:
92,162,20899,2,0,B|74:137|52:128|33:129,1,71.2500027179719,2|0,0:0|0:0,0:0:0:0:
9,209,21211,1,2,0:0:0:0:
183,166,21367,2,0,L|223:185,1,35.625001358986,2|0,0:0|0:0,0:0:0:0:
366,106,21524,6,0,L|468:35,1,106.875004076958,4|0,0:0|0:0,0:0:0:0:
453,44,21836,2,0,L|416:150,1,106.875004076958,4|0,0:0|0:0,0:0:0:0:
421,151,22149,2,0,L|500:250,1,124.687504756451,6|0,0:0|0:0,0:0:0:0:
473,294,22461,5,2,0:0:0:0:
511,364,22617,1,2,0:0:0:0:
204,232,22774,6,0,L|223:80,1,121.125002310276,4|0,1:0|0:0,0:0:0:0:
166,53,23086,1,8,3:2:0:0:
166,53,23164,1,0,3:0:0:0:
166,53,23242,1,0,3:0:0:0:
171,55,23320,1,0,3:0:0:0:
237,34,23399,2,0,L|207:82,1,40.375000770092,2|0,0:0|0:0,0:0:0:0:
311,111,23555,1,0,1:0:0:0:
136,130,23711,2,0,L|0:194,1,141.312502695322,8|0,0:0|0:0,0:0:0:0:
55,133,24024,5,0,1:0:0:0:
55,133,24102,1,0,3:0:0:0:
28,217,24180,2,0,L|30:265,1,40.375000770092,2|0,0:1|0:0,0:0:0:0:
119,272,24336,1,10,3:2:0:0:
113,287,24414,1,0,3:0:0:0:
149,338,24492,1,2,3:1:0:0:
141,355,24570,1,0,3:0:0:0:
139,280,24649,2,0,L|72:331,1,80.750001540184,2|0,0:1|1:0,0:0:0:0:
6,294,24883,1,0,3:0:0:0:
87,288,24961,2,0,L|134:301,1,40.375000770092,10|0,0:0|0:0,0:0:0:0:
256,352,25117,1,2,0:0:0:0:
427,237,25274,6,0,L|408:85,1,121.125002310276,4|0,1:0|0:0,0:0:0:0:
341,172,25586,1,8,3:2:0:0:
350,179,25664,1,0,3:0:0:0:
350,179,25742,1,0,3:0:0:0:
512,96,25899,2,0,L|486:136,1,40.375000770092,2|0,0:0|0:0,0:0:0:0:
407,20,26055,1,0,1:0:0:0:
412,23,26133,1,0,3:0:0:0:
393,101,26211,2,0,L|477:214,1,141.312502695322,8|0,0:0|0:0,0:0:0:0:
427,223,26524,5,0,1:0:0:0:
337,258,26680,2,0,L|293:292,1,40.375000770092,2|0,0:1|0:0,0:0:0:0:
168,223,26836,1,10,3:2:0:0:
153,217,26914,1,0,3:0:0:0:
157,258,26992,1,2,3:1:0:0:
157,258,27070,1,0,3:0:0:0:
157,258,27149,2,0,L|191:295,1,40.375000770092,2|0,0:1|0:0,0:0:0:0:
200,356,27305,2,0,L|205:312,1,40.375000770092,2|0,1:1|0:0,0:0:0:0:
296,300,27461,6,0,L|283:350,1,40.375000770092,10|0,0:0|0:0,0:0:0:0:
363,370,27617,1,2,0:0:0:0:
255,216,27774,6,0,L|284:130,1,80.750001540184,2|0,1:0|0:0,0:0:0:0:
280,139,28008,1,0,3:0:0:0:
187,154,28086,2,0,L|125:196,1,60.562501155138,10|0,0:0|0:0,0:0:0:0:
187,69,28242,2,0,L|201:15,1,40.375000770092,2|0,0:0|0:0,0:0:0:0:
136,187,28399,2,0,L|150:271,2,80.750001540184,2|0|8,1:0|1:0|0:0,0:0:0:0:
151,166,28789,1,0,3:0:0:0:
151,166,28867,1,0,3:0:0:0:
151,166,28945,1,0,3:0:0:0:
54,164,29024,6,0,L|42:109,1,40.375000770092,2|0,1:0|0:0,0:0:0:0:
119,76,29180,2,0,L|155:27,1,60.562501155138,2|0,0:1|3:0,3:0:0:0:
233,70,29336,2,0,L|294:115,1,60.562501155138,10|0,0:0|0:0,0:0:0:0:
262,41,29492,2,0,L|254:-13,1,40.375000770092,2|0,0:0|0:0,0:0:0:0:
325,186,29649,2,0,L|315:279,1,80.750001540184,2|0,1:0|1:0,0:0:0:0:
317,267,29883,1,0,3:0:0:0:
394,234,29961,2,0,P|435:206|445:188,1,40.375000770092,10|0,0:0|0:0,0:0:0:0:
406,310,30117,1,2,3:2:0:0:
389,347,30195,1,0,3:0:0:0:
467,341,30274,5,4,1:0:0:0:
248,317,30430,2,0,L|147:360,1,80.750001540184,2|10,0:0|0:0,0:0:0:0:
329,334,30664,1,0,3:0:0:0:
329,334,30742,1,0,3:0:0:0:
329,334,30820,1,0,3:0:0:0:
263,289,30899,2,0,L|249:218,1,40.375000770092,2|0,3:0|0:0,0:0:0:0:
394,149,31055,2,0,L|497:175,1,80.750001540184,0|8,1:0|0:0,0:0:0:0:
499,37,31289,1,0,0:0:0:0:
480,50,31367,1,2,0:0:0:0:
400,45,31524,1,2,0:0:0:0:
342,84,31680,1,2,0:0:0:0:
283,27,31836,1,2,0:0:0:0:
277,96,31992,1,2,0:0:0:0:
262,87,32070,1,2,0:0:0:0:
255,79,32149,1,2,0:0:0:0:
203,115,32305,1,2,0:0:0:0:
123,102,32461,1,2,0:0:0:0:
23,17,32617,6,2,L|65:1,1,40.375000770092,2|2,0:3|0:3,0:3:0:0:
21,128,32774,6,0,P|66:88|125:66,1,124.687504756451,2|0,1:0|0:0,0:0:0:0:
108,107,33086,2,0,P|118:122|132:134,1,35.625001358986,2|0,3:0|3:0,3:0:0:0:
210,133,33242,1,2,3:0:0:0:
232,159,33320,1,0,3:0:0:0:
220,128,33399,2,0,P|234:118|246:104,1,35.625001358986,2|0,3:0|3:0,3:0:0:0:
313,165,33555,1,2,3:0:0:0:
335,133,33633,1,0,3:0:0:0:
384,203,33711,2,0,P|387:220|385:237,1,35.625001358986,2|0,3:0|3:0,3:0:0:0:
444,133,33867,2,0,L|465:70,1,53.4375020384789,2|0,3:0|0:0,3:0:0:0:
512,64,34024,5,2,3:0:0:0:
294,143,34180,1,2,0:0:0:0:
294,143,34336,6,0,P|284:157|270:169,1,35.625001358986,2|0,3:0|3:0,3:0:0:0:
192,168,34492,1,2,3:0:0:0:
183,188,34570,1,0,3:0:0:0:
154,242,34649,2,0,P|168:232|180:218,1,35.625001358986,2|0,3:0|3:0,3:0:0:0:
258,230,34805,1,2,3:0:0:0:
280,193,34883,1,0,3:0:0:0:
295,245,34961,2,0,P|299:266|296:279,1,35.625001358986,2|0,3:0|3:0,3:0:0:0:
237,361,35117,2,0,P|231:329|220:310,1,53.4375020384789,2|0,3:0|0:0,3:0:0:0:
73,292,35274,5,2,1:0:0:0:
73,292,35586,2,0,P|63:277|49:265,1,35.625001358986,2|0,3:0|3:0,3:0:0:0:
114,204,35742,1,2,3:0:0:0:
78,184,35820,1,0,3:0:0:0:
160,138,35899,2,0,P|162:155|159:173,1,35.625001358986,2|0,3:0|3:0,3:0:0:0:
86,110,36055,1,2,3:0:0:0:
86,110,36133,1,0,3:0:0:0:
109,198,36211,2,0,P|94:208|78:214,1,35.625001358986,2|0,3:0|3:0,3:0:0:0:
149,58,36367,2,0,L|170:-5,1,53.4375020384789,2|0,3:0|0:0,3:0:0:0:
64,96,36524,5,2,3:0:0:0:
253,103,36680,1,2,3:0:0:0:
253,103,36758,1,2,3:0:0:0:
253,103,36836,6,0,P|262:88|276:76,1,35.625001358986,2|0,3:0|3:0,3:0:0:0:
242,183,36992,1,2,3:0:0:0:
196,217,37070,1,0,3:0:0:0:
190,290,37149,2,0,P|199:304|213:316,1,35.625001358986,2|0,3:0|3:0,3:0:0:0:
448,192,37305,5,2,3:0:0:0:
470,201,37461,2,0,L|465:179,1,17.812500679493,0|0,3:0|0:0,0:0:0:0:
512,0,37617,5,8,1:0:0:0:
493,13,37774,6,0,L|484:55,1,38
256,192,38086,5,0,1:0:0:0:
294,211,38164,1,0,3:0:0:0:
301,244,38242,1,0,3:0:0:0:
314,192,38320,1,0,3:0:0:0:
211,259,38399,6,0,L|184:376,1,113.999996520996,8|0,1:0|0:0,0:0:0:0:
186,370,38633,1,0,3:0:0:0:
128,254,38711,6,0,L|56:284,1,56.9999982604981,0|0,1:0|0:0,0:0:0:0:
285,286,38867,2,0,L|249:331,1,56.9999982604981,0|0,1:0|0:0,0:0:0:0:
68,288,39024,6,0,P|19:268|3:234,1,85.4999973907472,2|0,0:0|0:0,0:0:0:0:
4,240,39180,1,2,0:0:0:0:
4,240,39258,1,2,0:0:0:0:
154,271,39336,6,0,P|191:239|197:210,1,56.9999982604981,0|0,1:0|0:0,0:0:0:0:
116,165,39492,2,0,P|94:128|95:86,1,85.4999973907472,2|0,0:0|0:0,0:0:0:0:
188,153,39649,2,0,B|154:194|154:194|94:171|94:171|91:133|91:133|120:111,1,170.999994781494,8|0,1:0|0:0,0:0:0:0:
259,2,39961,6,0,L|237:60,1,56.9999982604981,2|0,1:2|0:0,0:0:0:0:
247,74,40117,1,2,0:0:0:0:
508,157,40274,5,4,1:3:0:0:
452,158,40352,5,4,1:3:0:0:
410,113,40430,5,4,1:3:0:0:
458,145,40508,1,0,0:0:0:0:
457,246,40586,5,0,1:0:0:0:
419,265,40664,1,0,3:0:0:0:
377,244,40742,1,0,3:0:0:0:
418,280,40820,1,0,3:0:0:0:
331,351,40899,6,0,B|291:333|291:333|286:315|286:315|315:230|315:230,1,113.999996520996,8|0,1:0|1:0,0:0:0:0:
418,362,41133,1,0,3:0:0:0:
476,352,41211,6,0,L|404:322,1,56.9999982604981,0|0,1:0|0:0,0:0:0:0:
219,260,41367,2,0,L|183:215,1,56.9999982604981,0|0,1:0|0:0,0:0:0:0:
395,116,41524,6,0,P|397:168|345:208,1,113.999996520996,2|0,0:0|0:0,0:0:0:0:
354,206,41758,1,2,0:0:0:0:
290,166,41836,6,0,P|265:151|250:127,1,56.9999982604981,0|0,1:0|0:0,0:0:0:0:
438,72,41992,2,0,P|402:94|360:94,1,85.4999973907472,2|0,0:0|0:0,0:0:0:0:
266,5,42149,2,0,B|229:121|229:121|245:116|245:116|269:46,1,199.499993911743,8|0,1:0|0:0,0:0:0:0:
264,59,42461,6,0,L|242:1,2,56.9999982604981,2|0|0,0:0|0:0|0:0,0:0:0:0:
264,58,42774,6,0,P|232:103|179:94,1,113.999996520996,4|0,1:0|0:0,0:0:0:0:
148,170,43086,6,0,P|117:183|104:214,1,56.9999982604981,2|0,0:0|0:0,0:0:0:0:
105,202,43242,2,0,P|129:179|131:145,1,56.9999982604981,2|0,3:0|0:0,0:0:0:0:
19,226,43399,6,0,P|32:257|63:270,1,56.9999982604981,2|0,0:0|0:0,0:0:0:0:
42,154,43555,2,0,P|27:178|30:206,1,56.9999982604981,2|0,3:0|0:0,0:0:0:0:
177,223,43711,6,0,P|146:236|133:267,1,56.9999982604981,2|0,0:0|0:0,0:0:0:0:
100,357,43867,2,0,P|93:329|71:312,1,56.9999982604981,2|0,3:0|0:0,0:0:0:0:
71,312,44024,6,0,L|204:318,1,113.999996520996,2|0,0:0|0:0,0:0:0:0:
429,357,44336,6,0,P|416:326|385:313,1,56.9999982604981,2|0,0:0|0:0,0:0:0:0:
378,331,44492,2,0,P|355:355|321:357,1,56.9999982604981,2|0,3:0|0:0,0:0:0:0:
333,255,44649,6,0,P|353:266|377:270,2,37.9999988403321,2|0|0,0:0|0:0|0:0,0:0:0:0:
396,250,44805,2,0,P|411:267|432:279,2,37.9999988403321,2|0|0,0:0|0:0|0:0,0:0:0:0:
355,149,44961,6,0,P|342:118|311:105,1,56.9999982604981,2|0,0:0|0:0,0:0:0:0:
402,215,45117,2,0,P|429:208|446:186,1,56.9999982604981,2|0,3:0|0:0,0:0:0:0:
255,166,45274,5,2,1:2:0:0:
255,166,45586,6,0,P|224:153|211:122,1,56.9999982604981,2|0,0:0|0:0,0:0:0:0:
191,197,45742,1,2,0:0:0:0:
145,191,45820,1,2,0:0:0:0:
94,204,45899,6,0,P|81:235|50:248,1,56.9999982604981,2|0,0:0|0:0,0:0:0:0:
110,126,46055,2,0,P|95:150|98:178,1,56.9999982604981,2|0,3:0|0:0,0:0:0:0:
191,281,46211,6,0,P|178:250|147:237,1,56.9999982604981,2|0,0:0|0:0,0:0:0:0:
3,315,46367,2,0,P|57:312|83:264,1,113.999996520996,2|2,3:0|0:0,0:0:0:0:
83,264,46680,1,2,0:0:0:0:
285,275,46836,6,0,P|298:306|329:319,1,56.9999982604981,2|0,0:0|0:0,0:0:0:0:
419,313,46992,2,0,P|391:319|374:341,1,56.9999982604981,2|0,3:0|0:0,0:0:0:0:
260,360,47149,6,0,P|247:328|260:297,1,56.9999982604981,2|0,0:0|0:0,0:0:0:0:
334,235,47305,2,0,P|333:206|350:184,1,56.9999982604981,2|0,3:0|0:0,0:0:0:0:
456,312,47461,6,0,P|443:343|412:356,1,56.9999982604981,2|0,0:0|0:0,0:0:0:0:
346,344,47617,1,2,3:0:0:0:
297,316,47695,1,2,3:0:0:0:
288,318,47774,1,0,3:0:0:0:
288,318,48086,5,0,1:0:0:0:
242,338,48164,1,0,3:0:0:0:
223,285,48242,1,0,3:0:0:0:
273,304,48320,1,0,3:0:0:0:
155,333,48399,6,0,L|38:306,1,113.999996520996,8|0,1:0|0:0,0:0:0:0:
186,197,48633,1,0,3:0:0:0:
117,243,48711,6,0,L|45:273,1,56.9999982604981,0|0,1:0|0:0,0:0:0:0:
155,333,48867,2,0,L|119:378,1,56.9999982604981,0|0,1:0|0:0,0:0:0:0:
5,208,49024,6,0,P|25:159|59:143,1,85.4999973907472,2|0,0:0|0:0,0:0:0:0:
51,144,49180,1,2,0:0:0:0:
51,144,49258,1,2,0:0:0:0:
154,112,49336,6,0,P|191:144|197:173,1,56.9999982604981,0|0,1:0|0:0,0:0:0:0:
340,209,49492,2,0,P|318:246|319:288,1,85.4999973907472,2|0,0:0|0:0,0:0:0:0:
442,247,49649,2,0,B|420:221|420:221|408:206|408:206|337:228|337:228|408:262,1,199.499993911743,8|0,1:0|0:0,0:0:0:0:
401,259,49961,6,0,L|379:201,1,56.9999982604981,2|0,1:2|0:0,0:0:0:0:
512,156,50117,1,2,0:0:0:0:
512,156,50274,5,4,1:3:0:0:
505,179,50352,5,4,1:3:0:0:
512,191,50430,5,4,1:3:0:0:
501,207,50508,1,0,3:0:0:0:
445,142,50586,5,0,1:0:0:0:
413,146,50664,1,0,3:0:0:0:
377,135,50742,1,0,3:0:0:0:
359,116,50820,1,0,3:0:0:0:
444,66,50899,6,0,B|426:106|426:106|388:122|388:122|342:90|342:90,1,113.999996520996,8|0,1:0|1:0,0:0:0:0:
512,15,51133,1,0,3:0:0:0:
439,61,51211,6,0,L|367:91,1,56.9999982604981,0|0,1:0|0:0,0:0:0:0:
254,137,51367,2,0,L|218:182,1,56.9999982604981,0|0,1:0|0:0,0:0:0:0:
256,320,51523,5,2,3:0:0:0:
338,291,51680,5,2,3:0:0:0:
365,300,51758,1,2,3:0:0:0:
381,280,51836,1,2,3:0:0:0:
415,310,51914,5,4,3:0:0:0:
415,310,51992,1,4,3:0:0:0:
362,288,52070,5,2,3:0:0:0:
325,303,52149,1,2,3:0:0:0:
297,271,52227,1,2,3:0:0:0:
249,292,52305,1,2,3:0:0:0:
222,271,52383,5,4,3:0:0:0:
231,272,52460,2,0,L|285:262,1,42.7499986953736,2|0,0:0|0:0,0:0:0:0:
273,263,52617,2,2,B|246:332|205:285|171:362|244:394,1,142.5,2|0,0:1|0:0,0:1:0:0:
266,182,52773,5,4,1:2:0:0:
266,182,53086,2,0,P|224:177|191:160,1,71.2500027179719,10|0,0:0|0:0,0:0:0:0:
198,164,53320,1,0,3:0:0:0:
198,164,53399,1,0,3:0:0:0:
327,124,53555,2,0,P|353:90|364:55,1,71.2500027179719,2|8,1:0|0:0,0:0:0:0:
337,25,53789,1,0,3:0:0:0:
362,63,53867,2,0,L|371:122,1,35.625001358986,2|0,1:2|0:0,0:0:0:0:
489,121,54024,5,0,1:0:0:0:
39,185,54336,1,14,0:0:0:0:
39,185,54414,1,0,3:0:0:0:
39,185,54492,1,0,3:0:0:0:
39,185,54570,1,0,3:0:0:0:
71,194,54649,2,2,P|91:156|19:94,1,142.500005435944,0|8,3:0|0:0,0:1:0:0:
3,169,55117,1,2,0:0:0:0:
135,245,55274,5,0,1:0:0:0:
139,258,55352,1,0,3:0:0:0:
136,269,55430,1,0,3:0:0:0:
4,287,55586,2,0,L|46:296,1,35.625001358986,10|0,0:0|0:0,0:0:0:0:
76,321,55742,2,0,L|105:340,1,35.625001358986,2|0,0:0|0:0,0:0:0:0:
1,349,55899,6,0,L|-18:384,5,23.7500009059906,0|0|0|0|0|0,3:0|3:0|1:0|3:0|0:0|0:0,0:0:0:0:
35,353,56211,1,8,0:0:0:0:
123,264,56367,2,0,L|113:217,1,35.625001358986,2|0,0:0|0:0,0:0:0:0:
43,212,56524,5,0,1:0:0:0:
416,280,56836,1,14,0:0:0:0:
416,280,56914,1,0,3:0:0:0:
416,280,56992,1,0,3:0:0:0:
416,280,57070,1,0,3:0:0:0:
374,288,57149,2,2,P|354:250|353:194,1,71.2500027179719,0|0,3:0|1:0,0:1:0:0:
468,348,57461,2,2,P|488:310|489:254,1,71.2500027179719,10|0,0:0|0:0,0:1:0:0:
320,128,57774,5,8,1:0:0:0:
417,157,58086,1,8,0:0:0:0:
478,108,58242,1,0,3:0:0:0:
478,108,58320,1,0,3:0:0:0:
478,108,58399,2,0,L|467:154,1,35.625001358986,8|0,0:0|0:0,0:0:0:0:
417,45,58555,1,0,1:0:0:0:
388,73,58633,1,0,3:0:0:0:
313,99,58711,2,0,P|269:69|264:-2,1,124.687504756451,10|0,0:0|0:0,0:0:0:0:
172,85,59024,5,8,1:0:0:0:
172,85,59102,1,0,3:0:0:0:
172,85,59180,1,0,3:0:0:0:
89,126,59336,1,8,0:0:0:0:
0,64,59492,1,0,3:0:0:0:
0,64,59570,1,0,3:0:0:0:
0,64,59649,2,0,L|11:18,1,35.625001358986,8|0,0:0|0:0,0:0:0:0:
39,132,59805,1,0,1:0:0:0:
74,173,59883,1,0,3:0:0:0:
155,151,59961,2,0,P|203:114|206:53,1,124.687504756451,10|0,0:0|0:0,0:0:0:0:
149,164,60274,6,0,L|111:330,1,157.937495782614,12|0,1:0|0:0,0:0:0:0:
232,249,60586,2,0,L|87:339,1,157.937495782614,8|0,1:0|0:0,0:0:0:0:
183,304,60899,2,0,L|255:349,1,67.6874981925488,0|0,1:0|0:0,0:0:0:0:
240,339,61055,2,0,L|194:266,1,67.6874981925488,2|0,1:2|0:0,0:0:0:0:
122,215,61211,2,0,L|146:373,1,157.937495782614,8|0,1:0|0:0,0:0:0:0:
145,371,61524,1,0,0:0:0:0:
145,371,61680,1,0,0:0:0:0:
180,325,61836,1,0,0:0:0:0:
171,314,61992,1,0,0:0:0:0:
82,341,62149,1,0,0:0:0:0:
117,349,62305,1,0,0:0:0:0:
256,192,62461,6,0,B|248:159|248:159|248:181,1,49.8749984779358,4|0,1:3|0:0,0:0:0:0:
248,174,62774,6,0,B|269:114|269:114|206:235,1,170.999994781494,4|0,1:0|0:0,0:0:0:0:
173,44,63086,2,0,P|161:108|155:125,1,56.9999982604981,2|0,0:0|0:0,0:0:0:0:
98,177,63242,1,2,0:0:0:0:
71,150,63320,1,2,0:0:0:0:
11,193,63399,6,0,B|26:227|26:227|84:238|84:238|105:206|105:206|107:166|107:166|72:145,1,199.499993911743,8|0,1:0|0:0,0:0:0:0:
32,205,63711,2,0,P|35:233|41:261,1,56.9999982604981,2|0,0:0|0:0,0:0:0:0:
181,122,63867,2,0,P|184:150|190:178,1,56.9999982604981,2|0,3:0|0:0,0:0:0:0:
360,262,64024,5,0,1:0:0:0:
417,234,64102,1,0,0:0:0:0:
367,260,64180,2,0,L|298:235,1,56.9999982604981,4|0,3:0|0:0,0:0:0:0:
432,310,64336,2,0,P|444:374|450:391,1,56.9999982604981,2|0,0:0|0:0,0:0:0:0:
373,115,64492,2,0,P|367:143|364:172,1,56.9999982604981,2|0,0:0|0:0,0:0:0:0:
257,296,64649,6,0,B|242:330|242:330|184:341|184:341|163:309|163:309|222:238,1,199.499993911743,8|0,1:0|0:0,0:0:0:0:
264,303,64961,2,0,P|260:331|254:359,1,56.9999982604981,2|0,0:0|0:0,0:0:0:0:
342,324,65117,2,0,P|338:352|332:380,1,56.9999982604981,2|0,3:0|0:0,0:0:0:0:
122,295,65274,6,0,P|74:300|38:186,1,170.999994781494,4|0,1:0|0:0,0:0:0:0:
33,358,65586,2,0,P|45:294|51:277,1,56.9999982604981,2|0,0:0|0:0,0:0:0:0:
126,216,65742,1,2,0:0:0:0:
179,185,65820,1,2,0:0:0:0:
262,206,65899,6,0,B|182:237|182:237|168:219|168:219|210:172|210:172|238:180,1,199.499993911743,8|0,1:0|0:0,0:0:0:0:
265,222,66211,2,0,P|261:251|255:279,1,56.9999982604981,2|0,0:0|0:0,0:0:0:0:
121,129,66367,2,0,P|127:157|131:186,1,56.9999982604981,2|0,3:0|0:0,0:0:0:0:
269,7,66524,5,0,1:0:0:0:
276,24,66602,1,0,0:0:0:0:
264,43,66680,2,0,L|239:112,1,56.9999982604981,4|0,3:0|0:0,0:0:0:0:
334,169,66836,2,0,P|322:105|316:88,1,56.9999982604981,2|0,0:0|0:0,0:0:0:0:
180,8,66992,2,0,P|177:37|172:65,1,56.9999982604981,2|0,0:0|0:0,0:0:0:0:
0,133,67149,6,0,B|15:99|15:99|81:87|81:87|84:122|84:122|67:146|67:146|17:139,1,199.499993911743,8|0,1:0|0:0,0:0:0:0:
36,141,67461,2,0,B|20:81|58:99|25:23,2,113.999996520996,0|0|4,0:0|0:0|1:0,0:0:0:0:
262,317,68086,5,0,0:0:0:0:
323,336,68164,1,0,0:0:0:0:
366,321,68242,1,2,0:0:0:0:
393,294,68320,1,2,0:0:0:0:
336,229,68399,6,0,B|264:174|264:174|248:175|248:175|246:247|246:247|275:277,1,199.499993911743,8|0,1:0|0:0,0:0:0:0:
327,228,68711,2,0,P|330:200|336:172,1,56.9999982604981,2|0,0:0|0:0,0:0:0:0:
470,312,68867,2,0,P|473:284|479:256,1,56.9999982604981,2|0,3:0|0:0,0:0:0:0:
404,99,69024,5,0,1:0:0:0:
424,156,69102,1,0,0:0:0:0:
404,99,69180,2,0,L|335:124,1,56.9999982604981,4|0,3:0|0:0,0:0:0:0:
476,98,69336,2,0,P|488:34|494:17,1,56.9999982604981,2|0,0:0|0:0,0:0:0:0:
392,190,69492,2,0,P|376:214|364:240,1,56.9999982604981,2|0,0:0|0:0,0:0:0:0:
257,89,69649,6,0,B|193:43|193:43|184:44|184:44|192:73|192:73|243:162,1,199.499993911743,8|0,1:0|0:0,0:0:0:0:
264,82,69961,2,0,P|260:54|254:26,1,56.9999982604981,2|0,0:0|0:0,0:0:0:0:
167,96,70117,2,0,P|163:68|157:40,1,56.9999982604981,2|0,3:0|0:0,0:0:0:0:
120,227,70274,6,0,P|104:148|24:135,1,170.999994781494,4|0,1:0|0:0,0:0:0:0:
58,217,70586,1,2,0:0:0:0:
116,271,70664,1,2,0:0:0:0:
171,268,70742,1,2,0:0:0:0:
205,238,70820,1,2,0:0:0:0:
242,175,70899,6,0,B|171:144|171:144|162:144|162:144|213:232|213:232|234:203,1,199.499993911743,8|0,1:0|0:0,0:0:0:0:
230,269,71211,2,0,P|226:298|220:326,1,56.9999982604981,2|0,0:0|0:0,0:0:0:0:
96,294,71367,2,0,P|101:321|105:350,1,56.9999982604981,2|0,3:0|0:0,0:0:0:0:
313,299,71524,5,0,1:0:0:0:
330,306,71602,1,0,0:0:0:0:
349,294,71680,2,0,L|418:269,1,56.9999982604981,4|0,3:0|0:0,0:0:0:0:
476,363,71836,2,0,P|412:351|395:345,1,56.9999982604981,2|0,0:0|0:0,0:0:0:0:
312,224,71992,2,0,P|329:201|345:177,1,56.9999982604981,2|0,0:0|0:0,0:0:0:0:
468,106,72149,6,0,B|434:91|434:91|422:25|422:25|491:83|491:83|474:89,1,199.499993911743,8|0,1:0|0:0,0:0:0:0:
486,84,72461,2,2,P|476:114|480:70,1,170.999994781494,2|0,0:0|0:0,0:1:0:0:
267,155,72774,6,0,L|77:100,1,170.999994781494,4|0,1:0|0:0,0:0:0:0:
152,169,73086,1,2,0:0:0:0:
194,125,73164,1,2,0:0:0:0:
252,93,73242,1,2,0:0:0:0:
215,146,73320,1,2,0:0:0:0:
226,238,73399,6,0,B|229:251|229:251|172:301|172:301|194:237|194:237|222:244,1,170.999994781494,8|0,1:0|0:0,0:0:0:0:
112,253,73711,2,0,P|84:256|56:262,1,56.9999982604981,2|0,0:0|0:0,0:0:0:0:
260,325,73867,2,0,P|232:322|204:316,1,56.9999982604981,2|0,3:0|0:0,0:0:0:0:
23,190,74024,6,0,P|23:144|56:147,1,85.4999973907472,0|0,1:0|0:0,0:0:0:0:
54,238,74180,2,0,L|-15:263,1,56.9999982604981,4|0,3:0|0:0,0:0:0:0:
142,138,74336,2,0,P|154:74|160:57,1,56.9999982604981,2|0,0:0|0:0,0:0:0:0:
145,279,74492,2,0,P|128:354|125:383,1,85.4999973907472,2|0,0:0|0:0,0:0:0:0:
223,202,74649,6,0,B|296:157|296:157|310:172|310:172|286:198|286:198|213:221,1,199.499993911743,8|0,1:0|0:0,0:0:0:0:
250,132,74961,2,0,P|246:104|240:76,1,56.9999982604981,2|0,0:0|0:0,0:0:0:0:
223,202,75117,2,0,P|219:230|213:258,1,56.9999982604981,2|0,3:0|0:0,0:0:0:0:
462,324,75274,6,0,P|446:245|366:232,1,170.999994781494,4|0,1:0|0:0,0:0:0:0:
434,343,75586,1,2,0:0:0:0:
390,346,75664,1,2,0:0:0:0:
341,331,75742,1,2,0:0:0:0:
313,286,75820,1,2,0:0:0:0:
446,233,75899,6,0,B|487:263|487:263|477:313|477:313|459:327|459:327|437:283|437:283|447:233,1,199.499993911743,8|0,1:0|0:0,0:0:0:0:
499,287,76211,2,0,P|495:316|489:344,1,56.9999982604981,2|0,0:0|0:0,0:0:0:0:
364,229,76367,2,0,P|370:201|374:172,1,56.9999982604981,2|0,3:0|0:0,0:0:0:0:
269,377,76524,5,0,1:0:0:0:
245,346,76602,1,0,0:0:0:0:
315,363,76680,2,0,L|340:294,1,56.9999982604981,4|0,3:0|0:0,0:0:0:0:
262,269,76836,2,0,P|250:333|244:350,1,56.9999982604981,2|0,0:0|0:0,0:0:0:0:
384,256,76992,2,0,P|402:278|418:301,1,56.9999982604981,2|0,0:0|0:0,0:0:0:0:
246,155,77149,6,0,B|261:189|261:189|308:110|308:110|277:110|277:110|263:149,1,199.499993911743,8|0,1:0|0:0,0:0:0:0:
263,147,77461,2,0,B|267:89|253:60|209:145,2,113.999996520996,0|0|4,0:0|0:0|1:0,0:0:0:0:
263,147,78086,5,0,0:0:0:0:
312,174,78164,1,0,0:0:0:0:
378,153,78242,1,2,0:0:0:0:
418,106,78320,1,2,0:0:0:0:
336,35,78399,6,0,B|280:6|280:6|241:27|241:27|310:60|310:60|322:73,1,199.499993911743,8|0,1:0|0:0,0:0:0:0:
411,141,78711,2,0,P|414:169|420:197,1,56.9999982604981,2|0,0:0|0:0,0:0:0:0:
336,35,78867,2,0,P|339:63|345:91,1,56.9999982604981,2|0,3:0|0:0,0:0:0:0:
281,276,79024,5,0,1:0:0:0:
223,316,79102,1,0,0:0:0:0:
273,266,79180,2,0,L|204:241,1,56.9999982604981,4|0,3:0|0:0,0:0:0:0:
147,279,79336,2,0,P|168:358|174:375,1,85.4999973907472,2|0,0:0|0:0,0:0:0:0:
70,328,79492,2,0,P|46:310|26:290,1,56.9999982604981,2|0,0:0|0:0,0:0:0:0:
147,184,79649,6,0,B|163:149|163:149|189:106|189:106|204:162|204:162|175:185|175:185|142:199,1,199.499993911743,8|0,1:0|0:0,0:0:0:0:
84,250,79961,2,0,P|80:278|74:306,1,56.9999982604981,2|0,0:0|0:0,0:0:0:0:
32,197,80117,2,0,P|28:169|22:141,1,56.9999982604981,2|0,3:0|0:0,0:0:0:0:
211,5,80274,6,0,P|247:79|355:98,1,199.499993911743,4|0,1:0|0:0,0:0:0:0:
365,76,80586,1,2,0:0:0:0:
424,59,80664,1,2,0:0:0:0:
443,101,80742,1,2,0:0:0:0:
428,19,80820,1,2,0:0:0:0:
318,116,80899,6,0,B|284:89|284:89|308:188|308:188|326:177|326:177|332:141,1,199.499993911743,8|0,1:0|0:0,0:0:0:0:
258,191,81211,2,0,P|254:220|248:248,1,56.9999982604981,2|0,0:0|0:0,0:0:0:0:
462,156,81367,2,0,P|467:183|471:212,1,56.9999982604981,2|0,3:0|0:0,0:0:0:0:
320,32,81524,5,4,1:3:0:0:
319,38,81836,1,2,0:0:0:0:
303,45,82149,1,2,0:0:0:0:
429,47,82461,6,0,L|480:32,1,28.4999991302491,0|0,3:0|0:0,0:0:0:0:
448,32,82774,6,0,L|413:146,1,113.999996520996,4|2,1:0|0:0,0:0:0:0:
414,140,83164,1,0,0:0:0:0:
414,140,83242,1,0,0:0:0:0:
271,100,83399,2,0,L|169:137,1,95,2|0,0:0|0:0,0:0:0:0:
263,150,83867,1,2,0:0:0:0:
140,63,84024,2,0,L|149:-13,1,71.25,2|0,0:0|0:0,0:0:0:0:
90,123,84336,2,0,L|112:205,1,71.25,2|0,0:0|0:0,0:0:0:0:
51,46,84649,2,0,L|32:200,1,142.5,2|4,0:0|0:0,0:0:0:0:
33,187,85586,1,0,0:0:0:0:
33,174,85664,1,0,0:0:0:0:
10,142,85742,1,2,0:0:0:0:
113,197,85899,2,0,L|132:306,1,95,2|0,0:0|0:0,0:0:0:0:
14,361,86367,1,0,0:0:0:0:
61,319,86524,1,2,0:0:0:0:
48,350,86836,1,2,0:0:0:0:
42,334,87149,2,0,L|87:341,1,23.75,2|0,0:0|0:0,0:0:0:0:
127,302,87305,1,0,3:0:0:0:
127,302,87383,1,0,3:0:0:0:
127,302,87461,1,0,3:0:0:0:
127,302,87539,1,0,3:0:0:0:
113,292,87617,2,0,L|107:323,1,23.75,0|0,3:0|3:0,3:0:0:0:
210,258,87774,6,0,L|318:291,1,106.875,4|2,0:0|0:0,0:0:0:0:
313,290,88164,1,0,0:0:0:0:
313,290,88242,1,0,0:0:0:0:
135,191,88399,2,0,L|33:228,1,95,2|0,0:0|0:0,0:0:0:0:
131,222,88867,1,2,0:0:0:0:
227,154,89024,2,0,L|218:78,1,71.25,2|0,0:0|0:0,0:0:0:0:
300,273,89336,2,0,L|322:191,1,71.25,2|0,0:0|0:0,0:0:0:0:
318,204,89649,2,0,L|337:358,1,142.5,2|4,0:0|0:0,0:0:0:0:
335,345,90586,1,0,0:0:0:0:
300,316,90742,1,2,0:0:0:0:
382,264,90899,2,0,L|491:283,1,95,2|0,0:0|0:0,0:0:0:0:
455,257,91289,1,0,0:0:0:0:
420,230,91367,1,0,0:0:0:0:
349,241,91524,1,2,0:0:0:0:
447,212,91836,1,2,0:0:0:0:
506,188,92149,6,2,L|495:211,3,23.75
495,209,92461,2,2,L|459:132,3,47.5
404,203,92774,5,0,1:0:0:0:
404,203,92930,1,0,1:0:0:0:
341,144,93086,2,0,L|323:187,1,40.375000770092,2|0,1:0|0:0,0:0:0:0:
277,205,93242,2,0,L|233:218,1,40.375000770092,0|0,1:0|0:0,0:0:0:0:
169,177,93399,1,2,1:0:0:0:
155,143,93477,1,0,3:0:0:0:
121,109,93555,1,0,1:0:0:0:
136,82,93633,1,0,3:0:0:0:
81,123,93711,2,0,L|27:143,1,40.375000770092,0|0,1:0|0:0,0:0:0:0:
132,61,93867,2,0,L|85:94,1,40.375000770092,0|0,1:0|0:0,0:0:0:0:
16,248,94024,5,0,1:0:0:0:
27,265,94102,1,0,3:0:0:0:
42,232,94180,1,0,1:0:0:0:
9,230,94258,1,0,3:0:0:0:
64,256,94336,1,0,1:0:0:0:
82,283,94414,1,0,3:0:0:0:
121,247,94492,1,0,1:0:0:0:
163,263,94570,1,0,3:0:0:0:
238,305,94649,5,2,0:0:0:0:
238,304,94727,1,2,0:0:0:0:
238,304,94805,1,2,0:0:0:0:
158,311,94961,2,0,L|151:265,1,40.375000770092,2|0,0:0|0:0,0:0:0:0:
149,279,95117,2,0,L|142:325,1,40.375000770092,2|0,0:0|0:0,0:0:0:0:
243,217,95274,5,0,1:0:0:0:
245,94,95430,1,0,1:0:0:0:
243,217,95586,2,0,L|261:260,1,40.375000770092,2|0,1:0|0:0,0:0:0:0:
141,161,95742,2,0,L|185:174,1,40.375000770092,0|0,1:0|0:0,0:0:0:0:
309,178,95899,1,2,1:0:0:0:
367,147,95977,1,0,3:0:0:0:
402,96,96055,1,0,1:0:0:0:
356,61,96133,1,0,3:0:0:0:
440,85,96211,2,0,L|494:105,1,40.375000770092,0|0,1:0|0:0,0:0:0:0:
385,133,96367,2,0,L|407:183,1,40.375000770092,0|0,1:0|0:0,0:0:0:0:
501,12,96524,5,0,1:0:0:0:
482,22,96602,1,0,3:0:0:0:
499,75,96680,1,0,1:0:0:0:
452,59,96758,1,0,3:0:0:0:
425,96,96836,1,0,1:0:0:0:
411,130,96914,1,0,3:0:0:0:
391,76,96992,1,0,1:0:0:0:
340,52,97070,1,0,3:0:0:0:
257,43,97149,5,2,0:0:0:0:
257,44,97227,1,2,0:0:0:0:
257,44,97305,1,2,0:0:0:0:
257,44,97383,1,2,0:0:0:0:
302,114,97461,2,2,P|308:89|306:26,1,83.125,2|0,0:1|0:0,0:1:0:0:
211,124,97774,5,0,1:0:0:0:
264,181,97930,1,0,1:0:0:0:
138,107,98086,2,0,L|122:69,1,40.375000770092,2|0,1:0|0:0,0:0:0:0:
269,193,98242,2,0,L|230:239,1,40.375000770092,0|0,1:0|0:0,0:0:0:0:
397,148,98399,1,2,1:0:0:0:
412,155,98477,1,0,3:0:0:0:
418,216,98555,1,0,1:0:0:0:
451,208,98633,1,0,3:0:0:0:
384,261,98711,2,0,L|358:295,1,40.375000770092,0|0,1:0|0:0,0:0:0:0:
238,304,98867,2,0,L|251:364,1,40.375000770092,0|0,1:0|0:0,0:0:0:0:
451,323,99024,5,0,1:0:0:0:
416,318,99102,1,0,3:0:0:0:
349,301,99180,1,0,1:0:0:0:
334,267,99258,1,0,3:0:0:0:
289,311,99336,1,0,1:0:0:0:
251,318,99414,1,0,3:0:0:0:
201,281,99492,1,0,1:0:0:0:
171,307,99570,1,0,1:0:0:0:
226,269,99649,1,0,0:0:0:0:
171,273,99727,1,0,1:0:0:0:
133,289,99805,2,0,L|108:338,1,40.375000770092,0|0,1:0|0:0,0:0:0:0:
41,209,99961,6,0,L|34:248,1,40.375000770092,2|0,1:0|0:0,0:0:0:0:
36,308,100117,2,0,L|29:268,1,40.375000770092,2|0,1:0|0:0,0:0:0:0:
207,140,100274,5,0,1:0:0:0:
226,103,100352,1,0,3:0:0:0:
282,169,100430,1,0,1:0:0:0:
315,153,100508,1,0,3:0:0:0:
229,161,100586,2,0,L|244:123,1,40.375000770092,2|0,1:0|0:0,0:0:0:0:
129,167,100742,2,0,L|106:118,1,40.375000770092,0|0,1:0|0:0,0:0:0:0:
309,54,100899,1,2,1:0:0:0:
330,109,100977,1,0,3:0:0:0:
366,79,101055,1,0,1:0:0:0:
347,135,101133,1,0,3:0:0:0:
409,113,101211,1,2,1:0:0:0:
398,171,101289,1,0,3:0:0:0:
446,186,101367,1,0,1:0:0:0:
405,223,101445,1,0,3:0:0:0:
449,266,101524,5,4,1:3:0:0:
429,239,101602,1,4,1:3:0:0:
453,208,101680,1,4,1:3:0:0:
403,195,101758,1,4,1:3:0:0:
434,148,101836,1,4,1:3:0:0:
376,122,101914,1,4,1:3:0:0:
418,78,101992,1,4,1:3:0:0:
360,42,102070,1,4,1:3:0:0:
394,84,102149,6,2,L|390:154,1,66.5,0|2,0:0|0:0,1:0:0:0:
366,15,102539,1,2,0:0:0:0:
366,15,102774,6,0,L|363:50,1,19,4|0,3:0|0:0,0:0:0:0:
287,88,102930,2,0,L|271:132,1,38,4|2,3:0|0:0,0:0:0:0:
60,132,103164,1,0,0:0:0:0:
35,147,103242,2,0,L|8:184,1,38,2|4,0:0|3:0,0:0:0:0:
66,238,103477,1,0,0:0:0:0:
66,238,103555,1,2,3:0:0:0:
53,118,103711,1,2,3:0:0:0:
29,45,103867,1,2,3:0:0:0:
28,56,103945,1,0,0:0:0:0:
50,106,104024,6,0,L|53:141,1,19,4|0,3:0|0:0,0:0:0:0:
129,179,104180,2,0,L|146:210,1,19,4|2,3:0|0:0,0:0:0:0:
0,338,104336,1,0,0:0:0:0:
19,331,104492,2,0,L|58:363,1,38,2|8,0:0|1:0,0:0:0:0:
121,328,104727,1,0,3:0:0:0:
121,328,104805,1,0,3:0:0:0:
216,324,104961,1,2,3:0:0:0:
365,362,105117,1,2,3:0:0:0:
496,225,105195,5,0,0:0:0:0:
457,183,105274,6,0,P|439:267|434:301,1,61.7499971733095,6|0,1:2|0:0,0:0:0:0:
403,130,105430,2,0,L|338:164,1,61.7499971733095,2|0,0:0|0:0,0:0:0:0:
261,156,105586,1,2,1:2:0:0:
231,141,105664,1,2,0:0:0:0:
208,105,105742,2,0,P|201:82|127:64,1,92.6249957599642,2|0,0:0|0:0,0:0:0:0:
309,178,105899,2,0,L|161:211,1,123.499994346619,8|0,1:0|0:0,0:0:0:0:
309,178,106133,1,0,3:0:0:0:
266,252,106211,2,0,L|237:319,1,61.7499971733095,2|0,3:0|0:0,0:0:0:0:
105,170,106367,1,2,0:0:0:0:
105,170,106445,1,2,0:0:0:0:
174,162,106524,6,0,P|151:271|77:245,1,216.124990106583,2|0,1:2|0:0,0:0:0:0:
155,87,106836,1,2,1:2:0:0:
76,138,106914,2,0,P|48:188|75:291,1,154.374992933274,2|0,0:0|0:0,0:0:0:0:
281,173,107149,2,0,L|429:206,1,123.499994346619,8|0,1:0|0:0,0:0:0:0:
263,92,107383,1,0,3:0:0:0:
409,165,107461,2,0,P|465:134|506:131,1,92.6249957599642,2|0,3:0|0:0,0:0:0:0:
480,210,107617,2,0,P|489:180|508:156,1,61.7499971733095,2|0,3:0|0:0,0:0:0:0:
405,30,107774,6,0,P|387:114|382:148,1,61.7499971733095,2|0,1:2|0:0,0:0:0:0:
319,231,107930,2,0,L|254:265,1,61.7499971733095,2|0,0:0|0:0,0:0:0:0:
192,242,108086,1,2,1:2:0:0:
187,261,108164,1,2,0:0:0:0:
244,324,108242,2,0,P|237:301|163:283,1,92.6249957599642,2|0,0:0|0:0,0:0:0:0:
381,300,108399,2,0,L|529:333,1,123.499994346619,8|0,1:0|0:0,0:0:0:0:
331,353,108633,1,0,3:0:0:0:
394,332,108711,2,0,L|341:375,1,61.7499971733095,2|0,3:0|0:0,0:0:0:0:
328,219,108867,2,0,L|309:288,1,61.7499971733095,2|0,3:0|0:0,0:0:0:0:
480,159,109024,6,0,P|457:50|361:59,1,216.124990106583,2|0,1:2|0:0,0:0:0:0:
480,186,109336,1,2,1:2:0:0:
444,97,109414,2,0,P|416:147|443:250,1,154.374992933274,2|0,0:0|0:0,0:0:0:0:
307,26,109649,2,0,L|274:174,1,123.499994346619,8|0,1:0|0:0,0:0:0:0:
211,40,109883,1,0,3:0:0:0:
170,115,109961,2,0,L|231:55,1,61.7499971733095,2|0,3:0|0:0,0:0:0:0:
214,71,110117,2,0,L|116:101,1,92.6249957599642,2|0,3:0|0:0,0:0:0:0:
55,183,110274,6,0,P|73:267|78:301,1,61.7499971733095,2|0,1:2|0:0,0:0:0:0:
13,123,110430,2,0,L|78:157,1,61.7499971733095,2|0,0:0|0:0,0:0:0:0:
168,184,110586,1,2,1:2:0:0:
210,226,110664,1,2,0:0:0:0:
143,276,110742,2,0,P|166:315|210:321,1,92.6249957599642,2|0,0:0|0:0,0:0:0:0:
0,363,110899,2,0,L|120:337,1,123.499994346619,8|0,1:0|0:0,0:0:0:0:
146,361,111133,1,0,3:0:0:0:
51,304,111211,2,0,L|-19:349,1,61.7499971733095,2|0,3:0|0:0,0:0:0:0:
113,208,111367,1,2,0:0:0:0:
113,208,111445,1,2,0:0:0:0:
191,240,111524,6,0,P|214:349|288:323,1,216.124990106583,2|0,1:2|0:0,0:0:0:0:
201,204,111836,1,2,1:2:0:0:
217,215,111914,1,0,0:0:0:0:
271,229,111992,2,2,P|341:217|375:164,1,123.499994346619,0|2,0:0|0:0,1:0:0:0:
287,145,112344,5,2,0:0:0:0:
374,160,112500,5,2,0:0:0:0:
294,83,112656,5,2,0:0:0:0:
55,183,112774,6,0,P|73:267|78:301,1,61.7499971733095,6|0,1:2|0:0,0:0:0:0:
73,237,112930,1,2,0:0:0:0:
92,197,113008,1,2,0:0:0:0:
129,179,113086,1,2,0:2:0:0:
81,148,113164,1,2,0:0:0:0:
100,78,113242,2,0,P|121:66|186:106,1,92.6249957599642,2|0,0:0|0:0,0:0:0:0:
176,101,113399,2,0,P|151:67|167:-14,1,123.499994346619,0|0,1:0|0:0,0:0:0:0:
266,146,113633,1,0,3:0:0:0:
246,222,113711,2,0,L|268:295,1,61.7499971733095,2|0,3:0|0:0,0:0:0:0:
250,289,113867,2,0,L|246:365,1,61.7499971733095,2|0,3:0|0:0,0:0:0:0:
247,351,114024,6,0,P|270:242|344:268,1,216.124990106583,2|0,3:2|0:0,0:0:0:0:
359,285,114336,1,2,1:2:0:0:
496,225,114492,2,0,L|431:249,1,61.7499971733095,2|0,0:0|0:0,0:0:0:0:
381,193,114649,2,0,L|406:86,1,92.6249957599642,8|0,1:0|0:0,0:0:0:0:
409,104,114805,2,0,L|428:165,1,61.7499971733095,2|0,3:0|0:0,0:0:0:0:
307,114,114961,2,0,L|220:180,1,92.6249957599642,2|0,3:0|0:0,0:0:0:0:
181,109,115117,2,0,L|219:54,1,61.7499971733095,2|0,3:0|0:0,0:0:0:0:
42,122,115274,5,0,1:0:0:0:
54,164,115352,1,2,0:0:0:0:
116,161,115430,1,2,0:0:0:0:
114,218,115508,1,2,0:0:0:0:
160,233,115586,1,2,1:2:0:0:
165,252,115664,1,2,0:0:0:0:
108,315,115742,2,0,P|115:292|189:274,1,92.6249957599642,2|0,0:0|0:0,0:0:0:0:
378,319,115899,2,0,L|257:345,1,123.499994346619,8|0,1:0|0:0,0:0:0:0:
327,362,116133,1,0,3:0:0:0:
372,313,116211,2,0,L|425:356,1,61.7499971733095,2|0,3:0|0:0,0:0:0:0:
447,275,116367,2,0,L|519:287,1,61.7499971733095,2|0,3:0|0:0,0:0:0:0:
374,212,116524,6,0,P|334:168|356:100,1,123.499994346619,0|0,1:0|0:0,0:0:0:0:
501,75,116758,1,0,0:0:0:0:
391,111,116836,2,0,L|365:33,1,61.7499971733095,2|0,1:2|0:0,0:0:0:0:
448,172,116992,2,0,L|508:203,1,61.7499971733095,2|0,0:2|0:0,0:0:0:0:
265,84,117149,2,0,P|215:110|103:123,1,154.374992933274,8|0,1:0|0:0,0:0:0:0:
39,102,117383,1,0,3:0:0:0:
208,57,117461,2,0,P|202:46|138:16,1,61.7499971733095,2|0,3:0|0:0,0:0:0:0:
207,96,117617,2,0,P|205:127|151:141,1,92.6249957599642,2|0,3:0|0:0,0:0:0:0:
17,260,117774,6,0,P|35:176|40:142,1,61.7499971733095,6|0,1:2|0:0,0:0:0:0:
156,249,117930,1,2,0:0:0:0:
205,266,118008,1,2,0:0:0:0:
236,220,118086,1,2,1:2:0:0:
236,299,118164,1,2,0:0:0:0:
309,318,118242,2,0,P|330:329|395:289,1,92.6249957599642,2|0,0:0|0:0,0:0:0:0:
190,318,118399,2,0,L|73:357,1,123.499994346619,0|0,1:0|0:0,0:0:0:0:
266,238,118633,1,0,3:0:0:0:
255,362,118711,2,0,L|277:289,1,61.7499971733095,2|0,3:0|0:0,0:0:0:0:
202,164,118867,1,2,3:0:0:0:
151,116,118945,1,0,3:0:0:0:
129,18,119024,6,0,P|152:127|226:101,1,216.124990106583,2|0,1:2|0:0,0:0:0:0:
226,26,119336,1,2,1:2:0:0:
80,112,119492,2,0,L|15:88,1,61.7499971733095,2|0,0:0|0:0,0:0:0:0:
236,44,119649,2,0,L|261:151,1,92.6249957599642,8|0,1:0|0:0,0:0:0:0:
335,130,119805,2,0,L|354:69,1,61.7499971733095,2|0,3:0|0:0,0:0:0:0:
444,124,119961,2,0,L|378:211,1,92.6249957599642,2|0,3:0|0:0,0:0:0:0:
453,245,120117,2,0,L|517:262,1,61.7499971733095,2|0,3:0|0:0,0:0:0:0:
304,215,120274,5,0,1:0:0:0:
257,252,120352,1,2,0:0:0:0:
204,240,120430,1,2,0:0:0:0:
174,282,120508,1,2,0:0:0:0:
207,332,120586,1,2,1:2:0:0:
146,345,120664,1,2,0:0:0:0:
89,343,120742,2,0,L|8:302,1,61.7499971733095,2|0,0:0|0:0,0:0:0:0:
337,337,120899,2,0,L|216:310,1,123.499994346619,8|0,1:0|0:0,0:0:0:0:
216,310,121133,1,0,3:0:0:0:
292,295,121211,1,2,3:0:0:0:
357,282,121289,1,0,3:0:0:0:
357,282,121367,2,0,L|364:353,1,61.7499971733095,2|0,3:0|0:0,0:0:0:0:
460,189,121524,6,0,P|500:145|446:77,1,154.374992933274,0|0,1:0|0:0,0:0:0:0:
404,206,121758,1,0,0:0:0:0:
397,110,121836,2,0,L|371:188,1,61.7499971733095,2|0,1:2|0:0,0:0:0:0:
453,41,121992,1,2,0:0:0:0:
507,12,122070,1,2,0:0:0:0:
512,25,122149,2,0,B|486:86|486:86|450:40|450:40|409:64|409:64|502:20,1,246.999988693238,0|0,0:0|0:0,1:1:0:0:
256,192,124102,12,0,125039,0:0:0:0:
255,32,125122,6,0,B|238:82|238:82|247:44|247:44|232:72,1,123.499994346619,4|0,1:0|0:0,1:1:0:0:
256,96,125351,1,2,3:0:0:0:
177,86,125443,2,0,L|115:140,1,61.7499971733095,8|0,0:0|0:0,0:0:0:0:
69,67,125598,1,0,3:0:0:0:
69,67,125676,1,0,3:0:0:0:
112,58,125755,1,0,1:0:0:0:
131,117,125833,1,0,1:0:0:0:
169,138,125911,1,0,1:0:0:0:
321,168,126068,2,0,L|366:140,1,30.8749985866547,2|0,3:0|0:0,0:0:0:0:
371,157,126146,1,0,3:0:0:0:
241,170,126224,2,0,L|98:221,1,123.499994346619,2|0,0:0|1:0,0:0:0:0:
1,304,126458,1,0,0:0:0:0:
6,229,126536,2,0,B|58:191|58:191|26:304,1,123.499994346619,2|8,0:0|0:0,0:0:0:0:
41,247,126770,1,0,3:0:0:0:
57,313,126848,1,0,3:0:0:0:
119,307,126926,1,0,3:0:0:0:
145,358,127005,1,0,1:0:0:0:
135,371,127083,1,0,1:0:0:0:
200,324,127161,2,0,L|469:290,1,246.999988693238,4|8,0:0|0:0,0:0:0:0:
509,363,127630,5,0,0:0:0:0:
431,338,127772,1,0,0:0:0:0:
497,293,127915,1,0,0:0:0:0:
453,363,128091,1,0,0:0:0:0:
425,321,128267,1,0,0:0:0:0:
501,267,128503,1,0,0:0:0:0:
494,284,128672,1,0,0:0:0:0:
429,306,128757,1,0,0:0:0:0:
363,320,128885,2,0,L|324:353,1,47.5
475,241,129182,2,0,L|491:212,1,23.75
392,286,129338,1,0,0:0:0:0:
392,286,129416,1,0,0:0:0:0:
392,286,129494,1,0,0:0:0:0:
392,286,129572,1,0,0:0:0:0:
392,286,129650,6,2,L|398:232,1,47.5
