osu file format v14

[General]
AudioFilename: audio.mp3
AudioLeadIn: 0
PreviewTime: 14585
Countdown: 0
SampleSet: Soft
StackLeniency: 0.7
Mode: 0
LetterboxInBreaks: 0
WidescreenStoryboard: 1

[Editor]
DistanceSpacing: 1.2
BeatDivisor: 8
GridSize: 32
TimelineZoom: 1.5

[Metadata]
Title:do u love me ?
TitleUnicode:do u love me ?
Artist:nujioh
ArtistUnicode:nujioh
Creator:wafer
Version:going lightly insane /w out u
Source:
Tags:artes 2 hyperpop hyperflip hyper flip pop dariacore daria core edm dance electronic goopert kami no kotoba BROCKHAMPTON sugar zedd clarity silverboxer english instrumental electronic jas craezy honne blastthekid deppyforce dragonicz john mapping gold ayyri eiri- annabel
BeatmapID:4324889
BeatmapSetID:2050376

[Difficulty]
HPDrainRate:4.2
CircleSize:3.6
OverallDifficulty:7
ApproachRate:8.5
SliderMultiplier:1.3
SliderTickRate:1

[Events]
//Background and Video events
0,0,"nuji2.jpg",0,0
//Break Periods
2,82738,92036
//Storyboard Layer 0 (Background)
//Storyboard Layer 1 (Fail)
//Storyboard Layer 2 (Pass)
//Storyboard Layer 3 (Foreground)
//Storyboard Layer 4 (Overlay)
//Storyboard Sound Samples

[TimingPoints]
275,312.5,4,2,0,50,1,0
275,-125,4,2,0,50,0,0
1338,-125,4,2,0,40,0,0
2745,-125,4,2,0,50,0,0
12745,-125,4,2,0,60,0,0
22745,-125,4,2,0,65,0,0
22775,-100,4,2,0,65,0,0
32588,-100,4,2,0,30,0,0
32745,-100,4,2,0,70,0,0
38057,-100,4,2,0,80,0,0
38087,312.5,4,2,0,80,1,0
38087,-83.3333333333333,4,2,0,80,0,0
42774,312.5,4,2,0,80,1,0
42774,-83.3333333333333,4,2,0,80,0,0
48086,312.5,4,2,0,80,1,0
48086,-83.3333333333333,4,2,0,80,0,0
51523,312.5,4,2,0,80,1,0
51523,-83.3333333333333,4,2,0,80,0,0
52745,-83.3333333333333,4,2,0,60,0,0
52773,312.5,4,2,0,60,1,0
52773,-111.111111111111,4,2,0,60,0,0
53057,-111.111111111111,4,2,0,65,0,0
62745,-111.111111111111,4,2,0,80,0,0
62773,-76.9230769230769,4,2,0,80,0,0
81495,-100,4,2,0,60,0,0
82471,-76.9230769230769,4,2,0,5,0,0
82745,-76.9230769230769,4,2,0,60,0,0
92745,-76.9230769230769,4,2,0,70,0,0
92773,-100,4,2,0,70,0,0
102773,-83.3333333333333,4,2,0,70,0,0
105245,-83.3333333333333,4,2,0,80,0,0
122745,-83.3333333333333,4,2,0,60,0,0
125077,366.97247706422,4,2,0,70,1,0
125088,-83.3333333333333,4,2,0,70,0,0
125443,312.5,4,2,0,70,1,0
126380,312.5,4,2,0,70,1,0
127588,-83.3333333333333,4,2,0,50,0,0
127630,285.714285714286,4,2,0,50,1,0
127915,352.941176470588,4,2,0,50,1,0
128267,315.78947368421,4,2,0,50,1,0
128503,339.943342776204,4,2,0,50,1,0
129182,312.5,4,2,0,50,1,0
129619,-83.3333333333333,4,2,0,40,0,0

[Colours]
Combo1 : 226,226,226
Combo2 : 187,182,239

[HitObjects]
219,191,2150,6,2,B|170:219|218:142|-5:191,1,208,2|2,0:1|0:0,0:1:0:0:
96,212,2931,1,0,0:0:0:0:
54,106,3087,1,2,0:0:0:0:
45,133,3400,5,0,0:0:0:0:
100,188,3556,1,0,0:0:0:0:
138,96,3712,1,2,0:0:0:0:
122,113,4025,5,0,0:0:0:0:
58,157,4181,1,0,0:0:0:0:
124,200,4337,1,2,0:0:0:0:
152,355,4650,1,0,0:0:0:0:
152,354,4962,6,0,L|135:314,4,26
191,267,5431,1,2,0:0:0:0:
246,324,5587,1,2,0:0:0:0:
196,172,5900,1,0,0:0:0:0:
192,247,6056,1,0,0:0:0:0:
256,284,6212,1,2,0:0:0:0:
244,154,6525,1,2,0:0:0:0:
207,226,6681,1,0,0:0:0:0:
273,274,6837,1,2,0:0:0:0:
413,299,7150,1,0,0:0:0:0:
413,299,7462,6,0,L|459:288,1,26
473,271,7618,2,0,L|493:200,1,52,0|2,0:0|0:0,0:0:0:0:
402,158,7931,1,0,0:0:0:0:
431,83,8087,1,2,0:0:0:0:
512,93,8243,2,0,P|462:103|441:101,1,52
256,32,8712,6,0,L|210:43,1,26
196,60,8868,2,0,L|176:131,1,52,0|2,0:0|0:0,0:0:0:0:
120,175,9181,1,0,0:0:0:0:
39,122,9337,2,0,L|27:15,1,104,2|0,0:0|0:0,0:0:0:0:
256,192,9962,12,4,12775,1:0:0:0:
31,99,13400,5,0,0:0:0:0:
135,12,13712,1,2,0:0:0:0:
164,149,14025,1,2,0:0:0:0:
88,174,14181,1,0,0:0:0:0:
38,111,14337,1,2,0:0:0:0:
38,111,14962,5,2,0:0:0:0:
8,26,15118,1,2,0:0:0:0:
116,57,15275,1,2,0:0:0:0:
96,186,15587,1,2,0:0:0:0:
116,261,15743,1,0,0:0:0:0:
147,190,15900,1,2,0:0:0:0:
263,134,16212,1,2,0:0:0:0:
345,242,16525,1,2,0:0:0:0:
279,285,16681,1,0,0:0:0:0:
209,254,16837,1,0,0:0:0:0:
249,134,17150,2,0,P|246:90|245:59,2,52,2|2|2,0:0|0:0|0:0,0:0:0:0:
362,20,17775,6,2,B|446:-9|513:52|445:223|415:206|407:145|238:78|255:316|306:256|364:386|382:305|582:123|372:197,1,624,4|0,0:0|0:0,0:1:0:0:
291,244,19806,2,0,P|278:266|270:308,2,52,2|2|2,0:0|0:0|0:0,0:0:0:0:
239,187,20275,1,2,0:0:0:0:
110,207,20587,1,2,0:0:0:0:
35,187,20743,1,0,0:0:0:0:
106,156,20900,1,2,0:0:0:0:
162,40,21212,1,2,0:0:0:0:
72,17,21368,5,2,0:0:0:0:
72,17,21525,1,4,0:0:0:0:
72,17,21681,1,0,0:0:0:0:
59,94,21837,1,4,0:0:0:0:
24,166,21993,1,0,0:0:0:0:
21,175,22150,2,0,P|15:226|0:283,1,104,6|2,0:0|0:0,0:0:0:0:
158,199,22775,6,0,P|181:172|211:155,1,65,4|0,1:0|0:0,0:0:0:0:
322,192,23087,1,8,3:2:0:0:
322,192,23165,1,0,3:0:0:0:
322,192,23243,1,0,3:0:0:0:
280,303,23400,2,0,B|233:301|206:268|217:200,1,130,2|8,0:0|0:0,0:0:0:0:
356,112,24025,6,0,P|383:135|400:165,1,65,0|2,1:0|0:1,0:0:0:0:
355,286,24337,1,10,3:2:0:0:
260,289,24493,1,2,3:1:0:0:
210,202,24650,2,0,B|212:155|245:128|313:139,1,130,2|10,0:1|0:0,0:0:0:0:
372,98,25118,2,0,L|386:54,1,32.5,2|0,0:0|0:0,0:0:0:0:
346,28,25275,5,4,1:0:0:0:
219,64,25431,1,0,0:0:0:0:
128,104,25587,2,0,P|92:106|59:97,1,65,8|0,3:2|3:0,0:0:0:0:
64,99,25821,1,0,0:0:0:0:
64,99,25900,1,2,0:0:0:0:
11,30,26056,1,0,1:0:0:0:
120,22,26212,1,8,0:0:0:0:
199,164,26525,5,0,1:0:0:0:
189,238,26681,1,2,0:1:0:0:
254,172,26837,1,10,3:2:0:0:
273,280,26993,1,2,3:1:0:0:
273,280,27071,1,0,3:0:0:0:
273,280,27150,2,0,P|278:334|280:367,1,65,2|2,0:1|1:1,0:0:0:0:
353,222,27462,1,10,0:0:0:0:
380,261,27618,1,2,0:0:0:0:
470,230,27775,6,0,P|497:207|514:177,1,65,2|0,1:0|0:0,0:0:0:0:
477,66,28087,1,10,0:0:0:0:
477,66,28165,1,0,0:0:0:0:
477,66,28243,1,2,0:0:0:0:
366,108,28400,2,0,B|368:155|401:182|469:171,1,130,2|8,1:0|0:0,0:0:0:0:
330,33,29025,6,0,P|303:56|286:86,1,65,2|2,1:0|0:1,0:0:0:0:
331,207,29337,1,10,0:0:0:0:
426,210,29493,1,2,0:0:0:0:
476,123,29650,2,0,B|474:76|441:49|373:60,1,130,2|10,1:0|0:0,0:0:0:0:
300,165,30118,1,2,3:2:0:0:
300,165,30196,1,0,3:0:0:0:
300,165,30275,5,4,1:0:0:0:
132,201,30587,2,0,P|96:203|63:194,1,65,10|0,0:0|3:0,0:0:0:0:
68,196,30821,1,0,3:0:0:0:
68,196,30900,1,2,3:0:0:0:
15,127,31056,1,0,1:0:0:0:
57,37,31212,1,8,0:0:0:0:
168,11,31368,5,2,0:0:0:0:
168,11,31525,2,0,P|157:41|157:57,1,32.5,2|0,0:0|0:0,0:0:0:0:
127,354,32618,2,2,L|111:302,1,32.5,2|2,0:3|0:3,0:3:0:0:
68,324,32775,5,2,1:0:0:0:
0,192,33087,1,2,3:0:0:0:
61,143,33243,1,2,3:0:0:0:
61,143,33321,1,0,3:0:0:0:
61,143,33400,1,2,3:0:0:0:
131,181,33556,1,2,3:0:0:0:
89,246,33712,1,2,3:0:0:0:
10,231,33868,1,2,3:0:0:0:
106,273,34025,2,0,L|171:264,1,65,2|2,3:0|0:0,0:0:0:0:
224,160,34337,1,2,3:0:0:0:
324,213,34493,2,0,L|193:189,1,130,2|2,3:0|3:0,0:0:0:0:
105,136,34962,2,0,L|47:145,2,32.5,2|0|2,3:0|3:0|3:0,3:0:0:0:
203,87,35275,5,2,1:0:0:0:
335,19,35587,1,2,3:0:0:0:
398,89,35743,1,2,3:0:0:0:
398,89,35821,1,0,3:0:0:0:
398,89,35900,1,2,3:0:0:0:
346,150,36056,1,2,3:0:0:0:
281,108,36212,1,2,3:0:0:0:
296,29,36368,1,2,3:0:0:0:
254,125,36525,2,0,L|263:190,1,65,2|2,3:0|3:0,0:0:0:0:
367,243,36837,1,2,3:0:0:0:
314,343,36993,2,0,L|338:212,1,130,2|2,3:0|3:0,0:0:0:0:
456,127,37462,2,0,L|491:115,1,32.5,0|0,3:0|0:0,0:0:0:0:
507,62,37618,1,8,1:0:0:0:
426,241,38087,6,0,L|442:278,2,38.9999988098145,0|0|0,1:0|3:0|3:0,0:0:0:0:
280,170,38399,2,0,B|189:146,1,77.999997619629,8|0,1:0|0:0,0:0:0:0:
127,42,38712,1,0,1:0:0:0:
108,153,38868,2,0,L|92:59,1,77.999997619629,0|2,1:0|0:0,0:0:0:0:
27,154,39180,1,2,0:0:0:0:
27,154,39258,1,2,0:0:0:0:
27,154,39337,2,0,L|1:183,2,38.9999988098145,0|0|2,1:0|0:0|0:0,0:0:0:0:
115,286,39649,6,0,B|73:378|73:378,1,77.999997619629,8|0,1:0|0:0,0:0:0:0:
13,303,39962,1,2,1:2:0:0:
13,303,40118,1,2,0:0:0:0:
150,207,40274,5,4,1:3:0:0:
168,202,40352,1,4,1:3:0:0:
190,198,40430,1,4,1:3:0:0:
256,292,40587,2,0,L|242:339,2,38.9999988098145,0|0|0,1:0|3:0|3:0,0:0:0:0:
387,223,40899,2,0,B|436:151,1,77.999997619629,8|0,1:0|1:0,0:0:0:0:
347,48,41212,1,0,1:0:0:0:
336,146,41368,2,0,L|320:52,1,77.999997619629,0|2,1:0|0:0,0:0:0:0:
218,37,41680,1,0,0:0:0:0:
218,37,41758,1,2,0:0:0:0:
218,37,41837,2,0,L|192:8,2,38.9999988098145,0|0|2,1:0|0:0|0:0,0:0:0:0:
93,143,42149,2,0,B|16:160,1,77.999997619629,8|0,1:0|0:0,0:0:0:0:
57,70,42462,2,0,L|71:27,1,38.9999988098145,2|0,0:0|0:0,0:0:0:0:
160,192,42774,5,4,1:0:0:0:
352,192,43086,1,2,0:0:0:0:
424,199,43242,1,2,3:0:0:0:
337,247,43399,1,2,0:0:0:0:
337,247,43555,1,2,3:0:0:0:
266,202,43711,2,0,P|257:157|257:118,2,77.999997619629,2|2|2,0:0|3:0|0:0,0:0:0:0:
140,300,44336,1,2,0:0:0:0:
63,306,44492,1,2,3:0:0:0:
10,226,44649,1,2,0:0:0:0:
10,226,44805,1,2,0:0:0:0:
55,155,44961,2,0,L|136:182,1,77.999997619629,2|2,0:0|3:0,0:0:0:0:
194,92,45274,5,2,1:2:0:0:
256,192,45352,12,0,47774,0:0:0:0:
51,217,48086,6,0,L|5:223,2,38.9999988098145,0|0|0,1:0|3:0|3:0,0:0:0:0:
181,121,48398,2,0,B|204:21,1,77.999997619629,8|0,1:0|0:0,0:0:0:0:
261,169,48711,1,0,1:0:0:0:
315,64,48867,2,0,L|306:154,1,77.999997619629,0|2,1:0|0:0,0:0:0:0:
391,248,49179,1,2,0:0:0:0:
391,248,49257,1,2,0:0:0:0:
391,248,49336,2,0,L|400:298,2,38.9999988098145,0|0|2,1:0|0:0|0:0,0:0:0:0:
412,95,49648,2,0,B|475:3,1,77.999997619629,8|0,1:0|0:0,0:0:0:0:
490,148,49961,1,2,1:2:0:0:
490,148,50117,1,2,0:0:0:0:
329,181,50273,5,4,1:3:0:0:
307,190,50351,1,4,1:3:0:0:
280,186,50429,1,4,1:3:0:0:
176,116,50586,2,0,L|162:75,2,38.9999988098145,0|0|0,1:0|3:0|3:0,0:0:0:0:
82,232,50898,2,0,B|65:333,1,77.999997619629,8|0,1:0|1:0,0:0:0:0:
173,211,51211,1,0,1:0:0:0:
216,330,51367,1,0,1:0:0:0:
274,277,51523,5,2,3:0:0:0:
274,277,51679,2,0,L|281:236,2,38.9999988098145,2|2|2,3:0|3:0|3:0,0:0:0:0:
353,338,51991,1,4,3:0:0:0:
353,338,52148,2,0,L|360:379,2,38.9999988098145,2|2|2,3:0|3:0|3:0,0:0:0:0:
432,263,52460,1,2,0:0:0:0:
432,263,52616,2,2,L|472:237,1,38.9999988098145,2|0,0:1|0:0,0:1:0:0:
437,192,52773,6,0,L|361:170,1,58.4999982147217,4|0,1:2|0:0,0:0:0:0:
433,80,53085,2,0,P|390:89|303:94,1,116.999996429443,10|0,0:0|3:0,0:0:0:0:
230,11,53554,1,2,1:0:0:0:
230,11,53710,2,0,P|237:46|242:75,1,58.4999982147217,8|2,0:0|1:2,0:0:0:0:
141,114,54023,6,0,L|162:175,1,58.4999982147217,0|0,1:0|0:0,0:0:0:0:
82,248,54335,2,0,L|135:278,1,58.4999982147217,14|0,0:0|3:0,0:0:0:0:
132,276,54569,1,0,3:0:0:0:
132,276,54648,1,0,3:0:0:0:
195,352,54804,2,0,L|263:336,2,58.4999982147217,0|8|2,0:0|0:0|0:0,0:0:0:0:
217,265,55273,6,0,L|246:147,1,116.999996429443,0|10,1:0|0:0,0:0:0:0:
331,217,55741,1,2,0:0:0:0:
331,217,55819,1,0,0:0:0:0:
331,217,55898,2,0,L|304:249,6,29.2499991073609,0|0|0|0|8|0|2,3:0|0:0|3:0|0:0|0:0|0:0|0:0,0:0:0:0:
413,166,56523,5,0,1:0:0:0:
505,38,56835,1,14,0:0:0:0:
339,78,57148,1,0,3:0:0:0:
339,78,57226,1,0,0:0:0:0:
339,78,57304,1,0,1:0:0:0:
395,137,57460,2,2,L|459:128,1,58.4999982147217,10|0,0:0|0:0,0:1:0:0:
350,209,57773,6,0,L|270:233,1,58.4999982147217,8|0,1:0|0:0,0:0:0:0:
262,314,58085,2,0,L|323:370,1,58.4999982147217,8|0,0:0|3:0,0:0:0:0:
393,334,58398,2,0,L|447:268,1,58.4999982147217,8|0,0:0|1:0,0:0:0:0:
350,209,58710,2,0,L|335:281,1,58.4999982147217,10|0,0:0|0:0,0:0:0:0:
183,324,59023,2,0,L|121:304,1,58.4999982147217,8|0,1:0|3:0,0:0:0:0:
221,232,59335,2,0,L|174:188,1,58.4999982147217,8|0,0:0|3:0,0:0:0:0:
258,102,59648,2,0,L|211:61,1,58.4999982147217,8|0,0:0|1:0,0:0:0:0:
221,232,59960,2,0,L|268:192,1,58.4999982147217,10|0,0:0|0:0,0:0:0:0:
375,126,60273,5,12,1:0:0:0:
442,163,60429,1,0,0:0:0:0:
500,73,60585,1,8,1:0:0:0:
419,32,60741,1,0,0:0:0:0:
334,88,60898,5,0,1:0:0:0:
323,158,61054,1,2,1:2:0:0:
424,239,61210,1,8,1:0:0:0:
504,182,61366,1,0,0:0:0:0:
32,302,62460,5,4,1:3:0:0:
32,302,62773,6,0,P|94:305|148:273,1,126.749994197846,4|0,1:0|0:0,0:0:0:0:
183,268,63085,2,0,P|194:227|185:187,1,84.4999961318971,2|2,0:0|0:0,0:0:0:0:
25,129,63398,2,0,B|69:201,1,84.4999961318971,8|0,1:0|0:0,0:0:0:0:
131,90,63710,1,2,0:0:0:0:
131,90,63866,1,2,3:0:0:0:
267,174,64023,6,0,L|347:208,1,84.4999961318971,0|4,1:0|3:0,0:0:0:0:
453,113,64335,1,2,0:0:0:0:
336,111,64491,1,2,0:0:0:0:
464,220,64648,2,0,L|440:123,1,84.4999961318971,8|0,1:0|0:0,0:0:0:0:
384,16,64960,2,0,L|363:108,1,84.4999961318971,2|2,0:0|3:0,0:0:0:0:
198,159,65273,6,0,P|136:162|82:130,1,126.749994197846,4|0,1:0|0:0,0:0:0:0:
42,131,65585,2,0,P|31:90|40:49,1,84.4999961318971,2|2,0:0|0:0,0:0:0:0:
128,209,65898,2,0,B|84:281,1,84.4999961318971,8|0,1:0|0:0,0:0:0:0:
18,376,66210,1,2,0:0:0:0:
18,376,66366,1,2,3:0:0:0:
167,308,66523,6,0,L|257:324,1,84.4999961318971,0|4,1:0|3:0,0:0:0:0:
210,193,66835,1,2,0:0:0:0:
210,193,66991,1,2,0:0:0:0:
378,243,67148,2,0,L|238:294,1,126.749994197846,8|0,1:0|0:0,0:0:0:0:
250,322,67460,1,0,0:0:0:0:
293,180,67773,6,0,P|290:118|322:64,1,126.749994197846,4|0,1:0|0:0,0:0:0:0:
327,29,68085,2,0,P|368:18|408:27,1,84.4999961318971,0|2,0:0|0:0,0:0:0:0:
495,182,68398,2,0,B|451:254,1,84.4999961318971,8|0,1:0|0:0,0:0:0:0:
399,129,68710,1,2,0:0:0:0:
399,129,68866,1,2,3:0:0:0:
241,106,69023,6,0,L|161:140,1,84.4999961318971,0|4,1:0|3:0,0:0:0:0:
214,18,69335,1,2,0:0:0:0:
214,18,69491,1,2,0:0:0:0:
73,106,69648,2,0,L|49:203,1,84.4999961318971,8|0,1:0|0:0,0:0:0:0:
105,274,69960,2,0,L|84:366,1,84.4999961318971,2|2,0:0|3:0,0:0:0:0:
184,226,70273,6,0,P|246:229|300:197,1,126.749994197846,4|0,1:0|0:0,0:0:0:0:
345,190,70585,2,0,P|353:149|342:108,1,84.4999961318971,2|2,0:0|0:0,0:0:0:0:
170,86,70898,2,0,B|126:158,1,84.4999961318971,8|0,1:0|0:0,0:0:0:0:
71,56,71210,1,2,0:0:0:0:
71,56,71366,1,2,3:0:0:0:
26,205,71523,6,0,L|110:244,1,84.4999961318971,0|4,1:0|3:0,0:0:0:0:
210,193,71835,1,2,0:0:0:0:
210,193,71991,1,2,0:0:0:0:
72,320,72148,2,0,L|208:265,1,126.749994197846,8|0,1:0|0:0,0:0:0:0:
191,276,72460,2,2,P|241:284|283:297,1,84.4999961318971,2|0,0:0|0:0,0:1:0:0:
443,243,72773,6,0,P|457:189|387:135,1,126.749994197846,4|0,1:0|0:0,0:0:0:0:
376,159,73085,2,0,P|355:202|361:240,1,84.4999961318971,2|2,0:0|0:0,0:0:0:0:
281,95,73398,2,0,L|252:6,1,84.4999961318971,8|0,1:0|0:0,0:0:0:0:
212,140,73710,1,2,0:0:0:0:
212,140,73866,1,2,3:0:0:0:
354,55,74023,6,0,L|447:73,1,84.4999961318971,0|4,1:0|3:0,0:0:0:0:
320,135,74335,2,0,L|296:224,1,84.4999961318971,2|2,0:0|0:0,0:0:0:0:
224,58,74648,2,0,L|231:158,1,84.4999961318971,8|0,1:0|0:0,0:0:0:0:
135,79,74960,1,2,0:0:0:0:
135,79,75116,1,2,3:0:0:0:
16,194,75273,6,0,P|70:180|124:250,1,126.749994197846,4|0,1:0|0:0,0:0:0:0:
100,261,75585,2,0,P|57:282|19:276,1,84.4999961318971,2|2,0:0|0:0,0:0:0:0:
167,341,75898,2,0,L|256:312,1,84.4999961318971,8|0,1:0|0:0,0:0:0:0:
389,352,76210,1,2,0:0:0:0:
389,352,76366,1,2,3:0:0:0:
329,183,76523,6,0,L|311:276,1,84.4999961318971,0|4,1:0|3:0,0:0:0:0:
403,233,76835,2,0,L|458:165,1,84.4999961318971,2|2,0:0|0:0,0:0:0:0:
295,106,77148,2,0,L|217:159,1,84.4999961318971,8|0,1:0|0:0,0:0:0:0:
254,0,77460,1,0,0:0:0:0:
254,0,77773,6,0,P|268:54|198:108,1,126.749994197846,4|0,1:0|0:0,0:0:0:0:
187,84,78085,2,0,P|166:41|172:3,1,84.4999961318971,0|2,0:0|0:0,0:0:0:0:
92,148,78398,2,0,L|63:237,1,84.4999961318971,8|0,1:0|0:0,0:0:0:0:
27,352,78710,1,2,0:0:0:0:
27,352,78866,1,2,3:0:0:0:
170,262,79023,6,0,L|263:244,1,84.4999961318971,0|4,1:0|3:0,0:0:0:0:
368,299,79335,2,0,L|276:345,1,84.4999961318971,2|2,0:0|0:0,0:0:0:0:
305,184,79648,2,0,L|250:103,1,84.4999961318971,8|0,1:0|0:0,0:0:0:0:
331,8,79960,1,2,0:0:0:0:
331,8,80116,1,2,3:0:0:0:
479,77,80273,6,0,P|425:63|371:133,1,126.749994197846,4|0,1:0|0:0,0:0:0:0:
395,144,80585,2,0,P|438:165|476:159,1,84.4999961318971,2|2,0:0|0:0,0:0:0:0:
338,257,80898,2,0,L|249:286,1,84.4999961318971,8|0,1:0|0:0,0:0:0:0:
172,186,81210,1,2,0:0:0:0:
172,186,81366,1,2,3:0:0:0:
122,268,81523,6,0,L|106:120,2,130,4|2|2,1:3|0:0|0:0,0:0:0:0:
22,336,82460,2,0,L|0:380,1,32.5,0|0,3:0|0:0,0:0:0:0:
11,368,92773,6,0,L|-2:296,1,65,0|0,1:0|1:0,0:0:0:0:
97,248,93085,2,0,L|165:277,1,65,2|0,1:0|1:0,0:0:0:0:
230,170,93398,2,0,L|217:98,1,65,2|0,1:0|1:0,0:0:0:0:
295,88,93710,2,0,L|308:160,1,65,0|0,1:0|1:0,0:0:0:0:
425,204,94023,2,0,L|497:160,1,65,0|0,1:0|1:0,0:0:0:0:
397,280,94335,2,0,L|367:347,1,65,0|0,1:0|1:0,0:0:0:0:
320,192,94648,5,2,0:0:0:0:
320,192,95273,6,0,L|333:120,1,65,0|0,1:0|1:0,0:0:0:0:
242,174,95585,2,0,L|229:246,1,65,2|0,1:0|1:0,0:0:0:0:
142,154,95898,2,0,L|126:72,1,65,2|0,1:0|1:0,0:0:0:0:
64,187,96210,2,0,L|51:259,1,65,0|0,1:0|1:0,0:0:0:0:
4,111,96523,2,0,L|17:39,1,65,0|0,1:0|1:0,0:0:0:0:
142,154,96835,2,0,L|155:226,1,65,0|0,1:0|1:0,0:0:0:0:
254,83,97148,5,2,0:0:0:0:
258,87,97773,5,0,1:0:0:0:
258,87,97929,1,0,1:0:0:0:
355,40,98085,2,0,L|426:25,1,65,2|0,1:0|1:0,0:0:0:0:
344,128,98398,5,2,1:0:0:0:
344,128,98554,1,0,1:0:0:0:
344,128,98710,1,0,1:0:0:0:
449,207,98866,5,0,1:0:0:0:
370,223,99023,1,0,1:0:0:0:
318,281,99179,1,0,1:0:0:0:
318,281,99335,1,0,1:0:0:0:
318,281,99491,1,0,1:0:0:0:
220,251,99648,1,0,0:0:0:0:
139,298,99804,1,0,1:0:0:0:
30,259,99960,2,0,L|10:182,1,65,2|2,1:0|1:0,0:0:0:0:
96,80,100273,5,0,1:0:0:0:
96,80,100429,1,0,1:0:0:0:
161,161,100585,1,2,1:0:0:0:
161,161,100741,1,0,1:0:0:0:
241,57,100898,1,2,1:0:0:0:
241,57,101054,1,0,1:0:0:0:
329,161,101210,1,2,1:0:0:0:
329,161,101366,1,0,1:0:0:0:
384,25,101523,6,0,L|430:-3,2,32.5,4|4|4,1:3|1:3|1:3,0:0:0:0:
480,128,101835,2,0,L|536:134,2,32.5,4|4|4,1:3|1:3|1:3,0:0:0:0:
511,210,102148,5,0,0:0:0:0:
511,210,102773,6,0,P|482:240|427:247,2,77.999997619629,4|4|2,3:0|3:0|0:0,0:0:0:0:
373,217,103241,2,0,L|363:258,1,38.9999988098145,2|0,0:0|0:0,0:0:0:0:
333,292,103398,1,4,3:0:0:0:
333,292,103476,1,0,0:0:0:0:
333,292,103554,2,0,P|317:236|284:212,2,77.999997619629,2|2|2,3:0|3:0|3:0,0:0:0:0:
219,216,104023,6,0,L|140:256,1,77.999997619629,4|4,3:0|3:0,0:0:0:0:
73,177,104335,2,0,L|45:261,1,77.999997619629,0|2,0:0|0:0,0:0:0:0:
173,151,104648,1,8,1:0:0:0:
173,151,104804,1,0,3:0:0:0:
101,77,104960,2,0,L|53:153,1,77.999997619629,2|2,3:0|3:0,0:0:0:0:
205,32,105273,6,0,B|269:53,1,38.9999988098145,6|0,1:2|0:0,0:0:0:0:
284,31,105429,2,0,B|364:63,1,77.999997619629,2|2,0:0|1:2,0:0:0:0:
482,43,105741,1,2,0:0:0:0:
394,183,105898,1,8,1:0:0:0:
394,183,105976,1,0,0:0:0:0:
394,183,106054,1,0,0:0:0:0:
480,251,106210,2,0,P|483:219|486:167,1,77.999997619629,2|2,3:0|0:0,0:0:0:0:
369,273,106523,6,0,B|348:362,1,77.999997619629,2|0,1:2|0:0,0:0:0:0:
252,223,106835,2,0,B|277:318,1,77.999997619629,2|0,1:2|0:0,0:0:0:0:
162,165,107148,1,8,1:0:0:0:
162,165,107304,1,0,0:0:0:0:
154,318,107460,2,0,B|175:243,1,77.999997619629,2|2,3:0|3:0,0:0:0:0:
72,141,107773,6,0,B|-8:177,1,77.999997619629,2|2,1:2|0:0,0:0:0:0:
122,47,108085,2,0,B|29:64,1,77.999997619629,2|2,1:2|0:0,0:0:0:0:
217,141,108398,1,8,1:0:0:0:
217,141,108476,1,0,0:0:0:0:
217,141,108554,1,0,0:0:0:0:
267,18,108710,2,0,L|277:72,1,38.9999988098145,2|0,3:0|0:0,0:0:0:0:
309,83,108866,1,2,3:0:0:0:
458,75,109023,6,0,B|437:-14,1,77.999997619629,2|0,1:2|0:0,0:0:0:0:
389,136,109335,2,0,B|364:231,1,77.999997619629,2|0,1:2|0:0,0:0:0:0:
508,147,109648,1,8,1:0:0:0:
508,147,109804,1,0,0:0:0:0:
456,251,109960,2,0,B|435:176,1,77.999997619629,2|2,3:0|3:0,0:0:0:0:
315,293,110273,6,0,B|285:222,1,77.999997619629,2|2,1:2|0:0,0:0:0:0:
165,179,110585,2,0,B|101:200,1,38.9999988098145,2|2,1:2|0:0,0:0:0:0:
103,234,110741,1,2,0:0:0:0:
0,108,110898,1,8,1:0:0:0:
0,108,110976,1,0,0:0:0:0:
0,108,111054,1,0,0:0:0:0:
109,61,111210,2,0,L|80:140,1,77.999997619629,2|2,3:0|0:0,0:0:0:0:
210,0,111523,6,0,B|231:89,1,77.999997619629,2|0,1:2|0:0,0:0:0:0:
314,0,111835,2,0,B|335:89,1,77.999997619629,2|0,1:2|0:0,0:0:0:0:
463,124,112148,5,2,0:0:0:0:
402,178,112382,5,0,0:0:0:0:
479,203,112538,5,0,0:0:0:0:
432,149,112694,5,0,0:0:0:0:
352,224,112773,5,6,1:2:0:0:
256,224,112929,1,2,0:0:0:0:
176,224,113085,1,2,0:2:0:0:
94,236,113241,1,2,0:0:0:0:
31,288,113398,1,0,1:0:0:0:
207,310,113710,5,2,3:0:0:0:
183,237,113866,1,2,3:0:0:0:
242,182,114023,1,2,3:2:0:0:
96,140,114335,1,2,1:2:0:0:
76,64,114491,1,2,0:0:0:0:
205,21,114648,6,0,B|297:61,1,77.999997619629,8|2,1:0|3:0,0:0:0:0:
356,0,114960,1,2,3:0:0:0:
357,14,115273,6,0,B|374:98,1,77.999997619629,0|2,1:0|0:0,0:0:0:0:
413,123,115507,1,2,0:0:0:0:
413,123,115585,2,0,B|465:188,1,77.999997619629,2|2,1:2|0:0,0:0:0:0:
296,133,115898,2,0,L|292:234,1,77.999997619629,8|0,1:0|0:0,0:0:0:0:
184,149,116210,1,2,3:0:0:0:
244,67,116366,1,2,3:0:0:0:
244,67,116444,1,0,0:0:0:0:
244,67,116523,6,0,B|158:107,1,77.999997619629,0|0,1:0|0:0,0:0:0:0:
41,8,116835,2,0,B|-12:92,1,77.999997619629,2|2,1:2|0:2,0:0:0:0:
155,10,117148,1,8,1:0:0:0:
155,10,117226,1,0,0:0:0:0:
155,10,117304,1,0,0:0:0:0:
92,163,117460,2,0,L|79:73,1,77.999997619629,2|2,3:0|3:0,0:0:0:0:
225,202,117773,6,0,B|208:286,1,77.999997619629,6|2,1:2|0:0,0:0:0:0:
175,280,118007,1,2,0:0:0:0:
175,280,118085,2,0,B|123:345,1,77.999997619629,2|2,1:2|0:0,0:0:0:0:
299,286,118398,2,0,L|407:276,1,77.999997619629,0|0,1:0|0:0,0:0:0:0:
301,181,118710,1,2,3:0:0:0:
442,231,118866,1,2,3:0:0:0:
442,231,118944,1,0,3:0:0:0:
442,231,119023,6,0,B|528:271,1,77.999997619629,2|0,1:2|0:0,0:0:0:0:
453,150,119335,2,0,B|411:84,1,77.999997619629,2|2,1:2|0:0,0:0:0:0:
311,207,119648,1,8,1:0:0:0:
311,207,119726,1,0,0:0:0:0:
311,207,119804,1,2,3:0:0:0:
342,120,119960,2,0,L|265:60,1,77.999997619629,2|2,3:0|3:0,0:0:0:0:
104,17,120273,6,0,B|87:101,1,77.999997619629,0|2,1:0|0:0,0:0:0:0:
48,126,120507,1,2,0:0:0:0:
48,126,120585,2,0,B|-4:191,1,77.999997619629,2|2,1:2|0:0,0:0:0:0:
172,79,120898,2,0,L|180:179,1,77.999997619629,8|0,1:0|0:0,0:0:0:0:
106,246,121210,1,2,3:0:0:0:
253,226,121366,1,2,3:0:0:0:
253,226,121444,1,0,0:0:0:0:
253,226,121523,6,0,B|339:266,1,77.999997619629,0|0,1:0|0:0,0:0:0:0:
448,150,121835,2,0,B|501:234,1,77.999997619629,2|2,1:2|0:0,0:0:0:0:
305,149,122148,1,0,0:0:0:0:
256,192,122773,12,4,125077,1:0:0:0:
117,67,125443,5,8,0:0:0:0:
117,67,125521,1,0,0:0:0:0:
117,67,125599,2,0,B|143:83|143:83|172:86|236:98,1,97.5,0|0,3:0|1:0,0:0:0:0:
243,60,125911,2,0,L|250:14,2,32.5,0|0|2,1:0|0:0|3:0,0:0:0:0:
274,188,126224,1,2,0:0:0:0:
274,188,126302,1,0,0:0:0:0:
274,188,126380,1,0,1:0:0:0:
353,134,126536,2,0,B|360:96|360:96|314:66|314:66|260:104,1,130,2|0,0:0|3:0,0:0:0:0:
177,174,127005,5,0,1:0:0:0:
163,189,127083,1,0,1:0:0:0:
146,205,127161,1,4,0:0:0:0:
30,211,127317,2,0,P|73:267|122:335,1,130
4,345,127772,1,0,0:0:0:0:
173,242,128091,1,0,0:0:0:0:
202,272,128267,1,0,0:0:0:0:
271,194,128503,1,0,0:0:0:0:
295,223,128672,1,0,0:0:0:0:
397,129,129182,1,0,0:0:0:0:
408,209,129338,1,0,0:0:0:0:
408,209,129416,1,0,0:0:0:0:
408,209,129494,1,0,0:0:0:0:
512,192,129650,5,2,0:0:0:0:
512,192,129807,1,2,0:0:0:0:
