osu file format v14

[General]
AudioFilename: audio.mp3
AudioLeadIn: 0
PreviewTime: 214236
Countdown: 0
SampleSet: Soft
StackLeniency: 0.4
Mode: 0
LetterboxInBreaks: 0
EpilepsyWarning: 1
WidescreenStoryboard: 1

[Editor]
Bookmarks: 118078,156186,194586,274766
DistanceSpacing: 0.6
BeatDivisor: 4
GridSize: 32
TimelineZoom: 2.5

[Metadata]
Title:Fly Away
TitleUnicode:Fly Away
Artist:nu11
ArtistUnicode:nu11
Creator:ZinedineZidane
Version:Collab
Source:
Tags:multichip vrc6 mmc5 azzedd
BeatmapID:1759782
BeatmapSetID:785751

[Difficulty]
HPDrainRate:6
CircleSize:4
OverallDifficulty:9
ApproachRate:9.5
SliderMultiplier:1.6
SliderTickRate:1

[Events]
//Background and Video events
0,0,"BG.jpg",0,0
//Break Periods
//Storyboard Layer 0 (Background)
//Storyboard Layer 1 (Fail)
//Storyboard Layer 2 (Pass)
//Storyboard Layer 3 (Foreground)
//Storyboard Sound Samples

[TimingPoints]
167,300,4,2,1,20,1,0
9767,-111.111111111111,4,2,2,50,0,0
10067,-111.111111111111,4,2,1,50,0,0
14792,-111.111111111111,4,2,1,5,0,0
14867,-142.857142857143,4,2,1,50,0,0
15092,-142.857142857143,4,2,1,5,0,0
15167,-200,4,2,1,50,0,0
16367,-142.857142857143,4,2,1,50,0,0
16667,-111.111111111111,4,2,1,50,0,0
18167,-111.111111111111,4,2,1,50,0,0
19217,-100,4,2,2,50,0,0
19667,-125,4,2,1,30,0,0
21542,-125,4,2,1,5,0,0
21617,-100,4,2,1,40,0,0
22367,-125,4,2,1,30,0,0
24017,-100,4,2,1,40,0,0
24767,-111.111111111111,4,2,1,40,0,0
27767,-111.111111111111,4,2,1,50,0,0
28817,-83.3333333333333,4,2,5,70,0,0
29117,-83.3333333333333,4,2,1,70,0,0
29267,-100,4,2,1,60,0,0
31217,-100,4,2,2,60,0,0
31517,-100,4,2,1,60,0,0
33617,-100,4,2,3,60,0,0
33917,-100,4,2,1,60,0,0
36017,-100,4,2,2,60,0,0
36317,-100,4,2,1,60,0,0
38417,-100,4,2,3,60,0,0
38717,-100,4,2,1,60,0,0
40817,-100,4,2,2,60,0,0
41117,-100,4,2,1,60,0,0
43217,-100,4,2,5,60,0,0
43517,-100,4,2,1,60,0,0
45617,-100,4,2,2,60,0,0
45917,-100,4,2,1,60,0,0
48017,-100,4,2,3,60,0,0
48317,-100,4,2,1,60,0,0
50417,-100,4,2,2,60,0,0
50717,-100,4,2,1,60,0,0
51617,-100,4,2,3,60,0,0
51917,-100,4,2,1,60,0,0
52217,-100,4,2,2,60,0,0
52517,-100,4,2,1,60,0,0
52817,-100,4,2,5,60,0,0
53117,-100,4,2,1,60,0,0
53267,-83.3333333333333,4,2,1,60,0,0
56717,-100,4,2,1,30,0,0
60017,-83.3333333333333,4,2,5,40,0,0
60317,-125,4,2,1,30,0,0
60467,-125,4,2,4,30,0,0
68417,-125,4,2,1,30,0,0
69767,-111.111111111111,4,2,2,50,0,0
70067,-111.111111111111,4,2,1,50,0,0
74567,-111.111111111111,4,2,3,50,0,0
74867,-111.111111111111,4,2,1,50,0,0
78617,-90.9090909090909,4,2,1,30,0,0
79217,-90.9090909090909,4,2,6,65,0,0
79517,-90.9090909090909,4,2,1,65,0,0
80417,-90.9090909090909,4,2,2,65,0,0
80717,-90.9090909090909,4,2,1,65,0,0
81617,-90.9090909090909,4,2,2,65,0,0
81917,-90.9090909090909,4,2,1,65,0,0
82817,-90.9090909090909,4,2,2,65,0,0
83117,-90.9090909090909,4,2,1,65,0,0
83417,-90.9090909090909,4,2,5,65,0,0
84017,-90.9090909090909,4,2,7,65,0,0
84317,-90.9090909090909,4,2,1,65,0,0
85217,-90.9090909090909,4,2,2,65,0,0
85367,-90.9090909090909,4,2,1,65,0,0
86417,-90.9090909090909,4,2,3,65,0,0
86717,-90.9090909090909,4,2,1,65,0,0
87617,-90.9090909090909,4,2,2,65,0,0
87917,-90.9090909090909,4,2,1,65,0,0
88217,-90.9090909090909,4,2,5,65,0,0
88817,-90.9090909090909,4,2,6,65,0,0
89117,-90.9090909090909,4,2,1,65,0,0
90017,-90.9090909090909,4,2,2,65,0,0
90167,-90.9090909090909,4,2,1,65,0,0
91217,-90.9090909090909,4,2,3,65,0,0
91517,-90.9090909090909,4,2,1,65,0,0
92417,-90.9090909090909,4,2,2,65,0,0
92717,-90.9090909090909,4,2,1,65,0,0
93167,-90.9090909090909,4,2,3,65,0,0
93617,-90.9090909090909,4,2,7,65,0,0
93917,-90.9090909090909,4,2,1,65,0,0
97367,-90.9090909090909,4,2,4,35,0,0
98567,-76.9230769230769,4,2,6,70,0,1
99767,-76.9230769230769,4,2,3,70,0,1
100967,-76.9230769230769,4,2,2,70,0,1
102167,-76.9230769230769,4,2,6,70,0,1
102467,-76.9230769230769,4,2,1,70,0,1
103367,-76.9230769230769,4,2,5,70,0,1
104567,-76.9230769230769,4,2,3,70,0,1
105767,-76.9230769230769,4,2,2,70,0,1
106367,-76.9230769230769,4,2,3,70,0,1
106967,-76.9230769230769,4,2,6,70,0,1
107867,-76.9230769230769,4,2,6,70,0,0
108167,-76.9230769230769,4,2,6,70,0,1
108467,-76.9230769230769,4,2,1,70,0,1
109217,-76.9230769230769,4,2,2,70,0,1
109517,-76.9230769230769,4,2,1,70,0,1
110417,-76.9230769230769,4,2,3,70,0,1
110717,-76.9230769230769,4,2,1,70,0,1
111617,-76.9230769230769,4,2,6,70,0,1
112067,-76.9230769230769,4,2,2,70,0,1
112367,-76.9230769230769,4,2,3,70,0,1
112667,-76.9230769230769,4,2,2,70,0,1
112967,-76.9230769230769,4,2,6,70,0,1
116417,-100,4,2,1,70,0,0
116867,-100,4,2,1,40,0,0
117467,-100,4,2,1,60,0,0
117617,-100,4,2,2,60,0,0
117917,-100,4,2,1,60,0,0
120017,-100,4,2,3,60,0,0
120317,-100,4,2,1,60,0,0
122417,-100,4,2,2,60,0,0
122717,-100,4,2,1,60,0,0
124817,-100,4,2,3,60,0,0
125117,-100,4,2,1,60,0,0
127217,-100,4,2,2,60,0,0
127517,-100,4,2,1,60,0,0
129317,-125,4,2,1,60,0,0
129542,-100,4,2,1,5,0,0
129617,-100,4,2,3,60,0,0
129917,-100,4,2,1,60,0,0
132017,-100,4,2,2,60,0,0
132317,-100,4,2,1,60,0,0
135842,-100,4,2,1,5,0,0
135917,-100,4,2,1,60,0,0
136667,-100,4,2,5,60,0,0
136892,-100,4,2,1,5,0,0
136967,-76.9230769230769,4,2,7,70,0,1
137117,-76.9230769230769,4,2,1,70,0,1
138017,-76.9230769230769,4,2,2,70,0,1
138317,-76.9230769230769,4,2,1,70,0,1
139217,-76.9230769230769,4,2,3,70,0,1
139517,-76.9230769230769,4,2,1,70,0,1
140417,-76.9230769230769,4,2,2,70,0,1
140567,-76.9230769230769,4,2,1,70,0,1
140867,-76.9230769230769,4,2,2,70,0,1
141017,-76.9230769230769,4,2,1,70,0,1
141167,-76.9230769230769,4,2,3,70,0,1
141242,-76.9230769230769,4,2,1,70,0,1
141467,-76.9230769230769,4,2,2,70,0,1
141542,-76.9230769230769,4,2,1,70,0,1
141767,-76.9230769230769,4,2,6,70,0,1
142067,-76.9230769230769,4,2,1,70,0,1
142817,-76.9230769230769,4,2,3,70,0,1
143117,-76.9230769230769,4,2,1,70,0,1
144167,-76.9230769230769,4,2,2,70,0,1
145367,-76.9230769230769,4,2,6,70,0,1
145517,-76.9230769230769,4,2,1,70,0,1
146567,-76.9230769230769,4,2,5,70,0,1
146717,-76.9230769230769,4,2,1,70,0,1
147617,-76.9230769230769,4,2,2,70,0,1
147917,-76.9230769230769,4,2,1,70,0,1
148817,-76.9230769230769,4,2,3,70,0,1
149117,-76.9230769230769,4,2,1,70,0,1
150017,-76.9230769230769,4,2,6,70,0,1
150317,-76.9230769230769,4,2,1,70,0,1
150467,-76.9230769230769,4,2,2,70,0,1
150767,-76.9230769230769,4,2,3,70,0,1
151067,-76.9230769230769,4,2,2,70,0,1
151367,-76.9230769230769,4,2,5,70,0,1
154967,-100,4,2,2,70,0,0
155417,-200,4,2,1,30,0,0
156186,300,4,2,1,50,1,0
156186,-142.857142857143,4,2,1,50,0,0
169686,-142.857142857143,4,2,1,5,0,0
169836,-142.857142857143,4,2,1,50,0,0
170136,-142.857142857143,4,2,1,5,0,0
170286,-142.857142857143,4,2,1,30,0,0
176586,-90.909090909091,4,2,3,65,0,0
176736,-90.909090909091,4,2,2,65,0,0
181236,-90.909090909091,4,2,3,65,0,0
181536,-90.909090909091,4,2,2,65,0,0
183786,-90.909090909091,4,2,7,65,0,0
184086,-90.909090909091,4,2,2,65,0,0
184986,-90.909090909091,4,2,6,65,0,0
185286,-90.909090909091,4,2,2,65,0,0
186186,-90.909090909091,4,2,6,65,0,0
186336,-90.909090909091,4,2,2,65,0,0
189186,-90.909090909091,4,2,7,65,0,0
189336,-90.909090909091,4,2,2,65,0,0
190986,-90.909090909091,4,2,6,65,0,0
194436,-90.909090909091,4,2,6,5,0,0
194586,-117.647058823529,4,2,1,30,0,0
195486,-117.647058823529,4,2,4,30,0,0
205236,-117.647058823529,4,2,1,30,0,0
205386,-117.647058823529,4,2,1,50,0,0
208086,-117.647058823529,4,2,1,5,0,0
208236,-117.647058823529,4,2,1,50,0,0
213786,-200,4,2,1,30,0,0
214161,-200,4,2,1,5,0,0
214236,-117.647058823529,4,2,1,30,0,0
214761,-117.647058823529,4,2,1,5,0,0
214836,-76.9230769230769,4,2,6,70,0,1
215136,-76.9230769230769,4,2,1,70,0,1
216036,-76.9230769230769,4,2,2,70,0,1
216186,-76.9230769230769,4,2,1,70,0,1
217236,-76.9230769230769,4,2,2,70,0,1
217536,-76.9230769230769,4,2,1,70,0,1
218436,-76.9230769230769,4,2,2,70,0,1
218736,-76.9230769230769,4,2,1,70,0,1
218961,-76.9230769230769,4,2,2,70,0,1
219636,-76.9230769230769,4,2,6,70,0,1
219936,-76.9230769230769,4,2,1,70,0,1
220836,-76.9230769230769,4,2,2,70,0,1
220986,-76.9230769230769,4,2,1,70,0,1
222036,-76.9230769230769,4,2,3,70,0,1
222336,-76.9230769230769,4,2,1,70,0,1
223236,-76.9230769230769,4,2,2,70,0,1
223386,-76.9230769230769,4,2,1,70,0,1
223836,-76.9230769230769,4,2,2,70,0,1
224436,-76.9230769230769,4,2,6,70,0,1
224736,-76.9230769230769,4,2,1,70,0,1
225636,-76.9230769230769,4,2,2,70,0,1
225861,-76.9230769230769,4,2,1,5,0,1
225936,-76.9230769230769,4,2,1,70,0,1
226836,-76.9230769230769,4,2,3,70,0,1
227136,-76.9230769230769,4,2,1,70,0,1
228036,-76.9230769230769,4,2,2,70,0,1
228186,-76.9230769230769,4,2,1,70,0,1
228786,-76.9230769230769,4,2,2,70,0,1
229236,-76.9230769230769,4,2,6,70,0,1
229386,-76.9230769230769,4,2,1,70,0,1
231636,-76.9230769230769,4,2,1,50,0,1
232986,-133.333333333333,4,2,1,30,0,0
233736,-100,4,2,1,30,0,0
233961,-100,4,2,1,5,0,0
234036,-76.9230769230769,4,2,6,70,0,1
234336,-76.9230769230769,4,2,2,70,0,1
238836,-76.9230769230769,4,2,3,70,0,1
239136,-76.9230769230769,4,2,2,70,0,1
243636,-76.9230769230769,4,2,6,70,0,1
243936,-76.9230769230769,4,2,1,70,0,1
244836,-76.9230769230769,4,2,3,70,0,1
245136,-76.9230769230769,4,2,1,70,0,1
246036,-76.9230769230769,4,2,2,70,0,1
246336,-76.9230769230769,4,2,1,70,0,1
247986,-76.9230769230769,4,2,2,70,0,1
248436,-76.9230769230769,4,2,6,70,0,1
248736,-76.9230769230769,4,2,1,70,0,1
250994,302.015956509702,4,2,3,50,1,0
251447,319.148936170213,4,2,1,50,1,0
251917,326.086956521739,4,2,1,50,1,0
253583,333.333333333333,4,2,3,50,1,0
253583,-200,4,2,3,50,0,0
254916,-200,4,2,2,50,0,0
256249,-200,4,2,6,50,0,0
257583,-200,4,2,3,50,0,0
258249,-200,4,2,2,50,0,0
258916,-200,4,2,6,50,0,0
260249,-200,4,2,2,50,0,0
261583,-200,4,2,3,50,0,0
262916,-200,4,2,6,50,0,0
265583,-200,4,2,2,50,0,0
266249,-39.0625,4,2,1,50,0,0
266916,-100,4,2,1,50,0,0
268249,-100,4,2,3,50,0,0
270916,-100,4,2,2,50,0,0
272249,-100,4,2,3,50,0,0
273416,300,4,2,1,30,1,0
274766,300,4,2,6,70,1,1
274766,-76.9230769230769,4,2,6,70,0,1
275966,-76.9230769230769,4,2,2,70,0,1
277166,-76.9230769230769,4,2,3,70,0,1
278366,-76.9230769230769,4,2,6,70,0,1
278516,-76.9230769230769,4,2,1,70,0,1
278666,-76.9230769230769,4,2,2,70,0,1
278966,-76.9230769230769,4,2,3,70,0,1
279266,-76.9230769230769,4,2,2,70,0,1
279566,-76.9230769230769,4,2,6,70,0,1
280766,-76.9230769230769,4,2,2,70,0,1
281966,-76.9230769230769,4,2,6,70,0,1
282266,-76.9230769230769,4,2,2,70,0,1
282566,-76.9230769230769,4,2,3,70,0,1
282866,-76.9230769230769,4,2,2,70,0,1
283166,-76.9230769230769,4,2,3,70,0,1
283766,-100,4,2,2,70,0,0
283916,-100,4,2,1,70,0,0
284366,-76.9230769230769,4,2,6,70,0,1
284666,-76.9230769230769,4,2,1,70,0,1
285416,-76.9230769230769,4,2,2,70,0,1
285716,-76.9230769230769,4,2,1,70,0,1
286616,-76.9230769230769,4,2,3,70,0,1
286916,-76.9230769230769,4,2,1,70,0,1
287816,-76.9230769230769,4,2,6,70,0,1
288116,-76.9230769230769,4,2,1,70,0,1
288266,-76.9230769230769,4,2,2,70,0,1
288566,-76.9230769230769,4,2,3,70,0,1
288866,-76.9230769230769,4,2,2,70,0,1
289166,-76.9230769230769,4,2,6,70,0,1
289316,-76.9230769230769,4,2,1,70,0,1
292166,-76.9230769230769,4,2,3,70,0,1
292616,-76.9230769230769,4,2,2,70,0,1
293066,-76.9230769230769,4,2,3,70,0,1
293366,-76.9230769230769,4,2,2,70,0,1
293666,-76.9230769230769,4,2,6,70,0,1
295166,-100,4,2,6,70,0,0
295466,-100,4,2,6,60,0,0
295766,-100,4,2,6,50,0,0
296066,-100,4,2,6,40,0,0
296366,-100,4,2,6,50,0,0
297266,-156.25,4,2,3,50,0,0
304166,-156.25,4,2,3,5,0,0

[Colours]
Combo1 : 201,223,234
Combo2 : 137,157,190
Combo3 : 247,230,204
Combo4 : 116,127,119

[HitObjects]
94,100,167,5,2,0:1:0:0:
94,100,767,1,2,0:0:0:0:
110,178,1067,1,2,0:0:0:0:
203,296,1367,5,2,0:1:0:0:
203,296,1967,1,2,0:0:0:0:
219,218,2267,1,2,0:0:0:0:
306,80,2567,5,2,0:1:0:0:
322,158,3167,1,2,0:0:0:0:
306,80,3467,1,2,0:0:0:0:
338,236,3767,5,2,0:1:0:0:
322,158,4067,1,2,0:0:0:0:
306,80,4367,1,2,0:0:0:0:
290,2,4667,1,2,0:0:0:0:
443,47,4967,5,2,0:1:0:0:
443,47,5567,1,2,0:0:0:0:
459,125,5867,1,2,0:0:0:0:
413,297,6167,5,2,0:1:0:0:
397,219,6467,1,2,0:0:0:0:
397,219,6617,1,2,0:0:0:0:
397,219,6767,1,2,0:0:0:0:
381,141,7067,1,2,0:0:0:0:
320,320,7367,5,2,0:1:0:0:
192,320,7967,1,2,0:0:0:0:
256,192,8567,5,2,0:1:0:0:
182,269,9617,5,0,0:0:0:0:
182,269,9692,1,0,0:0:0:0:
182,269,9767,6,0,B|220:252|264:260|240:272|280:284|321:266,1,143.999995605469,6|0,3:2|0:0,0:0:0:0:
321,266,10217,1,0,0:0:0:0:
292,179,10367,2,0,P|296:144|314:113,1,71.9999978027344,2|0,0:0|0:0,0:0:0:0:
411,62,10667,1,2,0:2:0:0:
313,22,10817,1,0,0:0:0:0:
305,25,10892,1,0,2:0:0:0:
297,29,10967,6,0,B|266:46|227:23|227:23|206:59|171:62,1,143.999995605469,2|0,0:2|0:0,0:0:0:0:
171,61,11417,1,0,0:0:0:0:
64,41,11567,2,0,P|50:78|51:118,1,71.9999978027344,2|0,0:2|0:0,0:0:0:0:
130,165,11867,1,2,0:2:0:0:
41,200,12017,1,0,0:0:0:0:
47,205,12092,1,0,2:0:0:0:
53,210,12167,6,0,B|91:193|135:201|111:213|151:225|192:207,1,143.999995605469,2|0,0:2|0:0,0:0:0:0:
192,207,12617,1,0,0:0:0:0:
198,299,12767,2,0,P|164:306|128:300,1,71.9999978027344,2|0,0:2|0:0,0:0:0:0:
46,377,13067,2,0,P|84:385|123:376,1,71.9999978027344,2|0,0:2|0:0,0:0:0:0:
203,308,13367,5,2,0:2:0:0:
230,340,13467,5,2,2:0:0:0:
272,345,13567,5,2,2:0:0:0:
310,326,13667,6,0,P|328:296|329:260,1,71.9999978027344,2|0,0:2|0:0,0:0:0:0:
268,169,13967,2,0,P|249:199|249:235,1,71.9999978027344,2|0,0:2|0:0,0:0:0:0:
325,110,14267,2,0,P|290:90|251:92,1,71.9999978027344,2|0,0:2|0:0,0:0:0:0:
84,138,14567,6,0,P|137:127|189:141,1,107.999996704102,6|0,0:2|0:0,0:0:0:0:
173,217,14867,6,0,P|135:202|95:213,1,83.9999974365235,2|0,0:0|0:0,0:0:0:0:
46,279,15167,6,0,B|2:236|19:189|19:189|-13:148|13:90,1,200,2|0,0:2|0:0,0:0:0:0:
22,7,16067,2,0,P|41:12|58:22,1,40,2|0,0:2|0:0,0:0:0:0:
114,82,16367,6,0,P|139:93|167:94,1,55.9999982910157,2|0,0:2|0:0,0:0:0:0:
251,55,16667,1,2,0:2:0:0:
306,139,16817,1,0,0:0:0:0:
306,139,16892,1,0,2:0:0:0:
306,139,16967,5,6,0:2:0:0:
198,194,18167,5,8,0:0:0:0:
327,127,18317,1,0,3:0:0:0:
327,127,18392,1,0,0:0:0:0:
327,127,18467,1,0,3:0:0:0:
142,99,18617,1,8,0:0:0:0:
285,240,18917,5,0,3:0:0:0:
119,207,19067,1,0,0:0:0:0:
119,207,19142,1,0,0:0:0:0:
119,207,19217,2,0,B|165:199|210:220|181:226|221:251|270:243,1,160,4|0,3:2|0:0,0:0:0:0:
364,234,19667,6,0,P|352:263|351:295,1,64
434,348,19967,2,0,P|445:318|446:286,1,64
451,136,20267,2,0,P|439:166|439:197,1,64
512,78,20567,6,0,P|454:98|407:58,1,128
407,58,21017,1,0,0:0:0:0:
346,117,21167,1,0,0:0:0:0:
270,37,21317,2,0,P|224:42|189:74,1,96
107,123,21617,6,0,B|149:104|198:113|171:126|215:139|262:118,1,160,4|0,3:2|0:0,0:0:0:0:
153,198,22067,6,0,P|150:239|164:278,1,80,4|0,3:2|0:0,0:0:0:0:
293,348,22367,2,0,P|261:354|230:349,1,64
96,301,22667,2,0,P|127:295|159:301,1,64
20,361,22967,6,0,P|60:316|37:259,1,128
36,258,23417,1,0,0:0:0:0:
0,192,23567,1,0,0:0:0:0:
93,140,23717,1,0,0:0:0:0:
0,74,23867,1,0,3:0:0:0:
121,226,24017,6,0,P|128:147|146:69,1,160,4|0,3:2|0:0,0:0:0:0:
246,166,24467,6,0,P|250:127|259:88,1,80,4|0,3:2|0:0,0:0:0:0:
360,206,24767,2,0,P|356:170|348:135,1,71.9999978027344
449,265,25067,2,0,P|452:229|460:194,1,71.9999978027344,0|0,3:0|0:0,0:0:0:0:
481,344,25367,6,0,P|438:350|410:340,1,71.9999978027344
287,262,25667,1,0,3:0:0:0:
242,363,25817,1,0,0:0:0:0:
242,363,25892,1,0,0:0:0:0:
242,363,25967,1,8,0:0:0:0:
167,242,26117,1,0,3:0:0:0:
268,269,26267,1,0,3:0:0:0:
123,310,26417,6,0,P|135:236|129:158,1,143.999995605469,4|0,3:2|0:0,0:0:0:0:
108,51,26867,1,0,0:0:0:0:
127,57,27167,1,0,0:0:0:0:
146,63,27467,1,0,0:0:0:0:
289,14,27767,5,8,0:0:0:0:
264,160,27917,1,0,3:0:0:0:
268,170,27992,1,0,3:0:0:0:
272,180,28067,2,0,L|306:176,1,35.9999989013672,0|0,3:0|3:0,3:0:0:0:
443,79,28217,5,8,0:0:0:0:
391,242,28367,1,0,3:0:0:0:
387,252,28442,1,0,3:0:0:0:
383,262,28517,2,0,L|348:258,1,35.9999989013672,0|0,3:0|3:0,3:0:0:0:
194,256,28667,5,8,0:0:0:0:
360,106,28817,2,0,B|302:80|248:96|281:112|221:123|173:101,1,191.999994140625,4|0,0:0|3:0,0:0:0:0:
40,16,29267,6,0,P|27:53|27:93,1,80,10|0,0:0|0:0,0:0:0:0:
55,239,29567,1,2,3:2:0:0:
94,153,29717,1,0,3:0:0:0:
113,314,29867,2,0,P|147:333|197:340,1,80,10|0,0:0|0:0,0:0:0:0:
329,299,30167,5,2,3:2:0:0:
266,381,30317,1,0,3:0:0:0:
232,226,30467,1,10,0:2:0:0:
327,288,30617,1,0,0:0:0:0:
325,277,30692,1,0,0:0:0:0:
323,266,30767,1,2,3:2:0:0:
416,178,30917,1,2,0:0:0:0:
400,343,31067,1,8,0:0:0:0:
493,146,31217,6,0,B|445:124|400:137|427:151|378:160|338:142,1,160,6|0,3:2|3:0,0:0:0:0:
455,46,31667,2,0,P|416:48|379:62,1,80,10|0,0:0|0:0,0:0:0:0:
249,92,31967,1,2,3:2:0:0:
338,142,32117,1,0,3:0:0:0:
223,84,32267,2,0,L|122:92,1,80,10|0,0:0|0:0,0:0:0:0:
329,120,32567,5,2,3:2:0:0:
288,9,32717,1,0,3:0:0:0:
245,177,32867,1,10,0:0:0:0:
152,129,33017,1,0,0:0:0:0:
149,116,33092,1,0,0:0:0:0:
146,103,33167,1,2,3:0:0:0:
160,226,33317,1,2,0:0:0:0:
45,122,33467,1,8,0:0:0:0:
19,294,33617,6,0,B|55:303|91:274|91:274|123:313|162:307,1,160,6|0,3:2|3:0,0:0:0:0:
276,267,34067,2,0,P|287:306|287:363,1,80,10|0,0:0|0:0,0:0:0:0:
380,246,34367,1,2,3:0:0:0:
383,348,34517,1,0,3:0:0:0:
485,223,34667,2,0,P|473:262|473:319,1,80,10|0,0:0|0:0,0:0:0:0:
392,150,34967,5,2,3:0:0:0:
365,260,35117,1,0,3:0:0:0:
276,108,35267,1,10,0:0:0:0:
223,220,35417,1,0,0:0:0:0:
234,216,35492,1,0,0:0:0:0:
245,212,35567,1,2,3:0:0:0:
172,142,35717,1,2,0:0:0:0:
314,181,35867,1,8,0:0:0:0:
122,219,36017,6,0,B|113:183|142:147|142:147|103:115|109:76,1,160,6|0,3:2|3:0,0:0:0:0:
21,4,36467,2,0,P|10:45|12:101,1,80,10|0,0:0|0:0,0:0:0:0:
149,0,36767,1,2,3:0:0:0:
202,81,36917,1,0,3:0:0:0:
304,11,37067,2,0,P|343:7|383:12,1,80,10|0,0:0|0:0,0:0:0:0:
502,95,37367,5,2,3:0:0:0:
471,0,37517,1,0,3:0:0:0:
432,153,37667,1,8,0:0:0:0:
340,89,37817,1,0,3:0:0:0:
336,100,37892,1,0,3:0:0:0:
332,111,37967,1,10,0:0:0:0:
358,206,38117,1,2,3:0:0:0:
231,121,38267,1,0,0:0:0:0:
231,121,38342,1,0,0:0:0:0:
231,121,38417,6,0,B|184:141|139:127|166:114|116:105|73:124,1,160,6|0,3:2|3:0,0:0:0:0:
15,216,38867,2,0,P|54:225|111:222,1,80,10|0,0:0|0:0,0:0:0:0:
223,207,39167,1,2,3:0:0:0:
164,301,39317,1,0,3:0:0:0:
154,148,39467,1,10,0:0:0:0:
236,219,39617,6,0,P|275:222|315:217,1,80,2|0,0:0|3:0,0:0:0:0:
366,136,39917,1,0,3:0:0:0:
475,204,40067,2,0,P|477:244|471:283,1,80,10|0,0:0|0:0,0:0:0:0:
383,358,40367,2,0,P|376:317|378:279,1,80,2|0,3:0|0:0,0:0:0:0:
478,384,40667,1,10,0:0:0:0:
292,319,40817,6,0,B|244:297|199:310|226:324|177:333|137:315,1,160,6|0,3:2|3:0,0:0:0:0:
0,377,41267,2,0,P|40:384|84:377,1,80,10|0,0:0|0:0,0:0:0:0:
178,242,41567,1,2,3:0:0:0:
213,353,41717,1,2,3:0:0:0:
254,188,41867,1,8,0:0:0:0:
337,309,42017,6,0,P|357:272|367:235,1,80,2|0,0:0|3:0,0:0:0:0:
336,133,42317,1,0,3:0:0:0:
491,179,42467,2,0,P|470:137|444:112,1,80,10|0,0:0|0:0,0:0:0:0:
297,53,42767,1,2,3:0:0:0:
332,154,42917,1,2,0:0:0:0:
392,1,43067,1,8,0:0:0:0:
408,191,43217,6,0,B|360:169|315:182|342:196|293:205|253:187,1,160,6|0,3:2|0:0,0:0:0:0:
362,268,43667,2,0,P|317:281|270:275,1,80,10|0,0:0|0:0,0:0:0:0:
152,227,43967,1,2,3:0:0:0:
183,328,44117,1,0,3:0:0:0:
141,203,44267,2,0,P|141:165|159:126,1,80,10|0,0:0|0:0,0:0:0:0:
242,24,44567,5,2,3:0:0:0:
255,125,44717,1,0,3:0:0:0:
130,31,44867,1,8,0:0:0:0:
72,132,45017,1,0,0:0:0:0:
67,120,45092,1,0,0:0:0:0:
62,108,45167,1,2,3:0:0:0:
76,232,45317,1,2,0:0:0:0:
47,72,45467,1,8,0:0:0:0:
0,270,45617,6,0,B|48:248|93:261|66:275|115:284|155:266,1,160,6|0,3:2|0:0,0:0:0:0:
44,344,46067,2,0,P|81:356|121:357,1,80,10|0,0:0|0:0,0:0:0:0:
243,334,46367,1,2,3:0:0:0:
154,266,46517,1,0,3:0:0:0:
249,156,46667,2,0,P|253:195|245:235,1,80,8|0,0:0|0:0,0:0:0:0:
166,74,46967,5,2,3:0:0:0:
260,138,47117,1,0,3:0:0:0:
105,166,47267,1,10,0:0:0:0:
155,67,47417,1,0,3:0:0:0:
144,60,47492,1,0,3:0:0:0:
133,53,47567,1,10,0:0:0:0:
240,27,47717,1,2,3:0:0:0:
260,138,47867,1,0,0:0:0:0:
260,138,47942,1,0,0:0:0:0:
260,138,48017,6,0,B|299:144|331:105|331:105|367:134|403:125,1,160,6|0,3:2|3:0,0:0:0:0:
464,9,48467,2,0,P|425:15|395:41,1,80,10|0,0:0|0:0,0:0:0:0:
512,97,48767,1,10,0:0:0:0:
435,202,48917,1,2,0:0:0:0:
403,124,49067,1,0,3:0:0:0:
508,231,49217,6,0,B|460:253|415:240|442:226|393:217|353:235,1,160,10|0,0:0|3:0,0:0:0:0:
326,331,49667,2,0,P|291:311|265:281,1,80,10|0,0:0|0:0,0:0:0:0:
167,166,49967,1,10,0:0:0:0:
97,277,50117,1,0,3:0:0:0:
168,141,50267,1,2,0:0:0:0:
177,316,50417,6,0,B|137:298|88:307|115:321|70:334|22:312,1,160,6|0,3:2|3:0,0:0:0:0:
136,383,50867,1,10,0:0:0:0:
81,221,51017,1,0,0:0:0:0:
74,231,51092,1,0,0:0:0:0:
67,241,51167,1,10,0:0:0:0:
20,136,51317,1,2,3:0:0:0:
140,123,51467,1,0,0:0:0:0:
0,40,51617,6,0,B|36:31|72:60|72:60|104:21|143:27,1,160,14|0,0:0|3:0,0:0:0:0:
262,40,52067,2,0,P|281:32|300:30,1,40,0|0,3:0|3:0,0:0:0:0:
374,109,52217,6,0,B|334:91|285:100|312:114|267:127|219:105,1,160,14|0,0:0|3:0,0:0:0:0:
293,188,52667,2,0,P|313:185|335:174,1,40,0|0,3:0|3:0,0:0:0:0:
436,39,52817,6,0,P|404:109|439:188,1,160,14|0,0:0|3:0,0:0:0:0:
512,325,53267,2,0,P|467:311|420:316,1,95.9999970703126,10|0,0:0|0:0,0:0:0:0:
229,359,53567,1,10,0:0:0:0:
350,384,53717,1,0,3:0:0:0:
207,261,53867,1,10,0:0:0:0:
349,167,54017,1,2,3:0:0:0:
336,160,54092,1,0,3:0:0:0:
322,152,54167,6,0,P|276:142|229:147,1,95.9999970703126,8|0,0:0|0:0,0:0:0:0:
51,193,54467,2,0,P|98:198|144:187,1,95.9999970703126,10|0,0:0|0:0,0:0:0:0:
203,44,54767,1,10,0:0:0:0:
230,169,54917,1,0,3:0:0:0:
105,19,55067,1,10,0:0:0:0:
301,64,55217,1,2,3:0:0:0:
314,59,55292,1,0,3:0:0:0:
327,54,55367,5,8,0:0:0:0:
460,153,55517,1,0,3:0:0:0:
447,148,55592,1,0,3:0:0:0:
434,143,55667,2,0,L|438:197,1,47.9999985351563,0|0,3:0|3:0,0:0:0:0:
447,360,55817,5,8,0:0:0:0:
307,185,55967,1,0,3:0:0:0:
320,180,56042,1,0,3:0:0:0:
333,175,56117,2,0,L|328:229,1,47.9999985351563,0|0,3:0|3:0,0:0:0:0:
298,376,56267,5,8,0:0:0:0:
200,221,56417,1,8,0:0:0:0:
194,209,56717,5,0,3:0:0:0:
141,348,56867,1,8,0:0:0:0:
75,224,57017,1,0,3:0:0:0:
78,235,57092,1,0,3:0:0:0:
81,246,57167,1,8,0:0:0:0:
36,336,57317,1,0,3:0:0:0:
127,152,57467,1,0,3:0:0:0:
127,152,57542,1,0,3:0:0:0:
127,152,57617,5,8,0:0:0:0:
256,192,57692,12,0,58667,0:0:0:0:
349,110,58817,5,0,3:0:0:0:
340,118,58892,1,0,3:0:0:0:
331,126,58967,1,8,0:0:0:0:
419,47,59117,1,8,0:0:0:0:
323,258,59417,5,0,3:0:0:0:
332,266,59492,1,0,3:0:0:0:
341,274,59567,1,8,0:0:0:0:
253,195,59717,1,8,0:0:0:0:
461,208,60017,6,0,B|403:182|349:198|382:214|322:225|274:203,1,191.999994140625,4|0,3:2|0:0,0:0:0:0:
253,195,60467,1,8,0:0:0:0:
172,352,60767,5,0,0:0:0:0:
172,352,60917,2,0,P|159:322|155:290,1,64,0|8,0:0|0:0,0:0:0:0:
171,209,61217,2,0,P|166:177|154:147,1,64
61,124,61517,2,0,P|66:156|78:186,1,64,0|8,0:0|0:0,0:0:0:0:
0,67,61817,2,0,P|58:86|106:48,1,128
185,8,62267,2,0,L|263:14,1,64,8|0,0:0|0:0,0:0:0:0:
325,72,62567,6,0,L|388:67,1,64
483,22,62867,1,8,0:0:0:0:
483,22,63017,2,0,P|488:53|484:85,1,64
419,206,63317,2,0,P|413:174|417:142,1,64,0|8,0:0|0:0,0:0:0:0:
512,243,63617,6,0,B|454:217|400:233|433:249|373:260|325:238,1,191.999994140625,0|8,0:0|0:0,0:0:0:0:
326,238,64367,2,0,P|339:209|340:177,2,64,0|0|8,0:0|0:0|0:0,0:0:0:0:
241,275,64817,1,0,0:0:0:0:
361,341,64967,2,0,B|333:348|303:324|303:324|278:356|246:351,1,128,0|8,0:0|0:0,0:0:0:0:
171,322,65417,5,0,0:0:0:0:
171,322,65567,1,0,0:0:0:0:
94,362,65717,2,0,L|11:356,1,64,0|8,0:0|0:0,0:0:0:0:
0,281,66017,2,0,L|63:276,1,64
120,197,66317,2,0,L|56:192,1,64,0|8,0:0|0:0,0:0:0:0:
170,267,66617,2,0,P|206:214|193:153,1,128
121,95,67067,2,0,P|144:73|172:63,1,64,8|0,0:0|0:0,0:0:0:0:
265,21,67367,6,0,P|295:31|317:53,1,64
339,132,67667,1,8,0:0:0:0:
386,11,67817,2,0,P|397:40|394:71,1,64
354,151,68117,2,0,P|351:182|362:212,1,64,0|8,0:0|0:0,0:0:0:0:
418,303,68417,1,0,3:0:0:0:
424,295,68492,1,0,3:0:0:0:
430,287,68567,5,8,0:0:0:0:
311,304,68717,1,0,3:0:0:0:
305,296,68792,1,0,3:0:0:0:
299,288,68867,2,0,L|255:291,1,32,0|0,3:0|3:0,0:0:0:0:
152,307,69017,5,8,0:0:0:0:
65,206,69167,1,0,3:0:0:0:
71,214,69242,1,0,3:0:0:0:
77,222,69317,2,0,L|120:218,1,32,0|0,3:0|3:0,0:0:0:0:
238,203,69467,5,8,0:0:0:0:
22,86,69767,6,0,B|54:69|99:82|72:96|121:105|160:88,1,143.999995605469,4|8,3:2|0:0,0:0:0:0:
243,69,70217,1,2,0:0:0:0:
122,9,70367,2,0,P|154:0|195:7,1,71.9999978027344,2|0,0:0|3:0,0:0:0:0:
261,90,70667,1,10,0:0:0:0:
368,0,70817,6,0,B|373:34|338:63|338:63|365:95|355:129,1,143.999995605469,2|0,0:0|0:0,0:0:0:0:
324,250,71267,1,10,0:0:0:0:
262,168,71417,2,0,P|227:168|194:181,1,71.9999978027344,2|0,0:0|3:0,0:0:0:0:
120,250,71717,1,2,3:0:0:0:
229,278,71867,1,8,0:0:0:0:
79,318,72017,6,0,P|90:247|82:175,1,143.999995605469,2|0,0:0|0:0,0:0:0:0:
18,64,72467,2,0,P|55:68|89:59,1,71.9999978027344,8|2,0:0|0:0,0:0:0:0:
200,0,72767,1,2,3:0:0:0:
215,134,72917,1,2,3:0:0:0:
191,17,73067,1,8,0:0:0:0:
332,82,73217,6,0,P|342:158|309:223,1,143.999995605469,2|0,0:0|0:0,0:0:0:0:
175,278,73667,2,0,P|210:272|252:284,1,71.9999978027344,8|2,0:0|0:0,0:0:0:0:
359,358,73967,1,2,3:0:0:0:
269,376,74117,2,0,P|299:358|334:351,1,71.9999978027344,2|8,3:0|0:0,0:0:0:0:
445,337,74417,1,2,0:0:0:0:
453,344,74492,1,0,0:0:0:0:
461,350,74567,6,0,B|478:318|465:273|451:300|442:251|459:212,2,143.999995605469,4|8|0,0:0|0:0|3:0,0:0:0:0:
386,323,75317,1,0,3:0:0:0:
356,216,75467,1,10,0:0:0:0:
256,299,75617,2,0,P|185:290|99:298,1,143.999995605469,2|0,0:0|0:0,0:0:0:0:
7,373,76067,5,10,0:0:0:0:
38,248,76217,2,0,P|42:213|39:177,1,71.9999978027344,2|0,0:0|3:0,0:0:0:0:
4,64,76517,1,0,3:0:0:0:
150,143,76667,1,8,0:0:0:0:
113,46,76817,1,0,3:0:0:0:
106,54,76892,1,0,3:0:0:0:
99,61,76967,5,10,0:0:0:0:
130,45,77042,1,2,0:0:0:0:
166,43,77117,1,2,0:0:0:0:
199,55,77192,1,2,0:0:0:0:
225,80,77267,1,10,0:0:0:0:
251,105,77342,1,2,0:0:0:0:
284,117,77417,1,2,0:0:0:0:
320,115,77492,1,2,0:0:0:0:
351,98,77567,5,10,0:0:0:0:
370,53,77642,1,2,0:0:0:0:
416,37,77717,1,2,3:0:0:0:
459,62,77792,1,2,0:0:0:0:
469,110,77867,1,10,0:0:0:0:
439,149,77942,1,2,0:0:0:0:
385,176,78017,1,2,3:0:0:0:
377,236,78092,1,2,3:0:0:0:
420,279,78167,5,10,0:0:0:0:
492,361,78617,6,0,L|486:297,1,44.0000013427735,0|0,3:0|3:0,0:0:0:0:
439,149,78767,1,8,0:0:0:0:
379,277,78917,1,0,3:0:0:0:
465,38,79217,6,0,B|414:25|356:47|392:58|340:83|298:69,1,176.000005371094,6|0,3:2|3:0,0:0:0:0:
363,144,79667,2,0,P|319:151|269:140,1,88.000002685547,8|0,0:0|0:0,0:0:0:0:
174,96,79967,1,0,3:0:0:0:
142,193,80117,1,0,3:0:0:0:
83,59,80267,1,10,0:0:0:0:
59,235,80417,6,0,B|98:255|153:239|120:222|180:211|228:232,1,176.000005371094,2|0,0:0|3:0,0:0:0:0:
372,299,80867,1,10,0:0:0:0:
278,369,81017,2,0,P|275:325|291:284,1,88.000002685547,2|0,0:0|3:0,0:0:0:0:
369,171,81317,1,2,0:0:0:0:
443,331,81467,1,8,0:0:0:0:
453,140,81617,6,0,B|405:119|345:130|378:147|323:163|284:143,1,176.000005371094,6|0,3:2|3:0,0:0:0:0:
212,0,82067,1,10,0:0:0:0:
406,53,82217,2,0,P|362:54|323:73,1,88.000002685547,2|0,0:0|3:0,0:0:0:0:
224,194,82517,1,2,3:0:0:0:
146,82,82667,1,8,0:0:0:0:
125,238,82817,6,0,P|186:295|277:289,1,176.000005371094,2|0,0:0|3:0,0:0:0:0:
218,376,83267,2,0,P|261:376|303:362,1,88.000002685547,8|2,0:0|0:0,0:0:0:0:
417,260,83567,5,2,3:2:0:0:
306,376,83717,1,2,3:2:0:0:
320,190,83867,1,8,0:0:0:0:
470,343,84017,6,0,B|481:302|447:262|447:262|491:226|484:186,1,176.000005371094,2|0,3:2|3:0,0:0:0:0:
367,61,84467,2,0,P|380:102|385:146,1,88.000002685547,8|0,0:0|0:0,0:0:0:0:
334,267,84767,1,0,3:0:0:0:
255,146,84917,1,0,3:0:0:0:
202,290,85067,1,10,0:0:0:0:
256,122,85217,6,0,P|241:78|214:44,1,88.000002685547,2|0,0:0|3:0,0:0:0:0:
99,13,85517,1,2,3:0:0:0:
124,138,85667,1,8,0:0:0:0:
8,66,85817,2,0,P|0:108|0:152,1,88.000002685547,2|0,0:0|3:0,0:0:0:0:
85,287,86117,1,2,0:0:0:0:
0,173,86267,1,8,0:0:0:0:
0,333,86417,6,0,B|39:353|94:337|61:320|121:309|169:330,1,176.000005371094,6|0,3:2|3:0,0:0:0:0:
330,367,86867,1,10,0:0:0:0:
277,214,87017,2,0,P|260:254|259:298,1,88.000002685547,2|0,0:0|3:0,0:0:0:0:
341,383,87317,1,0,3:0:0:0:
389,245,87467,1,10,0:0:0:0:
494,384,87617,6,0,B|516:328|516:328|503:212,1,176.000005371094,2|0,0:0|3:0,0:0:0:0:
398,47,88067,2,0,B|394:93|394:93|401:136,1,88.000002685547,8|2,0:0|0:0,0:0:0:0:
265,23,88367,5,2,0:0:0:0:
242,236,88517,1,2,0:0:0:0:
422,142,88667,1,8,0:0:0:0:
134,114,88817,6,0,P|85:191|86:287,1,176.000005371094,2|0,3:2|3:0,0:0:0:0:
5,172,89267,2,0,P|-3:214|-2:258,1,88.000002685547,8|0,0:0|0:0,0:0:0:0:
10,362,89567,1,0,3:0:0:0:
81,297,89717,1,0,3:0:0:0:
199,365,89867,1,10,0:0:0:0:
274,225,90017,6,0,P|286:271|284:329,1,88.000002685547,6|0,3:2|0:0,0:0:0:0:
174,242,90317,1,2,3:0:0:0:
235,136,90467,1,8,0:0:0:0:
149,60,90617,2,0,P|137:102|136:146,1,88.000002685547,2|0,0:0|3:0,0:0:0:0:
240,35,90917,1,2,3:0:0:0:
245,157,91067,1,8,0:0:0:0:
351,12,91217,6,0,P|362:99|353:186,1,176.000005371094,6|0,3:2|3:0,0:0:0:0:
453,108,91667,2,0,P|453:154|440:213,1,88.000002685547,10|0,0:0|0:0,0:0:0:0:
388,357,91967,2,0,P|388:311|401:252,1,88.000002685547,2|0,3:0|3:0,0:0:0:0:
483,360,92267,1,10,0:0:0:0:
298,313,92417,6,0,B|250:292|190:303|223:320|168:336|129:316,1,176.000005371094,2|0,0:0|3:0,0:0:0:0:
15,206,92867,1,8,0:0:0:0:
176,221,93017,1,0,3:0:0:0:
170,232,93092,1,0,3:0:0:0:
164,243,93167,5,10,0:0:0:0:
93,102,93317,1,2,3:2:0:0:
35,306,93467,1,0,3:0:0:0:
21,53,93617,6,0,B|71:40|129:61|93:72|145:98|186:85,1,176.000005371094,2|0,0:0|3:0,0:0:0:0:
370,14,94067,1,8,0:0:0:0:
174,6,94217,5,0,3:0:0:0:
354,115,94367,1,8,0:0:0:0:
160,173,94517,5,0,3:0:0:0:
286,28,94667,1,8,0:0:0:0:
299,191,94817,5,0,3:0:0:0:
308,200,94892,1,0,3:0:0:0:
317,209,94967,1,8,0:0:0:0:
226,111,95117,5,0,3:0:0:0:
278,327,95267,1,8,0:0:0:0:
75,189,95417,5,0,3:0:0:0:
179,343,95567,1,8,0:0:0:0:
12,325,95717,5,0,3:0:0:0:
177,235,95867,1,8,0:0:0:0:
29,116,96017,5,0,3:0:0:0:
29,116,96092,1,0,3:0:0:0:
29,116,96167,1,8,0:0:0:0:
332,92,97367,5,8,0:0:0:0:
259,172,97517,1,0,3:0:0:0:
255,184,97592,1,0,3:0:0:0:
251,196,97667,2,0,L|297:191,1,44.0000013427735,0|0,3:0|3:0,0:0:0:0:
403,182,97817,5,8,0:0:0:0:
469,275,97967,1,0,3:0:0:0:
473,287,98042,1,0,3:0:0:0:
477,299,98117,2,0,L|430:294,1,44.0000013427735,0|0,3:0|3:0,0:0:0:0:
295,291,98267,5,8,0:0:0:0:
132,69,98567,5,14,3:2:0:0:
179,288,98717,1,0,3:0:0:0:
26,221,98867,1,0,3:0:0:0:
250,100,99017,5,8,0:0:0:0:
27,86,99167,1,0,3:0:0:0:
126,205,99317,1,0,3:0:0:0:
213,1,99467,5,8,0:0:0:0:
246,204,99617,1,0,3:0:0:0:
246,204,99692,1,0,0:0:0:0:
246,204,99767,5,14,0:0:0:0:
364,74,99917,1,0,3:0:0:0:
364,74,100067,1,0,3:0:0:0:
372,238,100217,5,8,0:0:0:0:
250,100,100367,1,0,3:0:0:0:
250,100,100517,1,0,3:0:0:0:
272,298,100667,5,8,0:0:0:0:
399,150,100817,1,0,3:0:0:0:
411,158,100892,1,0,3:0:0:0:
423,167,100967,6,0,P|428:218|415:268,1,103.999995239258,14|0,0:0|3:0,0:0:0:0:
348,379,101267,1,0,3:0:0:0:
238,180,101417,6,0,P|232:231|245:281,1,103.999995239258,8|0,0:0|3:0,0:0:0:0:
346,364,101717,1,0,3:0:0:0:
329,195,101867,5,8,0:0:0:0:
235,293,102017,1,0,0:0:0:0:
224,304,102092,1,0,0:0:0:0:
213,315,102167,6,0,L|94:304,2,103.999995239258,10|0|0,0:0|3:0|3:0,0:0:0:0:
34,202,102617,2,0,L|137:192,2,103.999995239258,8|0|0,0:0|3:0|3:0,0:0:0:0:
211,108,103067,5,8,0:0:0:0:
21,82,103217,1,0,3:0:0:0:
34,73,103292,1,0,3:0:0:0:
47,64,103367,6,0,P|96:48|148:44,1,103.999995239258,14|0,0:0|3:0,0:0:0:0:
295,70,103667,1,0,3:0:0:0:
155,197,103817,6,0,P|206:193|256:177,1,103.999995239258,8|0,0:0|3:0,0:0:0:0:
370,122,104117,1,0,3:0:0:0:
383,300,104267,5,8,0:0:0:0:
378,101,104417,1,0,3:0:0:0:
287,288,104567,5,14,0:0:0:0:
463,197,104717,1,0,3:0:0:0:
463,197,104867,1,0,3:0:0:0:
232,185,105017,5,8,0:0:0:0:
424,312,105167,1,0,3:0:0:0:
424,312,105317,1,0,3:0:0:0:
386,80,105467,5,8,0:0:0:0:
307,264,105617,1,0,3:0:0:0:
297,276,105692,1,0,3:0:0:0:
287,288,105767,5,14,0:0:0:0:
168,99,105917,1,0,3:0:0:0:
129,255,106067,1,0,3:0:0:0:
271,46,106217,5,8,0:0:0:0:
385,223,106367,1,6,3:2:0:0:
250,180,106517,1,0,3:0:0:0:
485,115,106667,5,8,0:0:0:0:
278,59,106817,1,0,3:0:0:0:
285,72,106892,1,0,3:0:0:0:
292,85,106967,5,10,0:0:0:0:
317,279,107117,1,0,3:0:0:0:
310,266,107192,1,0,3:0:0:0:
303,253,107267,2,0,L|242:258,1,51.999997619629,0|0,3:0|3:0,0:0:0:0:
46,276,107417,5,8,0:0:0:0:
250,180,107567,1,0,3:0:0:0:
243,167,107642,1,0,3:0:0:0:
236,154,107717,2,0,L|175:159,1,51.999997619629,0|0,3:0|3:0,0:0:0:0:
0,163,107867,5,8,0:0:0:0:
13,21,108167,6,0,P|64:24|113:41,1,103.999995239258,6|0,3:2|0:0,0:0:0:0:
335,47,108467,2,0,P|283:49|234:66,1,103.999995239258,10|0,0:0|0:0,0:0:0:0:
406,127,108767,1,2,3:0:0:0:
251,199,108917,1,2,3:0:0:0:
398,264,109067,1,8,0:0:0:0:
160,156,109217,6,0,B|219:140|288:165|245:178|307:209|355:193,1,207.999990478516,6|0,3:2|3:0,0:0:0:0:
477,83,109667,2,0,P|493:132|494:184,1,103.999995239258,8|0,0:0|0:0,0:0:0:0:
458,343,109967,1,2,3:0:0:0:
359,200,110117,1,2,3:0:0:0:
299,366,110267,1,8,0:0:0:0:
512,273,110417,6,0,B|456:246|384:259|424:279|358:299|313:275,1,207.999990478516,6|0,3:2|3:0,0:0:0:0:
160,181,110867,2,0,P|211:177|261:191,1,103.999995239258,8|0,0:0|0:0,0:0:0:0:
116,288,111167,1,2,3:0:0:0:
61,134,111317,1,2,3:0:0:0:
11,309,111467,1,8,0:0:0:0:
18,59,111617,6,0,B|63:34|129:54|89:74|161:87|217:60,1,207.999990478516,2|0,0:0|3:0,0:0:0:0:
218,60,111992,1,0,3:0:0:0:
218,60,112067,1,12,0:0:0:0:
352,157,112217,1,0,3:0:0:0:
349,141,112292,1,0,3:0:0:0:
346,125,112367,1,12,0:0:0:0:
400,36,112517,5,0,3:0:0:0:
249,152,112667,1,12,0:0:0:0:
449,201,112817,1,0,3:0:0:0:
446,185,112892,1,0,3:0:0:0:
443,169,112967,5,12,0:0:0:0:
440,153,113267,5,8,0:0:0:0:
374,317,113417,1,0,0:0:0:0:
241,136,113567,5,8,0:0:0:0:
416,246,113717,1,0,3:0:0:0:
346,32,113867,5,8,0:0:0:0:
287,238,114017,1,0,3:0:0:0:
299,228,114092,1,0,3:0:0:0:
311,218,114167,5,8,0:0:0:0:
323,208,114467,5,8,0:0:0:0:
160,139,114617,1,0,0:0:0:0:
337,119,114767,5,8,0:0:0:0:
127,225,114917,1,0,3:0:0:0:
400,172,115067,5,8,0:0:0:0:
231,58,115217,1,0,3:0:0:0:
236,72,115292,1,0,3:0:0:0:
242,86,115367,5,8,0:0:0:0:
231,259,115517,1,0,3:0:0:0:
226,245,115592,1,0,3:0:0:0:
220,231,115667,2,0,L|271:235,1,51.999997619629,0|0,3:0|3:0,0:0:0:0:
419,274,115817,5,8,0:0:0:0:
460,121,115967,1,0,3:0:0:0:
465,107,116042,1,0,3:0:0:0:
471,93,116117,2,0,L|419:97,1,51.999997619629,0|0,3:0|3:0,0:0:0:0:
253,127,116267,5,8,0:0:0:0:
419,274,116417,1,8,0:0:0:0:
430,283,116867,5,0,0:0:0:0:
441,292,117167,5,0,0:0:0:0:
339,143,117467,5,0,3:0:0:0:
512,330,117617,2,0,B|477:310|426:326|457:341|401:351|358:330,1,160,4|0,0:0|3:0,0:0:0:0:
249,296,118067,6,0,P|209:289|172:301,1,80,10|0,0:0|0:0,0:0:0:0:
36,372,118367,1,2,3:0:0:0:
91,260,118517,1,0,3:0:0:0:
7,125,118667,2,0,P|-3:168|7:211,1,80,10|0,0:0|0:0,0:0:0:0:
50,348,118967,5,2,3:0:0:0:
100,241,119117,1,0,3:0:0:0:
29,106,119267,1,10,0:0:0:0:
106,35,119417,1,0,0:0:0:0:
113,25,119492,1,0,0:0:0:0:
120,15,119567,1,2,3:0:0:0:
73,169,119717,1,2,0:0:0:0:
203,48,119867,1,8,0:0:0:0:
209,172,120017,6,0,P|267:222|343:209,1,160,6|0,3:2|3:0,0:0:0:0:
450,83,120467,2,0,P|424:113|414:151,1,80,10|0,0:0|0:0,0:0:0:0:
425,240,120767,1,2,3:0:0:0:
497,151,120917,1,0,3:0:0:0:
509,302,121067,2,0,P|475:334|436:346,1,80,10|0,0:0|0:0,0:0:0:0:
291,343,121367,5,2,3:0:0:0:
402,255,121517,1,0,3:0:0:0:
209,275,121667,1,10,0:0:0:0:
302,353,121817,1,0,0:0:0:0:
310,361,121892,1,0,0:0:0:0:
319,369,121967,1,2,3:0:0:0:
183,373,122117,1,2,0:0:0:0:
50,289,122267,1,8,0:0:0:0:
82,170,122417,6,0,B|100:122|100:122|47:99|4:149,1,160,6|0,0:0|3:0,0:0:0:0:
192,114,122867,2,0,L|218:38,1,80,10|0,0:0|0:0,0:0:0:0:
215,239,123167,1,2,3:0:0:0:
273,164,123317,1,0,3:0:0:0:
197,18,123467,2,0,L|170:93,1,80,10|2,0:0|0:0,0:0:0:0:
305,159,123767,5,0,3:0:0:0:
293,65,123917,1,0,3:0:0:0:
407,199,124067,2,0,P|445:165|449:128,1,80,10|0,0:0|0:0,0:0:0:0:
331,252,124367,2,0,P|366:285|403:292,1,80,2|0,3:0|0:0,0:0:0:0:
459,112,124667,1,10,0:0:0:0:
221,37,124817,6,0,B|300:59|294:0|376:34,1,160,6|0,3:2|3:0,0:0:0:0:
183,133,125267,2,0,P|136:138|97:118,1,80,10|0,0:0|0:0,0:0:0:0:
307,184,125567,1,2,3:0:0:0:
183,133,125717,1,2,3:0:0:0:
225,277,125867,2,0,P|269:297|307:293,1,80,8|0,0:0|0:0,0:0:0:0:
337,291,126092,1,0,0:0:0:0:
337,291,126167,5,2,3:0:0:0:
441,228,126317,1,0,3:0:0:0:
505,376,126467,1,8,0:0:0:0:
452,222,126617,1,0,3:0:0:0:
462,215,126692,1,0,3:0:0:0:
472,209,126767,1,10,0:0:0:0:
496,74,126917,2,0,L|429:118,1,80,2|0,3:0|3:0,3:0:0:0:
287,59,127217,6,0,B|220:17|220:17|153:63,1,160,6|0,3:2|3:0,0:0:0:0:
242,200,127667,2,0,B|283:211|283:211|328:201,1,80,10|0,0:0|0:0,0:0:0:0:
224,108,127967,1,2,3:0:0:0:
242,200,128117,1,0,3:0:0:0:
96,132,128267,2,0,B|55:121|55:121|10:131,1,80,10|0,0:0|0:0,0:0:0:0:
73,293,128567,5,2,3:0:0:0:
55,201,128717,1,0,3:0:0:0:
0,375,128867,1,10,0:0:0:0:
159,268,129017,1,0,3:0:0:0:
168,275,129092,1,0,3:0:0:0:
177,283,129167,1,10,0:0:0:0:
293,374,129317,2,0,L|185:373,1,96,2|0,3:0|0:0,0:0:0:0:
270,236,129617,6,0,P|312:289|286:380,1,160,6|0,3:2|3:0,0:0:0:0:
244,158,130067,2,0,P|289:157|334:183,1,80,10|0,0:0|0:0,0:0:0:0:
393,256,130367,1,2,3:0:0:0:
348,153,130517,1,0,3:0:0:0:
450,59,130667,2,0,P|468:100|460:135,1,80,10|0,0:0|0:0,0:0:0:0:
427,268,130967,5,2,3:0:0:0:
472,165,131117,1,0,3:0:0:0:
503,367,131267,1,10,0:0:0:0:
330,330,131417,1,0,3:0:0:0:
341,332,131492,1,0,3:0:0:0:
353,335,131567,1,10,0:0:0:0:
232,251,131717,2,0,P|210:284|207:333,1,80,2|0,3:0|0:0,0:0:0:0:
212,359,131942,1,0,0:0:0:0:
212,359,132017,6,0,P|138:367|65:319,1,160,6|0,0:0|3:0,0:0:0:0:
32,167,132467,1,8,0:0:0:0:
35,155,132767,5,8,0:0:0:0:
165,36,132917,1,0,3:0:0:0:
146,245,133067,5,8,0:0:0:0:
168,24,133217,1,0,3:0:0:0:
169,12,133292,1,0,3:0:0:0:
170,0,133367,1,8,0:0:0:0:
448,114,133667,5,8,0:0:0:0:
444,125,133967,5,8,0:0:0:0:
315,245,134117,1,0,3:0:0:0:
332,53,134267,5,8,0:0:0:0:
312,257,134417,1,0,3:0:0:0:
311,269,134492,1,0,3:0:0:0:
310,281,134567,1,8,0:0:0:0:
495,258,134717,5,0,3:0:0:0:
494,270,134792,1,0,3:0:0:0:
493,282,134867,2,0,L|490:333,1,40,0|0,3:0|3:0,0:0:0:0:
440,136,135017,1,8,0:0:0:0:
309,293,135167,5,0,3:0:0:0:
308,305,135242,1,0,3:0:0:0:
307,317,135317,2,0,L|304:368,1,40,0|0,3:0|3:0,0:0:0:0:
254,171,135467,1,8,0:0:0:0:
369,17,135617,6,0,L|395:138,1,120,8|0,0:0|0:0,0:0:0:0:
260,98,135917,1,0,3:0:0:0:
256,87,135992,1,0,3:0:0:0:
253,76,136067,2,0,L|244:36,1,40,0|0,3:0|3:0,0:0:0:0:
214,240,136217,1,8,0:0:0:0:
136,70,136367,5,0,3:0:0:0:
98,82,136442,1,0,3:0:0:0:
70,110,136517,1,0,3:0:0:0:
58,147,136592,1,0,3:0:0:0:
64,186,136667,2,0,L|194:157,1,120,4|0,0:0|0:0,0:0:0:0:
120,264,136967,6,0,B|64:275|64:275|1:257,1,103.999995239258,6|0,3:2|0:0,0:0:0:0:
225,367,137267,2,0,B|280:354|280:354|344:373,1,103.999995239258,8|0,0:0|0:0,0:0:0:0:
417,265,137567,1,2,3:0:0:0:
268,195,137717,1,2,3:0:0:0:
325,368,137867,1,8,0:0:0:0:
341,100,138017,6,0,B|326:160|375:197|375:197|320:233|346:309,1,207.999990478516,6|0,3:2|3:0,0:0:0:0:
480,319,138467,2,0,P|499:268|483:215,1,103.999995239258,8|0,0:0|0:0,0:0:0:0:
420,128,138767,1,2,3:0:0:0:
417,265,138917,1,2,3:0:0:0:
504,70,139067,1,8,0:0:0:0:
294,29,139217,6,0,P|214:83|241:176,1,207.999990478516,6|0,3:2|3:0,0:0:0:0:
327,352,139667,2,0,P|332:301|310:255,1,103.999995239258,8|0,0:0|0:0,0:0:0:0:
92,229,139967,1,2,3:0:0:0:
126,353,140117,1,2,3:2:0:0:
249,315,140267,1,8,0:0:0:0:
14,168,140417,6,0,P|-4:215|2:266,1,103.999995239258,2|0,0:0|3:0,0:0:0:0:
109,379,140717,1,0,3:0:0:0:
95,101,140867,1,14,0:0:0:0:
364,112,141017,1,0,3:0:0:0:
349,118,141092,1,0,3:0:0:0:
335,124,141167,6,0,L|283:113,1,51.999997619629,14|0,0:0|0:0,0:0:0:0:
31,19,141317,1,0,3:0:0:0:
45,25,141392,1,0,0:0:0:0:
59,30,141467,6,0,L|110:19,1,51.999997619629,14|0,0:0|0:0,0:0:0:0:
39,307,141617,1,0,3:0:0:0:
51,316,141692,1,0,3:0:0:0:
64,323,141767,6,0,B|112:214|-14:232|63:102,1,207.999990478516,6|8,3:2|0:0,0:0:0:0:
189,324,142217,1,0,0:0:0:0:
275,206,142367,2,0,P|321:201|372:237,1,103.999995239258,2|0,3:0|3:0,0:0:0:0:
426,358,142667,1,10,0:0:0:0:
481,174,142817,6,0,B|444:123|456:76|456:76|433:113|353:111,1,207.999990478516,6|0,3:2|3:0,0:0:0:0:
178,194,143267,1,10,0:0:0:0:
241,28,143417,1,2,0:0:0:0:
65,82,143567,2,0,P|54:132|73:179,1,103.999995239258,2|0,3:0|3:0,0:0:0:0:
5,312,143867,2,0,P|52:330|102:320,1,103.999995239258,10|0,0:0|0:0,0:0:0:0:
205,271,144092,1,0,0:0:0:0:
205,271,144167,6,0,P|217:316|202:378,1,103.999995239258,6|0,3:2|0:0,0:0:0:0:
242,164,144467,2,0,P|282:187|315:241,1,103.999995239258,8|0,0:0|0:0,0:0:0:0:
334,349,144767,1,2,3:2:0:0:
334,349,144917,1,0,3:0:0:0:
503,222,145067,2,0,P|455:222|400:252,1,103.999995239258,8|0,0:0|0:0,0:0:0:0:
402,384,145367,5,10,0:0:0:0:
268,300,145517,1,0,3:0:0:0:
447,183,145667,5,8,0:0:0:0:
257,170,145817,1,0,3:0:0:0:
260,154,145892,1,0,3:0:0:0:
264,139,145967,5,8,0:0:0:0:
240,293,146117,1,0,3:0:0:0:
178,95,146267,5,8,0:0:0:0:
359,219,146417,1,0,3:0:0:0:
362,203,146492,1,0,3:0:0:0:
366,188,146567,6,0,P|384:131|433:103,1,103.999995239258,6|0,0:0|0:0,0:0:0:0:
348,322,146867,2,0,P|295:299|263:260,1,103.999995239258,10|0,0:0|0:0,0:0:0:0:
267,123,147167,1,2,3:0:0:0:
418,106,147317,1,0,3:0:0:0:
120,29,147467,1,10,0:0:0:0:
316,6,147617,6,0,B|311:87|266:123|266:123|244:83|188:79,1,207.999990478516,6|0,3:2|3:0,0:0:0:0:
95,35,148067,1,10,0:0:0:0:
195,163,148217,1,2,0:0:0:0:
70,41,148367,1,2,3:0:0:0:
71,228,148517,1,2,3:0:0:0:
263,240,148667,1,10,0:0:0:0:
87,331,148817,6,0,B|36:344|-10:315|-10:315|2:253|64:232,1,207.999990478516,6|0,3:2|3:0,0:0:0:0:
219,347,149267,2,0,P|277:357|331:333,1,103.999995239258,10|0,0:0|0:0,0:0:0:0:
349,316,149492,1,0,0:0:0:0:
349,316,149567,1,2,3:0:0:0:
264,268,149717,1,2,3:0:0:0:
492,265,149867,1,8,0:0:0:0:
390,207,150017,6,0,B|351:92|448:121|392:-10,1,207.999990478516,2|0,0:0|3:0,0:0:0:0:
478,160,150467,1,12,0:0:0:0:
313,56,150617,1,0,3:0:0:0:
304,69,150692,1,0,3:0:0:0:
298,83,150767,5,12,0:0:0:0:
283,202,150917,1,0,3:0:0:0:
191,15,151067,5,12,0:0:0:0:
263,244,151217,1,0,3:0:0:0:
271,230,151292,1,0,3:0:0:0:
277,216,151367,6,0,P|248:165|193:134,1,103.999995239258,12|0,0:0|0:0,0:0:0:0:
48,314,151667,2,0,P|77:263|132:232,1,103.999995239258,8|0,0:0|0:0,0:0:0:0:
286,186,151967,5,8,0:0:0:0:
142,324,152117,1,0,3:0:0:0:
162,91,152267,5,8,0:0:0:0:
253,379,152417,1,0,3:0:0:0:
268,379,152492,1,0,3:0:0:0:
283,379,152567,6,0,B|328:368|328:368|375:333,1,103.999995239258,8|0,0:0|0:0,0:0:0:0:
483,164,152867,2,0,B|438:175|438:175|391:210,1,103.999995239258,8|0,0:0|0:0,0:0:0:0:
314,380,153167,5,8,0:0:0:0:
482,297,153317,1,0,3:0:0:0:
264,80,153467,5,8,0:0:0:0:
372,299,153617,1,0,3:0:0:0:
385,291,153692,1,0,3:0:0:0:
399,284,153767,5,8,0:0:0:0:
504,148,153917,1,0,3:0:0:0:
490,155,153992,1,0,3:0:0:0:
477,163,154067,2,0,L|429:190,1,51.999997619629,0|0,3:0|3:0,0:0:0:0:
494,31,154217,5,8,0:0:0:0:
214,145,154367,1,0,3:0:0:0:
228,152,154442,1,0,3:0:0:0:
241,160,154517,2,0,L|289:187,1,51.999997619629,0|0,3:0|3:0,0:0:0:0:
224,28,154667,5,8,0:0:0:0:
364,149,154817,1,0,3:0:0:0:
364,125,154892,1,0,3:0:0:0:
364,101,154967,5,12,0:0:0:0:
14,270,155417,2,0,B|72:250|63:301|129:274,1,120,0|0,3:0|3:0,0:0:0:0:
372,274,156186,6,0,P|318:265|268:288,1,111.999996582031,4|0,0:0|0:0,0:0:0:0:
453,262,156636,2,0,P|426:215|376:191,1,111.999996582031,0|0,3:0|0:0,0:0:0:0:
283,189,157086,1,0,3:0:0:0:
479,54,157386,6,0,B|430:40|374:61|409:71|358:97|319:84,2,167.999994873047,4|0|0,0:0|3:0|3:0,0:0:0:0:
331,9,158586,2,0,P|256:34|246:113,1,167.999994873047
282,218,159486,1,0,3:0:0:0:
272,231,159636,1,0,3:0:0:0:
261,243,159786,2,0,P|196:193|166:273,1,167.999994873047,4|0,0:0|0:0,0:0:0:0:
53,242,160386,2,0,P|108:191|157:248,1,167.999994873047
43,352,160986,6,0,P|93:330|149:332,1,111.999996582031,4|0,0:0|0:0,0:0:0:0:
229,353,161436,2,0,P|279:330|335:332,1,111.999996582031,0|0,3:0|0:0,0:0:0:0:
422,378,161886,1,0,3:0:0:0:
492,196,162186,6,0,B|480:236|440:264|440:264|408:232|404:188,2,167.999994873047,4|0|0,0:0|3:0|3:0,0:0:0:0:
432,100,163386,2,0,B|383:86|327:107|362:117|311:143|272:130,1,167.999994873047,0|0,3:0|3:0,0:0:0:0:
185,10,164286,1,0,3:0:0:0:
176,24,164436,1,0,3:0:0:0:
168,37,164586,2,0,B|174:78|133:112|133:112|163:148|154:187,1,167.999994873047,4|0,0:0|3:0,0:0:0:0:
122,304,165486,1,0,3:0:0:0:
0,318,165786,6,0,P|45:295|106:295,1,111.999996582031,4|0,0:0|0:0,0:0:0:0:
71,211,166236,2,0,P|121:213|174:244,1,111.999996582031,0|0,3:0|0:0,0:0:0:0:
213,322,166686,1,0,3:0:0:0:
155,126,166986,6,0,P|225:170|271:239,2,167.999994873047,4|0|0,0:0|3:0|3:0,0:0:0:0:
21,178,168186,2,0,B|30:139|0:103|0:103|41:69|35:28,1,167.999994873047
151,32,169086,1,0,3:0:0:0:
165,40,169236,1,0,3:0:0:0:
179,48,169386,6,0,L|298:37,1,111.999996582031,4|0,0:0|0:0,0:0:0:0:
246,125,169836,2,0,L|365:114,1,111.999996582031
447,105,170286,1,0,0:0:0:0:
363,319,170586,5,4,3:2:0:0:
332,333,170886,1,0,3:0:0:0:
301,347,171186,1,0,3:0:0:0:
270,361,171486,1,0,3:0:0:0:
145,238,171786,5,0,3:0:0:0:
176,252,172086,1,0,3:0:0:0:
207,266,172386,1,0,3:0:0:0:
238,280,172686,1,0,3:0:0:0:
369,144,172986,5,4,3:2:0:0:
338,158,173286,1,0,3:0:0:0:
143,144,173586,5,4,3:2:0:0:
174,158,173886,1,0,3:0:0:0:
335,69,174186,5,4,3:2:0:0:
171,69,174486,1,4,3:2:0:0:
366,55,174786,5,4,3:2:0:0:
140,55,175086,1,4,3:2:0:0:
256,192,175386,5,4,3:2:0:0:
434,178,176286,5,0,3:0:0:0:
489,21,176586,6,0,P|446:24|404:38,1,88.000002685547,4|0,3:2|0:0,0:0:0:0:
277,139,176886,2,0,P|320:136|362:122,1,88.000002685547,8|0,0:0|0:0,0:0:0:0:
280,42,177186,1,2,3:2:0:0:
387,32,177336,1,0,3:0:0:0:
189,1,177486,2,0,P|180:43|191:88,1,88.000002685547,8|0,0:0|0:0,0:0:0:0:
238,233,177786,5,2,3:2:0:0:
277,139,177936,1,0,3:0:0:0:
321,297,178086,1,8,0:0:0:0:
225,238,178236,1,0,0:0:0:0:
212,243,178311,1,0,0:0:0:0:
199,248,178386,1,2,3:2:0:0:
116,165,178536,1,0,3:0:0:0:
93,314,178686,1,8,0:0:0:0:
39,124,178836,6,0,B|89:109|147:131|111:141|164:168|204:155,1,176.000005371094,4|0,3:2|3:0,0:0:0:0:
106,39,179286,2,0,P|148:49|184:75,1,88.000002685547,8|0,0:0|0:0,0:0:0:0:
285,195,179586,1,2,3:2:0:0:
285,90,179736,1,0,3:0:0:0:
206,241,179886,2,0,P|231:272|276:287,1,88.000002685547,8|0,0:0|0:0,0:0:0:0:
426,253,180186,5,2,3:2:0:0:
361,355,180336,1,0,3:0:0:0:
435,235,180486,2,0,P|436:189|421:131,1,88.000002685547,8|0,0:0|0:0,0:0:0:0:
371,15,180786,1,2,3:2:0:0:
326,131,180936,1,0,3:0:0:0:
477,33,181086,1,8,0:0:0:0:
289,60,181236,6,0,B|238:46|180:67|216:78|164:105|123:91,1,176.000005371094,6|0,3:2|3:0,0:0:0:0:
211,161,181686,2,0,P|169:177|122:174,1,88.000002685547,8|0,0:0|0:0,0:0:0:0:
25,114,181986,1,0,3:0:0:0:
122,91,182136,1,0,3:0:0:0:
17,5,182286,2,0,P|10:46|19:96,1,88.000002685547,8|0,0:0|0:0,0:0:0:0:
46,247,182586,5,0,3:0:0:0:
126,175,182736,1,0,3:0:0:0:
212,277,182886,2,0,P|256:289|324:273,1,88.000002685547,8|0,0:0|0:0,0:0:0:0:
392,219,183186,1,0,3:0:0:0:
289,170,183336,1,0,3:0:0:0:
400,331,183486,1,8,0:0:0:0:
512,56,183786,6,0,B|461:42|403:63|439:74|387:101|346:87,1,176.000005371094,2|8,3:2|0:0,0:0:0:0:
217,17,184236,2,0,P|228:93|151:93,1,176.000005371094,2|0,0:0|3:0,0:0:0:0:
286,153,184686,2,0,P|247:182|201:190,1,88.000002685547,10|0,0:0|0:0,0:0:0:0:
52,176,184986,5,10,0:0:0:0:
42,164,185286,5,8,0:0:0:0:
137,329,185436,1,2,3:2:0:0:
140,121,185586,5,8,0:0:0:0:
45,286,185736,1,0,3:0:0:0:
259,233,185886,5,10,0:0:0:0:
143,133,186036,1,0,3:0:0:0:
146,145,186111,1,0,3:0:0:0:
149,157,186186,6,0,P|188:138|231:131,1,88.000002685547,6|0,0:0|0:0,0:0:0:0:
322,36,186486,2,0,P|361:53|394:82,1,88.000002685547,8|0,0:0|0:0,0:0:0:0:
468,219,186786,1,2,3:2:0:0:
491,109,186936,1,0,3:0:0:0:
460,246,187086,2,0,L|468:344,1,88.000002685547,8|0,0:0|0:0,0:0:0:0:
353,212,187386,5,2,3:2:0:0:
319,339,187536,1,0,3:0:0:0:
219,197,187686,1,8,0:0:0:0:
215,303,187836,1,0,0:0:0:0:
226,296,187911,1,0,0:0:0:0:
237,289,187986,1,2,3:2:0:0:
219,197,188136,1,0,3:0:0:0:
126,331,188286,1,8,0:0:0:0:
144,151,188436,6,0,B|195:137|253:158|217:169|269:196|310:182,1,176.000005371094,4|0,0:0|3:0,0:0:0:0:
211,70,188886,2,0,P|251:78|291:109,1,88.000002685547,8|0,0:0|0:0,0:0:0:0:
391,234,189186,1,2,3:2:0:0:
428,114,189336,1,0,3:0:0:0:
484,288,189486,1,8,0:0:0:0:
489,300,189786,5,10,0:0:0:0:
427,134,189936,1,0,3:0:0:0:
323,312,190086,5,8,0:0:0:0:
482,212,190236,1,0,3:0:0:0:
298,131,190386,5,10,0:0:0:0:
457,231,190536,1,0,3:0:0:0:
268,227,190686,5,8,0:0:0:0:
368,78,190836,1,0,3:0:0:0:
368,78,190911,1,0,3:0:0:0:
368,78,190986,5,6,0:0:0:0:
256,192,191061,12,0,194436,0:0:0:0:
31,172,194586,5,0,0:0:0:0:
31,172,194886,5,0,0:0:0:0:
31,172,195186,5,0,0:0:0:0:
111,209,195336,1,0,0:0:0:0:
31,246,195486,1,8,0:0:0:0:
139,209,195636,1,0,0:0:0:0:
139,209,195711,1,0,0:0:0:0:
139,209,195786,2,0,P|181:210|212:226,1,68.0000012969971,8|0,0:0|0:0,0:0:0:0:
357,209,196086,2,0,P|315:210|284:226,1,68.0000012969971,8|0,0:0|0:0,0:0:0:0:
249,301,196386,5,8,0:0:0:0:
247,154,196536,2,0,B|260:113|234:127|247:76,1,68.0000012969971,0|8,0:0|0:0,0:0:0:0:
339,34,196836,2,0,P|375:42|402:66,1,68.0000012969971,0|8,0:0|0:0,0:0:0:0:
468,135,197136,2,0,P|487:166|489:202,1,68.0000012969971,0|8,0:0|0:0,0:0:0:0:
473,290,197436,2,0,P|465:326|441:353,1,68.0000012969971,0|8,0:0|0:0,0:0:0:0:
354,379,197736,1,0,0:0:0:0:
399,291,197886,5,8,0:0:0:0:
268,301,198036,1,0,0:0:0:0:
268,301,198111,1,0,0:0:0:0:
268,301,198186,6,0,P|276:265|300:238,1,68.0000012969971,8|0,0:0|0:0,0:0:0:0:
368,196,198486,1,8,0:0:0:0:
293,151,198636,2,0,P|259:158|233:178,1,68.0000012969971,0|8,0:0|0:0,0:0:0:0:
167,70,198936,2,0,P|148:99|144:132,1,68.0000012969971,0|8,0:0|0:0,0:0:0:0:
16,99,199236,1,0,0:0:0:0:
16,99,199386,2,0,P|22:133|43:159,1,68.0000012969971,8|0,0:0|0:0,0:0:0:0:
15,291,199686,1,8,0:0:0:0:
15,291,199986,5,8,0:0:0:0:
49,378,200136,1,0,0:0:0:0:
143,286,200286,1,8,0:0:0:0:
178,373,200436,1,0,0:0:0:0:
178,373,200511,1,0,0:0:0:0:
178,373,200586,2,0,P|211:383|257:372,2,68.0000012969971,8|0|8,0:0|0:0|0:0,0:0:0:0:
170,277,201036,5,0,0:0:0:0:
263,294,201186,1,8,0:0:0:0:
384,249,201336,2,0,B|372:210|392:230|384:179,1,68.0000012969971,0|8,0:0|0:0,0:0:0:0:
342,96,201636,6,0,P|306:109|288:136,1,68.0000012969971,0|8,0:0|0:0,0:0:0:0:
434,68,201936,2,0,P|470:81|488:108,1,68.0000012969971,0|8,0:0|0:0,0:0:0:0:
300,14,202236,2,0,P|264:27|246:54,1,68.0000012969971,0|8,0:0|0:0,0:0:0:0:
207,137,202536,1,0,0:0:0:0:
153,58,202686,1,8,0:0:0:0:
111,144,202836,1,0,0:0:0:0:
111,144,202911,1,0,0:0:0:0:
111,144,202986,6,0,P|94:189|97:219,1,68.0000012969971,8|0,0:0|0:0,0:0:0:0:
118,297,203286,1,8,0:0:0:0:
214,273,203436,2,0,P|247:266|288:273,1,68.0000012969971,0|8,0:0|0:0,0:0:0:0:
325,355,203736,2,0,P|358:361|399:355,1,68.0000012969971,0|8,0:0|0:0,0:0:0:0:
419,204,204036,1,0,0:0:0:0:
419,204,204186,2,0,P|386:197|345:204,1,68.0000012969971,8|0,0:0|0:0,0:0:0:0:
511,262,204486,1,8,0:0:0:0:
511,262,204786,5,8,0:0:0:0:
444,193,204936,1,0,0:0:0:0:
511,48,205086,1,8,0:0:0:0:
444,117,205236,1,0,3:0:0:0:
444,117,205311,1,0,3:0:0:0:
444,117,205386,2,0,P|403:124|365:119,2,68.0000012969971,8|0|8,0:0|0:0|0:0,0:0:0:0:
497,26,205836,5,0,0:0:0:0:
353,48,205986,2,0,P|312:41|274:46,1,68.0000012969971,8|0,0:0|3:0,0:0:0:0:
193,66,206286,1,8,0:0:0:0:
203,196,206436,2,0,P|239:127|209:79,1,136.000002593994,0|0,3:0|0:0,0:0:0:0:
125,34,206886,1,8,0:0:0:0:
41,80,207036,2,0,P|28:115|41:161,1,68.0000012969971,0|8,0:0|0:0,0:0:0:0:
97,203,207336,2,0,P|109:238|97:284,1,68.0000012969971,0|8,3:0|0:0,0:0:0:0:
41,354,207636,5,0,3:0:0:0:
41,354,207711,1,0,3:0:0:0:
41,354,207786,2,0,B|111:330|95:388|183:354,1,136.000002593994,8|0,0:0|0:0,0:0:0:0:
278,327,208236,1,0,3:0:0:0:
278,327,208311,1,0,3:0:0:0:
278,327,208386,1,8,0:0:0:0:
355,271,208536,2,0,P|389:263|437:278,1,68.0000012969971,0|0,3:0|0:0,0:0:0:0:
464,174,208836,2,0,P|400:151|334:164,1,136.000002593994,8|0,0:0|0:0,0:0:0:0:
256,192,211386,12,0,213486,0:0:0:0:
244,20,213786,6,0,B|281:14|281:14|304:29|304:29|345:20,1,100,8|0,0:0|0:0,0:0:0:0:
375,17,214236,5,0,3:0:0:0:
375,17,214311,1,0,3:0:0:0:
375,17,214386,1,8,0:0:0:0:
448,103,214536,2,0,L|349:132,1,102.000001945496,0|0,3:0|0:0,0:0:0:0:
373,237,214836,6,0,B|442:217|442:217|506:273|463:359,1,207.999990478516,6|0,3:2|3:0,0:0:0:0:
276,325,215286,1,8,0:0:0:0:
242,198,215436,1,0,0:0:0:0:
226,200,215511,1,0,0:0:0:0:
211,203,215586,2,0,L|107:225,1,103.999995239258,0|0,3:0|3:0,0:0:0:0:
0,76,215886,5,10,0:0:0:0:
152,106,216036,2,0,L|253:83,1,103.999995239258,2|0,0:0|3:0,0:0:0:0:
156,16,216336,1,0,3:0:0:0:
14,105,216486,1,10,0:0:0:0:
107,194,216636,2,0,P|120:243|107:305,1,103.999995239258,2|0,0:0|3:0,0:0:0:0:
226,366,216936,2,0,P|275:379|326:370,1,103.999995239258,2|8,0:0|0:0,0:0:0:0:
484,301,217236,6,0,B|461:261|429:249|429:249|378:304|269:263,1,207.999990478516,6|0,3:2|3:0,0:0:0:0:
183,186,217686,1,10,0:0:0:0:
338,78,217836,2,0,P|361:127|351:183,1,103.999995239258,2|0,0:0|3:0,0:0:0:0:
212,58,218136,1,2,3:0:0:0:
285,268,218286,1,8,0:0:0:0:
104,92,218436,1,2,0:0:0:0:
88,95,218511,1,0,0:0:0:0:
72,100,218586,2,0,P|46:134|41:198,1,103.999995239258,0|0,3:0|3:0,0:0:0:0:
167,317,218886,1,8,0:0:0:0:
311,164,219036,5,2,0:0:0:0:
317,178,219111,1,0,0:0:0:0:
320,192,219186,1,2,3:2:0:0:
119,232,219336,1,2,3:2:0:0:
306,92,219486,1,8,0:0:0:0:
33,307,219636,6,0,P|3:201|67:117,1,207.999990478516,2|0,3:2|3:0,0:0:0:0:
276,70,220086,1,8,0:0:0:0:
243,232,220236,1,0,0:0:0:0:
231,242,220311,1,0,0:0:0:0:
221,254,220386,2,0,P|190:301|200:353,1,103.999995239258,0|0,3:0|3:0,0:0:0:0:
351,229,220686,5,10,0:0:0:0:
479,267,220836,2,0,P|500:313|486:362,1,103.999995239258,2|0,0:0|3:0,0:0:0:0:
348,254,221136,1,2,3:0:0:0:
424,133,221286,2,0,B|374:117|381:154|315:132,1,103.999995239258,8|2,0:0|0:0,0:0:0:0:
291,130,221511,1,0,0:0:0:0:
291,130,221586,1,0,3:0:0:0:
349,42,221736,1,2,0:0:0:0:
183,104,221886,1,8,0:0:0:0:
17,42,222036,6,0,B|-29:128|77:132|13:238,1,207.999990478516,6|0,3:2|3:0,0:0:0:0:
0,350,222486,1,10,0:0:0:0:
103,238,222636,2,0,P|154:243|194:276,1,103.999995239258,2|0,0:0|3:0,0:0:0:0:
253,358,222936,1,0,3:0:0:0:
122,318,223086,5,10,0:0:0:0:
312,275,223236,2,0,P|351:242|402:237,1,103.999995239258,2|0,0:0|3:0,0:0:0:0:
504,263,223536,1,0,3:0:0:0:
384,318,223686,1,8,0:0:0:0:
491,156,223836,5,2,0:0:0:0:
490,171,223911,1,0,0:0:0:0:
488,187,223986,1,2,3:2:0:0:
421,77,224136,1,2,3:2:0:0:
384,318,224286,1,8,0:0:0:0:
236,104,224436,6,0,B|222:50|167:31|132:55|132:55|125:98|161:119,1,207.999990478516,2|0,3:2|3:0,0:0:0:0:
321,236,224886,1,8,0:0:0:0:
160,205,225036,1,0,0:0:0:0:
143,204,225111,1,0,0:0:0:0:
128,205,225186,2,0,P|108:259|122:310,1,103.999995239258,0|0,3:0|3:0,0:0:0:0:
202,383,225486,1,10,0:0:0:0:
416,328,225636,6,0,B|341:300|359:365|247:329,1,155.999992858887,6|0,3:2|0:0,0:0:0:0:
477,274,225936,2,0,P|494:310|478:381,1,103.999995239258,2|8,3:0|0:0,0:0:0:0:
314,259,226236,1,0,0:0:0:0:
322,247,226311,1,0,0:0:0:0:
335,237,226386,1,0,3:0:0:0:
452,180,226536,1,2,3:0:0:0:
274,145,226686,1,8,0:0:0:0:
431,27,226836,6,0,B|401:4|373:4|373:4|329:51|206:29,1,207.999990478516,6|0,3:2|3:0,0:0:0:0:
103,166,227286,2,0,P|88:118|104:64,1,103.999995239258,10|0,0:0|0:0,0:0:0:0:
236,33,227586,1,2,3:0:0:0:
169,114,227736,1,0,3:0:0:0:
346,123,227886,2,0,P|361:171|345:225,1,103.999995239258,10|2,0:0|0:0,0:0:0:0:
282,314,228186,5,0,3:0:0:0:
188,272,228336,1,0,3:0:0:0:
409,283,228486,1,8,0:0:0:0:
266,384,228636,1,0,3:0:0:0:
251,379,228711,1,0,3:0:0:0:
237,371,228786,5,10,0:0:0:0:
298,289,228936,1,2,3:2:0:0:
125,373,229086,1,8,0:0:0:0:
170,208,229236,1,2,0:0:0:0:
163,222,229311,1,0,0:0:0:0:
156,236,229386,5,2,0:0:0:0:
202,213,229461,1,2,0:0:0:0:
237,175,229536,1,2,3:0:0:0:
255,126,229611,1,2,0:0:0:0:
250,75,229686,1,8,0:0:0:0:
221,33,229761,1,0,0:0:0:0:
173,15,229836,1,0,0:0:0:0:
124,29,229911,1,0,0:0:0:0:
95,71,229986,5,2,3:0:0:0:
93,121,230061,1,2,0:0:0:0:
122,163,230136,1,2,3:0:0:0:
171,178,230211,1,2,0:0:0:0:
219,162,230286,1,8,0:0:0:0:
255,126,230361,1,0,0:0:0:0:
308,111,230436,1,0,0:0:0:0:
360,109,230511,1,0,0:0:0:0:
411,119,230586,5,2,3:0:0:0:
459,137,230661,1,2,0:0:0:0:
488,180,230736,1,2,3:0:0:0:
487,231,230811,1,2,0:0:0:0:
458,273,230886,1,8,0:0:0:0:
410,290,230961,1,0,0:0:0:0:
360,278,231036,1,0,0:0:0:0:
327,239,231111,1,0,0:0:0:0:
321,188,231186,5,2,3:0:0:0:
371,201,231261,1,2,0:0:0:0:
405,239,231336,1,2,3:0:0:0:
410,290,231411,1,2,0:0:0:0:
392,336,231486,1,8,0:0:0:0:
273,313,231636,5,0,3:0:0:0:
275,328,231711,1,0,3:0:0:0:
279,343,231786,1,8,0:0:0:0:
192,255,231936,5,0,3:0:0:0:
193,240,232011,1,0,3:0:0:0:
197,225,232086,2,0,P|222:222|254:231,1,51.999997619629,0|0,3:0|3:0,0:0:0:0:
410,290,232236,1,8,0:0:0:0:
370,180,232386,5,0,3:0:0:0:
369,164,232461,1,0,3:0:0:0:
365,149,232536,2,0,P|340:146|309:155,1,51.999997619629,0|0,3:0|3:0,0:0:0:0:
197,225,232686,1,8,0:0:0:0:
171,121,232836,5,0,3:0:0:0:
186,125,232911,1,0,3:0:0:0:
199,134,232986,2,0,P|224:172|128:208,1,180.000006866455,8|0,0:0|3:0,0:0:0:0:
115,193,233511,1,0,3:0:0:0:
115,193,233586,1,8,0:0:0:0:
46,93,233736,2,0,B|14:68|14:68|-4:111|14:157,1,120,0|0,3:0|0:0,0:0:0:0:
41,222,234036,6,0,P|4:290|103:315,1,207.999990478516,6|0,0:0|3:0,0:0:0:0:
241,292,234486,2,0,B|295:273|287:323|355:293,1,103.999995239258,8|0,0:0|0:0,0:0:0:0:
444,271,234786,5,2,3:2:0:0:
479,165,234936,1,0,3:0:0:0:
412,24,235086,2,0,P|365:54|355:104,1,103.999995239258,8|0,0:0|0:0,0:0:0:0:
309,180,235386,5,2,3:2:0:0:
264,87,235536,1,0,3:0:0:0:
110,32,235686,2,0,P|85:82|101:130,1,103.999995239258,8|0,0:0|0:0,0:0:0:0:
195,291,235986,6,0,P|220:241|204:193,1,103.999995239258,2|0,3:2|0:0,0:0:0:0:
34,185,236286,1,8,0:0:0:0:
92,356,236436,6,0,B|132:371|160:356|160:356|193:379|193:379|224:359|224:359|256:375|306:358,1,207.999990478516,4|0,3:2|3:0,0:0:0:0:
431,236,236886,2,0,P|375:242|335:279,1,103.999995239258,8|0,0:0|0:0,0:0:0:0:
508,378,237186,5,2,3:2:0:0:
409,316,237336,1,0,3:0:0:0:
469,173,237486,2,0,P|503:227|495:271,1,103.999995239258,8|0,0:0|0:0,0:0:0:0:
352,200,237786,5,2,3:2:0:0:
300,122,237936,1,0,3:0:0:0:
421,1,238086,2,0,P|473:7|515:38,1,103.999995239258,8|0,0:0|0:0,0:0:0:0:
395,130,238386,5,2,3:2:0:0:
300,122,238536,1,0,3:0:0:0:
210,42,238686,1,8,0:0:0:0:
353,54,238836,6,0,L|337:272,1,207.999990478516,6|0,3:2|3:0,0:0:0:0:
228,384,239286,2,0,L|237:272,1,103.999995239258,8|0,0:0|0:0,0:0:0:0:
124,190,239586,5,2,3:2:0:0:
45,121,239736,1,0,3:0:0:0:
32,293,239886,2,0,P|64:338|120:351,1,103.999995239258,8|0,0:0|0:0,0:0:0:0:
234,314,240186,5,2,3:2:0:0:
324,261,240336,1,0,3:0:0:0:
476,293,240486,2,0,P|444:338|388:351,1,103.999995239258,8|0,0:0|0:0,0:0:0:0:
417,120,240786,6,0,P|462:152|475:208,1,103.999995239258,2|0,3:2|0:0,0:0:0:0:
271,171,241086,1,8,0:0:0:0:
170,51,241236,6,0,P|106:21|72:135,1,207.999990478516,4|0,3:2|3:0,0:0:0:0:
150,186,241686,2,0,P|178:235|167:289,1,103.999995239258,8|0,0:0|0:0,0:0:0:0:
68,352,241986,5,2,3:2:0:0:
96,247,242136,1,0,3:0:0:0:
218,366,242286,2,0,B|270:348|259:391|324:366,1,103.999995239258,8|0,0:0|0:0,0:0:0:0:
417,332,242586,5,2,3:2:0:0:
292,292,242736,1,0,3:0:0:0:
392,123,242886,1,8,0:0:0:0:
203,194,243036,5,2,0:0:0:0:
192,182,243111,1,0,0:0:0:0:
184,169,243186,1,2,3:2:0:0:
340,209,243336,1,2,3:2:0:0:
176,69,243486,1,8,0:0:0:0:
369,20,243636,6,0,B|421:-8|462:26|462:26|463:88|396:105,1,207.999990478516,6|0,3:2|3:0,0:0:0:0:
241,122,244086,2,0,P|199:96|130:117,1,103.999995239258,8|0,0:0|0:0,0:0:0:0:
21,211,244386,5,0,3:0:0:0:
184,169,244536,1,0,3:0:0:0:
138,380,244686,1,10,0:0:0:0:
314,255,244836,2,0,B|293:218|248:215|248:215|214:257|163:254|131:228,1,207.999990478516,6|2,3:2|3:0,0:0:0:0:
353,384,245286,5,8,0:0:0:0:
390,217,245436,1,2,0:0:0:0:
379,206,245511,1,0,0:0:0:0:
368,195,245586,1,0,3:0:0:0:
259,299,245736,5,2,3:0:0:0:
505,282,245886,1,8,0:0:0:0:
357,183,246036,2,0,B|326:171|303:149|303:149|325:66|446:103,1,207.999990478516,6|0,3:2|3:0,0:0:0:0:
512,256,246486,2,0,P|484:308|428:328,1,103.999995239258,10|0,0:0|0:0,0:0:0:0:
303,336,246786,5,2,3:0:0:0:
426,250,246936,1,0,3:0:0:0:
244,213,247086,2,0,P|216:172|232:105,1,103.999995239258,10|2,0:0|0:0,0:0:0:0:
315,0,247386,5,0,3:0:0:0:
295,153,247536,1,0,3:0:0:0:
426,0,247686,5,8,0:0:0:0:
154,55,247836,1,0,0:0:0:0:
150,39,247911,1,0,0:0:0:0:
151,23,247986,5,10,0:0:0:0:
244,213,248136,1,2,3:2:0:0:
315,0,248286,1,8,0:0:0:0:
488,203,248436,2,0,P|491:124|397:159,1,207.999990478516,2|0,0:0|3:0,0:0:0:0:
208,355,248886,5,8,0:0:0:0:
398,237,249036,1,0,3:0:0:0:
216,108,249186,5,8,0:0:0:0:
349,315,249336,1,0,3:0:0:0:
387,37,249486,5,8,0:0:0:0:
221,186,249636,1,0,3:0:0:0:
205,187,249711,1,0,3:0:0:0:
189,187,249786,5,8,0:0:0:0:
398,237,249936,1,0,3:0:0:0:
271,24,250086,5,8,0:0:0:0:
224,269,250236,1,0,3:0:0:0:
187,0,250386,5,8,0:0:0:0:
302,223,250536,1,0,3:0:0:0:
105,31,250686,5,8,0:0:0:0:
324,110,250836,1,0,3:0:0:0:
337,111,250911,1,0,3:0:0:0:
352,111,250994,6,0,B|403:91|448:116|410:138|469:166|531:150|534:78|490:48|450:64,1,240,6|0,3:2|0:0,0:0:0:0:
198,199,251917,5,2,0:0:0:0:
55,155,252243,5,6,3:2:0:0:
20,282,252895,5,6,3:2:0:0:
181,333,253583,6,0,P|291:341|261:212,1,280,4|0,3:2|0:0,0:0:0:0:
240,285,254916,2,0,B|368:342|357:201|523:281,1,280,4|0,3:2|0:0,0:0:0:0:
436,374,256249,2,0,B|394:287|437:203|437:203|492:224|511:286,1,280,2|0,3:2|0:0,0:0:0:0:
482,134,257583,6,0,P|426:122|372:152,1,120,4|0,3:2|0:0,0:0:0:0:
198,77,258249,2,0,P|254:65|308:95,1,120,4|0,3:2|0:0,0:0:0:0:
242,147,258916,6,0,P|168:155|175:-2,1,280,4|0,3:2|0:0,0:0:0:0:
198,77,260249,2,0,B|148:76|126:121|126:121|99:75|34:78|34:78|8:128|42:169,1,280,4|0,0:0|0:0,0:0:0:0:
112,231,261583,2,0,B|167:263|222:243|184:212|255:192|321:221|311:304|256:328|213:303,1,280,4|0,3:2|0:0,0:0:0:0:
302,369,262916,2,0,P|340:333|357:265,1,120,2|0,0:0|0:0,0:0:0:0:
341,189,263583,5,8,0:0:0:0:
425,47,263916,6,0,L|453:19,2,26.6666666666667,8|0|0,0:0|3:0|3:0,0:0:0:0:
369,103,264249,5,8,0:0:0:0:
87,140,264583,2,0,L|59:112,2,26.6666666666667,0|0|0,3:0|3:0|3:0,0:0:0:0:
143,196,264916,5,8,0:0:0:0:
425,266,265249,2,0,L|453:238,2,26.6666666666667,0|0|0,3:0|3:0|3:0,0:0:0:0:
369,322,265583,5,4,3:2:0:0:
71,342,265916,5,8,0:0:0:0:
35,280,266027,1,0,3:0:0:0:
96,246,266138,1,0,3:0:0:0:
131,306,266249,5,8,0:0:0:0:
71,310,266360,1,0,3:0:0:0:
30,267,266471,1,0,3:0:0:0:
36,208,266583,5,0,3:0:0:0:
86,175,266694,1,0,3:0:0:0:
143,191,266805,1,0,3:0:0:0:
167,246,266916,5,8,0:0:0:0:
88,36,267249,1,0,3:0:0:0:
69,103,267360,1,0,3:0:0:0:
136,122,267471,1,0,3:0:0:0:
155,55,267583,5,8,0:0:0:0:
257,227,267916,1,0,3:0:0:0:
276,294,268027,1,0,3:0:0:0:
209,313,268138,1,0,3:0:0:0:
190,246,268249,5,4,3:2:0:0:
448,101,268583,5,8,0:0:0:0:
389,66,268694,1,0,3:0:0:0:
389,135,268805,1,0,3:0:0:0:
448,169,268916,5,8,0:0:0:0:
509,137,269027,1,0,3:0:0:0:
510,67,269138,1,0,3:0:0:0:
450,30,269249,5,0,3:0:0:0:
389,66,269360,1,0,3:0:0:0:
389,135,269471,1,0,3:0:0:0:
448,101,269583,5,8,0:0:0:0:
370,363,270583,1,0,3:0:0:0:
430,328,270694,1,0,3:0:0:0:
370,293,270805,1,0,3:0:0:0:
310,328,270916,5,4,0:0:0:0:
256,192,272249,1,4,0:0:0:0:
256,192,273416,5,0,3:0:0:0:
244,187,273491,1,0,3:0:0:0:
233,183,273566,1,8,0:0:0:0:
215,283,273716,1,0,3:0:0:0:
36,106,274016,5,0,3:0:0:0:
47,101,274091,1,0,3:0:0:0:
58,97,274166,1,8,0:0:0:0:
77,197,274316,1,0,3:0:0:0:
241,21,274766,5,6,3:2:0:0:
291,34,274841,1,0,0:0:0:0:
334,62,274916,1,0,0:0:0:0:
356,108,274991,1,0,0:0:0:0:
355,159,275066,2,0,P|335:179|300:188,1,51.999997619629,8|0,0:0|0:0,0:0:0:0:
194,142,275216,5,0,3:0:0:0:
181,192,275291,1,0,0:0:0:0:
192,242,275366,1,0,0:0:0:0:
224,282,275441,1,0,0:0:0:0:
273,298,275516,2,0,P|301:297|337:281,1,51.999997619629,8|0,0:0|0:0,0:0:0:0:
434,180,275666,5,0,3:0:0:0:
417,167,275741,1,0,0:0:0:0:
397,160,275816,1,0,0:0:0:0:
376,157,275891,1,0,0:0:0:0:
355,159,275966,5,6,3:2:0:0:
311,129,276041,1,0,0:0:0:0:
301,77,276116,1,0,0:0:0:0:
333,36,276191,1,0,0:0:0:0:
384,31,276266,2,0,P|411:43|431:71,1,51.999997619629,8|0,0:0|0:0,0:0:0:0:
274,34,276416,5,0,3:0:0:0:
228,8,276491,1,0,0:0:0:0:
176,6,276566,1,0,0:0:0:0:
132,34,276641,1,0,0:0:0:0:
114,82,276716,2,0,P|123:107|141:125,1,51.999997619629,8|0,0:0|0:0,0:0:0:0:
266,177,276866,5,0,3:0:0:0:
276,195,276941,1,0,0:0:0:0:
279,215,277016,1,0,0:0:0:0:
277,235,277091,1,0,0:0:0:0:
269,254,277166,5,6,3:2:0:0:
300,295,277241,1,0,0:0:0:0:
289,345,277316,1,0,0:0:0:0:
240,362,277391,1,0,0:0:0:0:
196,332,277466,2,0,P|183:309|178:279,1,51.999997619629,8|0,0:0|0:0,0:0:0:0:
186,147,277616,5,0,3:0:0:0:
146,180,277691,1,0,0:0:0:0:
94,185,277766,1,0,0:0:0:0:
49,157,277841,1,0,0:0:0:0:
33,107,277916,2,0,P|66:75|92:71,1,51.999997619629,8|0,0:0|0:0,0:0:0:0:
220,37,278066,5,0,3:0:0:0:
226,217,278216,1,0,0:0:0:0:
239,209,278291,1,0,0:0:0:0:
252,201,278366,6,0,L|358:210,1,103.999995239258,2|0,3:2|0:0,0:0:0:0:
506,160,278666,1,12,0:0:0:0:
461,277,278816,1,0,3:0:0:0:
398,102,278966,1,4,3:2:0:0:
366,313,279116,1,8,0:0:0:0:
481,60,279266,1,12,0:0:0:0:
313,152,279416,1,0,0:0:0:0:
324,162,279491,1,0,0:0:0:0:
335,172,279566,5,6,3:2:0:0:
316,123,279641,1,0,0:0:0:0:
271,96,279716,1,0,0:0:0:0:
219,98,279791,1,0,0:0:0:0:
178,130,279866,2,0,P|168:157|169:190,1,51.999997619629,8|0,0:0|0:0,0:0:0:0:
243,287,280016,5,0,3:0:0:0:
204,321,280091,1,0,0:0:0:0:
153,331,280166,1,0,0:0:0:0:
102,317,280241,1,0,0:0:0:0:
69,276,280316,2,0,P|62:250|61:224,1,51.999997619629,8|0,0:0|0:0,0:0:0:0:
101,93,280466,5,0,3:0:0:0:
87,108,280541,1,0,0:0:0:0:
69,118,280616,1,0,0:0:0:0:
48,123,280691,1,0,0:0:0:0:
27,123,280766,5,6,3:2:0:0:
28,65,280841,1,0,0:0:0:0:
68,24,280916,1,0,0:0:0:0:
125,21,280991,1,0,0:0:0:0:
170,52,281066,2,0,P|181:78|181:103,1,51.999997619629,8|0,0:0|0:0,0:0:0:0:
157,233,281216,5,0,3:0:0:0:
204,200,281291,1,0,0:0:0:0:
260,194,281366,1,0,0:0:0:0:
311,218,281441,1,0,0:0:0:0:
343,263,281516,2,0,P|333:290|298:311,1,51.999997619629,8|0,0:0|0:0,0:0:0:0:
304,163,281666,5,0,3:0:0:0:
328,154,281741,1,0,0:0:0:0:
353,152,281816,1,0,0:0:0:0:
378,157,281891,1,0,0:0:0:0:
399,171,281966,5,6,3:2:0:0:
413,226,282041,1,0,0:0:0:0:
469,237,282116,1,0,0:0:0:0:
507,195,282191,1,0,0:0:0:0:
481,143,282266,2,0,P|460:168|457:192,1,51.999997619629,14|0,0:0|0:0,0:0:0:0:
431,333,282416,1,0,0:0:0:0:
450,338,282491,1,0,0:0:0:0:
469,345,282566,5,6,3:2:0:0:
431,301,282641,1,0,0:0:0:0:
374,289,282716,1,0,0:0:0:0:
318,304,282791,1,0,0:0:0:0:
273,341,282866,5,14,0:0:0:0:
207,180,283016,1,0,3:0:0:0:
160,373,283166,5,12,0:0:0:0:
255,248,283316,1,0,3:0:0:0:
241,255,283391,1,0,3:0:0:0:
227,262,283466,5,8,0:0:0:0:
89,183,283616,1,0,3:0:0:0:
103,190,283691,1,0,3:0:0:0:
117,197,283766,5,14,0:0:0:0:
291,131,283916,6,0,L|349:136,2,60,2|2|2,0:0|0:0|0:0,0:0:0:0:
197,124,284253,5,2,0:0:0:0:
245,39,284366,6,0,P|296:33|359:49,1,103.999995239258,6|0,3:2|0:0,0:0:0:0:
453,141,284666,2,0,P|402:130|350:136,1,103.999995239258,10|0,0:0|0:0,0:0:0:0:
239,212,284966,1,2,3:0:0:0:
385,251,285116,1,2,3:0:0:0:
245,120,285266,1,8,0:0:0:0:
166,384,285416,6,0,B|151:344|166:316|166:316|143:283|143:283|163:252|163:252|147:220|157:192,1,207.999990478516,4|0,3:2|3:0,0:0:0:0:
60,328,285866,2,0,P|55:276|68:217,1,103.999995239258,10|0,0:0|0:0,0:0:0:0:
125,61,286166,1,2,3:0:0:0:
239,212,286316,1,2,3:0:0:0:
31,130,286466,1,8,0:0:0:0:
241,48,286616,6,0,B|300:32|369:57|326:70|388:101|436:85,1,207.999990478516,6|0,3:2|3:0,0:0:0:0:
284,130,287066,2,0,P|325:160|376:172,1,103.999995239258,10|0,0:0|0:0,0:0:0:0:
503,155,287366,1,2,0:0:0:0:
386,278,287516,1,2,0:0:0:0:
437,84,287666,1,8,0:0:0:0:
495,301,287816,6,0,B|436:285|367:310|410:323|348:354|300:338,1,207.999990478516,2|0,0:0|3:0,0:0:0:0:
117,251,288266,1,12,0:0:0:0:
320,164,288416,1,0,3:0:0:0:
311,177,288491,1,0,3:0:0:0:
302,190,288566,5,12,0:0:0:0:
235,92,288716,1,0,3:0:0:0:
199,307,288866,5,12,0:0:0:0:
113,113,289016,1,0,3:0:0:0:
122,126,289091,1,0,3:0:0:0:
131,139,289166,6,0,L|121:247,1,103.999995239258,6|0,3:2|0:0,0:0:0:0:
18,100,289466,1,8,0:0:0:0:
171,9,289616,2,0,P|219:7|280:21,1,103.999995239258,0|0,3:0|0:0,0:0:0:0:
433,106,289916,1,8,0:0:0:0:
208,96,290066,2,0,P|253:110|306:144,1,103.999995239258,0|0,3:0|0:0,0:0:0:0:
443,305,290366,6,0,P|397:290|344:256,1,103.999995239258,8|0,0:0|0:0,0:0:0:0:
371,69,290666,2,0,P|389:113|397:175,1,103.999995239258,0|0,3:0|0:0,0:0:0:0:
255,260,290966,1,8,0:0:0:0:
208,89,291116,2,0,P|189:133|181:195,1,103.999995239258,0|0,3:0|0:0,0:0:0:0:
198,355,291416,1,8,0:0:0:0:
79,192,291566,6,0,P|93:237|127:290,1,103.999995239258,0|0,3:0|0:0,0:0:0:0:
296,351,291866,1,8,0:0:0:0:
277,198,292016,1,0,3:0:0:0:
267,210,292091,1,0,3:0:0:0:
258,222,292166,5,12,0:0:0:0:
436,270,292316,1,0,0:0:0:0:
436,270,292466,1,0,3:0:0:0:
350,110,292616,5,12,0:0:0:0:
378,333,292766,1,0,0:0:0:0:
378,333,292916,1,0,3:0:0:0:
512,172,293066,6,0,P|453:167|406:184,1,103.999995239258,12|0,0:0|0:0,0:0:0:0:
266,289,293366,1,12,0:0:0:0:
266,143,293516,1,0,3:0:0:0:
276,154,293591,1,0,3:0:0:0:
286,165,293666,5,12,0:0:0:0:
76,90,293816,1,0,3:0:0:0:
220,20,293966,1,0,3:0:0:0:
178,263,294116,5,8,0:0:0:0:
75,70,294266,1,0,3:0:0:0:
31,229,294416,1,0,3:0:0:0:
266,143,294566,5,8,0:0:0:0:
172,358,294716,1,0,3:0:0:0:
168,104,294866,5,8,0:0:0:0:
271,334,295016,1,0,3:0:0:0:
271,334,295091,1,0,3:0:0:0:
271,334,295166,5,10,0:0:0:0:
256,192,295241,12,0,296216,0:0:0:0:
153,144,296366,5,8,0:0:0:0:
249,267,296516,1,8,0:0:0:0:
415,86,297116,1,0,3:0:0:0:
415,86,297191,1,0,3:0:0:0:
415,86,297266,6,0,B|339:47|243:87|322:101|256:156|156:130|119:47|141:5|206:-19|243:-9|261:8|310:183|310:183|376:263|470:268|472:214|472:155|420:134|371:154|349:169|249:267|249:267|160:186|64:233|64:233|107:119|54:47|54:47|-65:115|-20:225|-42:279|-3:308|46:356|84:308|141:295|141:295|184:301|202:350|271:386|331:295|331:295|447:356|517:273|543:249|534:169|493:128,1,2355.2,4|0,0:0|0:0,0:0:0:0:
