osu file format v14

[General]
AudioFilename: audio.mp3
AudioLeadIn: 0
PreviewTime: 138929
Countdown: 1
SampleSet: None
StackLeniency: 0.7
Mode: 0
LetterboxInBreaks: 0
WidescreenStoryboard: 0

[Editor]
DistanceSpacing: 0.9
BeatDivisor: 4
GridSize: 4
TimelineZoom: 1.5

[Metadata]
Title:Replicant
TitleUnicode:レプリカント
Artist:nqrse
ArtistUnicode:nqrse
Creator:Erein
Version:I Hate It
Source:
Tags:utaite buzzG hatsune miku vocaloid naruse
BeatmapID:1876736
BeatmapSetID:898413

[Difficulty]
HPDrainRate:6
CircleSize:4
OverallDifficulty:8
ApproachRate:9.5
SliderMultiplier:1.8
SliderTickRate:1

[Events]
//Background and Video events
0,0,"Screenshot 2018-12-19 21.29.45.png",0,0
//Break Periods
2,83792,90528
//Storyboard Layer 0 (Background)
//Storyboard Layer 1 (Fail)
//Storyboard Layer 2 (Pass)
//Storyboard Layer 3 (Foreground)
//Storyboard Sound Samples

[TimingPoints]
1520,310.880829015544,4,2,0,60,1,0
11468,-166.666666666667,4,2,0,60,0,0
20172,-333.333333333333,4,2,0,60,0,0
21416,-100,4,2,0,60,0,0
31364,-125,4,2,0,60,0,0
39758,-250,4,2,0,60,0,0
41312,-90.9090909090909,4,2,0,60,0,1
59965,-333.333333333334,4,2,0,60,0,0
61209,-100,4,2,0,60,0,0
71157,-333.333333333333,4,2,0,60,0,0
72400,-100,4,2,0,60,0,0
81105,-125,4,2,0,60,0,0
118411,-142.857142857143,4,2,0,60,0,0
119499,-125,4,2,0,60,0,0
120898,-111.111111111111,4,2,0,60,0,0
130847,-142.857142857143,4,2,0,60,0,0
135820,-200,4,2,0,60,0,0
138307,-333.333333333334,4,2,0,60,0,0
138929,310.880829015544,4,2,0,60,1,0
138929,-250,4,2,0,60,0,0
143903,-86.9565217391304,4,2,0,60,0,1
156338,-83.3333333333333,4,2,0,60,0,1
166286,-86.9565217391304,4,2,0,60,0,0
173747,-86.9565217391304,4,2,0,60,0,0
193644,-133.333333333333,4,2,0,60,0,0
194732,-66.6666666666667,4,2,0,60,0,0

[Colours]
Combo1 : 31,154,80
Combo2 : 122,122,122
Combo3 : 167,87,44
Combo4 : 55,68,203

[HitObjects]
208,130,1520,6,0,L|141:67,1,90
114,224,1830,1,0,0:0:0:0:
280,63,1986,1,0,0:0:0:0:
314,280,2141,2,0,P|295:306|225:345,1,90
379,88,2452,2,0,P|394:57|446:27,1,90
417,304,2763,6,0,L|360:378,1,90
292,192,3074,1,0,0:0:0:0:
457,160,3229,1,0,0:0:0:0:
232,289,3385,2,0,P|183:320|116:301,1,90
323,65,3696,2,0,P|366:50|409:63,1,90
221,188,4007,6,0,L|212:93,1,90
103,255,4317,1,0,0:0:0:0:
337,155,4473,1,0,0:0:0:0:
124,143,4628,2,0,P|85:101|85:47,1,90
357,248,4939,2,0,P|400:282|412:322,1,90
180,310,5250,6,0,L|86:359,1,90
52,202,5561,1,0,0:0:0:0:
256,278,5716,1,0,0:0:0:0:
339,90,5872,2,0,L|368:55,1,45
230,144,6027,2,0,L|189:189,1,45
333,198,6183,2,0,L|371:237,1,45
222,61,6338,2,0,L|171:8,1,45
33,102,6494,6,0,L|17:199,1,90
152,314,6804,1,0,0:0:0:0:
177,116,6960,1,0,0:0:0:0:
36,295,7115,2,0,L|133:218,1,90
240,62,7426,2,0,L|155:130,1,90
290,267,7737,6,0,L|311:153,1,90
443,47,8048,1,0,0:0:0:0:
422,222,8203,1,0,0:0:0:0:
176,155,8359,2,0,B|289:188|285:188,1,90
511,157,8670,2,0,L|413:123,1,90
130,231,8981,6,0,L|230:265,1,90
316,100,9292,1,0,0:0:0:0:
93,137,9447,1,0,0:0:0:0:
273,309,9602,2,0,L|232:208,1,90
127,21,9913,2,0,L|165:121,1,90
437,91,10224,6,0,L|343:151,1,90
195,228,10535,1,0,0:0:0:0:
316,71,10690,1,0,0:0:0:0:
343,53,10768,1,0,0:0:0:0:
368,35,10846,1,0,0:0:0:0:
130,77,11001,1,0,0:0:0:0:
247,255,11157,1,0,0:0:0:0:
316,71,11312,1,0,0:0:0:0:
445,137,11468,5,0,0:0:0:0:
445,137,11779,1,0,0:0:0:0:
445,137,12089,1,0,0:0:0:0:
445,137,12400,1,0,0:0:0:0:
384,235,12556,1,0,0:0:0:0:
272,157,12711,6,0,P|290:122|317:104,1,53.9999983520508
268,253,13022,2,0,P|231:245|199:219,1,53.9999983520508
358,198,13333,2,0,P|370:270|351:316,1,107.999996704102
250,345,13799,1,0,0:0:0:0:
110,271,13955,5,0,0:0:0:0:
114,262,14266,1,0,0:0:0:0:
116,257,14576,1,0,0:0:0:0:
117,251,14887,2,0,P|135:213|155:191,1,53.9999983520508
254,101,15198,5,0,0:0:0:0:
360,220,15354,1,0,0:0:0:0:
235,328,15509,1,0,0:0:0:0:
128,208,15665,1,0,0:0:0:0:
310,160,15820,2,0,L|219:238,1,107.999996704102
105,318,16286,1,0,0:0:0:0:
100,119,16442,5,0,0:0:0:0:
100,119,16753,1,0,0:0:0:0:
100,119,17064,1,0,0:0:0:0:
100,119,17374,1,0,0:0:0:0:
194,229,17530,1,0,0:0:0:0:
307,129,17685,6,0,P|329:84|328:76,1,53.9999983520508
296,247,17996,2,0,P|277:298|281:308,1,53.9999983520508
166,164,18307,2,0,P|132:157|161:200,1,107.999996704102
344,190,18773,1,0,0:0:0:0:
246,79,18929,6,0,P|224:73|179:84,1,53.9999983520508
86,197,19240,2,0,P|104:211|149:218,1,53.9999983520508
294,262,19551,1,0,0:0:0:0:
140,143,19706,1,0,0:0:0:0:
372,120,19861,1,0,0:0:0:0:
129,318,20017,1,0,0:0:0:0:
159,67,20172,6,0,P|188:79|207:97,1,53.9999983520508
296,179,20794,2,0,P|317:191|350:191,1,53.9999983520508
417,102,21416,5,0,0:0:0:0:
323,191,21571,1,0,0:0:0:0:
428,24,21727,2,0,P|468:43|501:110,1,90
352,269,22038,2,0,P|260:245|245:162,1,180
341,42,22504,1,0,0:0:0:0:
136,180,22659,6,0,L|34:181,1,90
257,91,22970,2,0,L|356:91,1,90
92,82,23281,2,0,L|0:81,1,90
198,170,23592,1,0,0:0:0:0:
317,53,23747,1,0,0:0:0:0:
330,198,23903,5,0,0:0:0:0:
224,281,24058,2,0,P|183:318|132:316,2,90
135,122,24525,2,0,P|120:182|160:248,1,135
281,172,24836,2,0,P|231:160|190:176,1,90
339,56,25146,5,0,0:0:0:0:
238,237,25302,1,0,0:0:0:0:
219,92,25457,1,0,0:0:0:0:
97,261,25613,1,0,0:0:0:0:
357,271,25768,2,0,P|315:218|235:224,1,135
239,365,26079,2,0,L|284:280,1,90
401,50,26390,5,0,0:0:0:0:
194,88,26545,1,0,0:0:0:0:
290,28,26701,2,0,L|344:158,1,135
354,179,27012,1,0,0:0:0:0:
194,88,27167,1,0,0:0:0:0:
265,271,27323,2,0,L|223:160,1,90
124,39,27633,5,0,0:0:0:0:
52,184,27789,2,0,P|78:248|105:260,1,90
267,126,28100,1,0,0:0:0:0:
236,281,28255,2,0,P|277:263|307:215,1,90
194,88,28566,2,0,P|189:155|252:211,1,135
257,212,28877,5,0,0:0:0:0:
332,84,29032,2,0,B|354:46|323:-3,1,90
163,39,29343,1,0,0:0:0:0:
92,149,29499,2,0,B|68:191|68:191|140:285,1,135
143,283,29810,1,0,0:0:0:0:
259,167,29965,1,0,0:0:0:0:
347,37,30121,6,0,P|396:80|401:137,1,90
403,298,30431,2,0,P|377:238|384:189,1,90
241,245,30742,2,0,P|215:297|162:313,1,90
265,144,31053,2,0,P|292:100|333:84,1,90
338,161,31364,5,0,0:0:0:0:
231,73,31520,2,0,B|159:72|159:72|91:138,2,144
57,171,32297,1,0,0:0:0:0:
211,156,32452,2,0,B|282:155|282:155|329:87,2,144
93,358,33229,2,0,L|151:309,1,72
124,137,33540,2,0,L|61:186,1,72
232,269,33851,5,0,0:0:0:0:
50,292,34007,2,0,L|166:200,2,144
291,320,34784,2,0,P|247:346|196:334,1,72
303,159,35095,1,0,0:0:0:0:
237,273,35250,1,0,0:0:0:0:
233,129,35406,1,0,0:0:0:0:
161,253,35561,1,0,0:0:0:0:
167,100,35716,2,0,P|191:61|196:19,1,72
90,229,36027,2,0,P|66:264|57:308,1,72
79,56,36338,5,0,0:0:0:0:
233,129,36494,2,0,P|177:173|106:137,2,144
375,39,37271,1,0,0:0:0:0:
367,164,37426,2,0,P|356:240|397:286,1,144
277,239,37893,1,0,0:0:0:0:
429,213,38048,1,0,0:0:0:0:
265,146,38203,1,0,0:0:0:0:
287,310,38359,2,0,L|273:217,1,72
259,79,38670,1,0,0:0:0:0:
145,258,38825,5,0,0:0:0:0:
171,138,38981,1,0,0:0:0:0:
257,235,39136,1,0,0:0:0:0:
58,157,39292,1,0,0:0:0:0:
276,123,39447,1,0,0:0:0:0:
225,337,39602,1,0,0:0:0:0:
177,171,39758,2,0,L|207:285,1,108
225,337,40380,6,0,P|272:346|301:343,2,72
55,180,41312,6,0,P|34:135|68:57,1,99.0000030212403
264,32,41623,1,0,0:0:0:0:
111,121,41779,1,0,0:0:0:0:
339,158,41934,2,0,P|353:218|318:276,1,99.0000030212403
107,240,42245,1,0,0:0:0:0:
279,205,42400,1,0,0:0:0:0:
201,346,42556,6,0,P|135:353|95:315,1,99.0000030212403
190,118,42867,1,0,0:0:0:0:
161,281,43022,1,0,0:0:0:0:
269,116,43178,2,0,P|327:112|381:158,1,99.0000030212403
278,343,43488,1,0,0:0:0:0:
305,185,43644,1,0,0:0:0:0:
200,39,43799,6,0,P|243:75|259:129,1,99.0000030212403
386,268,44110,2,0,P|331:234|319:191,1,99.0000030212403
395,63,44421,2,0,P|350:121|287:135,1,99.0000030212403
214,267,44732,2,0,P|223:209|257:170,1,99.0000030212403
461,130,45043,6,0,L|386:198,1,99.0000030212403
340,350,45354,2,0,L|286:258,1,99.0000030212403
142,49,45665,2,0,L|200:145,1,99.0000030212403
102,331,45975,2,0,L|216:263,1,99.0000030212403
408,208,46286,6,0,B|361:231|356:291|356:291|308:242|239:268,1,198.000006042481
438,286,46753,1,0,0:0:0:0:
205,368,46908,2,0,P|265:362|293:323,1,99.0000030212403
374,129,47219,2,0,P|327:157|303:204,1,99.0000030212403
137,253,47530,6,0,P|181:268|223:299,2,99.0000030212403
39,109,47996,1,0,0:0:0:0:
194,42,48152,2,0,P|252:56|317:43,2,99.0000030212403
39,109,48618,1,0,0:0:0:0:
158,237,48773,6,0,P|99:278|55:276,1,99.0000030212403
248,112,49084,2,0,P|300:85|357:90,1,99.0000030212403
319,304,49395,2,0,P|259:268|239:215,1,99.0000030212403
98,47,49706,2,0,P|155:94|166:120,1,99.0000030212403
186,322,50017,5,0,0:0:0:0:
334,141,50172,1,0,0:0:0:0:
129,164,50328,1,0,0:0:0:0:
289,334,50483,1,0,0:0:0:0:
444,251,50639,1,0,0:0:0:0:
420,213,50716,1,0,0:0:0:0:
381,187,50794,1,0,0:0:0:0:
341,180,50872,1,0,0:0:0:0:
303,198,50950,1,0,0:0:0:0:
268,224,51027,1,0,0:0:0:0:
223,218,51105,1,0,0:0:0:0:
197,189,51183,1,0,0:0:0:0:
170,142,51260,6,0,P|136:102|83:90,1,99.0000030212403
37,321,51571,1,0,0:0:0:0:
94,168,51727,1,0,0:0:0:0:
259,136,51882,2,0,P|325:109|354:65,1,99.0000030212403
98,31,52193,1,0,0:0:0:0:
263,57,52349,1,0,0:0:0:0:
165,200,52504,6,0,P|197:288|234:296,1,99.0000030212403
394,155,52815,1,0,0:0:0:0:
237,220,52970,1,0,0:0:0:0:
444,342,53126,2,0,P|374:277|363:240,1,99.0000030212403
411,78,53437,1,0,0:0:0:0:
465,244,53592,1,0,0:0:0:0:
286,221,53747,6,0,P|235:251|193:347,1,148.50000453186
111,275,54058,2,0,P|159:174|147:127,1,148.50000453186
230,80,54369,2,0,P|317:130|388:136,1,148.50000453186
458,167,54680,2,0,P|477:41|511:7,1,148.50000453186
318,38,54991,6,0,P|265:71|218:80,2,99.0000030212403
82,39,55457,1,0,0:0:0:0:
182,164,55613,2,0,P|261:197|290:199,2,99.0000030212403
437,189,56079,1,0,0:0:0:0:
375,278,56235,6,0,B|323:371|323:371|248:331,1,148.50000453186
255,333,56545,1,0,0:0:0:0:
87,193,56701,2,0,L|179:269,1,99.0000030212403
280,115,57012,1,0,0:0:0:0:
390,177,57167,2,0,P|341:226|274:248,1,99.0000030212403
344,38,57478,5,0,0:0:0:0:
199,142,57633,2,0,P|150:118|114:82,1,99.0000030212403
322,186,57944,2,0,P|433:274|445:340,1,198.000006042481
203,312,58411,2,0,P|260:278|277:236,1,99.0000030212403
70,115,58722,5,0,0:0:0:0:
194,232,58877,1,0,0:0:0:0:
131,38,59032,2,0,P|80:95|65:123,1,99.0000030212403
281,185,59343,1,0,0:0:0:0:
432,61,59499,1,0,0:0:0:0:
358,217,59654,1,0,0:0:0:0:
290,84,59810,1,0,0:0:0:0:
197,158,59965,6,0,P|175:164|165:175,1,26.9999991760254
240,222,60276,2,0,P|228:241|229:256,1,26.9999991760254
308,205,60587,2,0,P|326:218|340:220,1,26.9999991760254
341,138,60898,2,0,P|363:138|376:131,1,26.9999991760254
239,106,61209,6,0,P|188:61|128:62,1,90
37,192,61519,1,0,0:0:0:0:
227,183,61675,1,0,0:0:0:0:
109,10,61830,2,0,P|96:79|114:109,1,90
172,308,62141,2,0,P|174:244|143:197,1,90
47,371,62452,5,0,0:0:0:0:
233,172,62608,2,0,P|185:191|158:242,1,90
272,365,62918,1,0,0:0:0:0:
432,190,63074,2,0,L|369:258,1,90
279,91,63385,2,0,L|340:24,1,90
322,200,63696,6,0,P|245:199|211:178,2,90
186,43,64162,1,0,0:0:0:0:
38,192,64317,1,0,0:0:0:0:
237,195,64473,1,0,0:0:0:0:
54,64,64628,2,0,L|139:125,1,90
315,234,64939,5,0,0:0:0:0:
99,237,65095,1,0,0:0:0:0:
308,354,65250,2,0,L|230:310,1,90
99,237,65561,2,0,L|100:176,1,45
232,190,65716,2,0,L|278:189,1,45
288,299,65872,2,0,L|288:360,1,45
164,349,66027,2,0,L|99:349,1,45
30,170,66183,5,0,0:0:0:0:
234,77,66338,2,0,P|152:42|68:63,1,135
77,57,66649,1,0,0:0:0:0:
237,157,66804,1,0,0:0:0:0:
440,57,66960,2,0,P|389:99|343:175,1,135
338,186,67271,1,0,0:0:0:0:
431,351,67426,5,0,0:0:0:0:
215,309,67582,2,0,P|163:249|157:169,1,135
159,162,67893,1,0,0:0:0:0:
341,54,68048,2,0,P|277:93|241:92,1,90
31,61,68359,2,0,P|104:40|140:54,1,90
296,169,68670,5,0,0:0:0:0:
245,35,68825,1,0,0:0:0:0:
215,223,68981,2,0,P|272:265|318:273,1,90
118,138,69292,1,0,0:0:0:0:
43,287,69447,1,0,0:0:0:0:
225,310,69602,2,0,P|225:253|200:197,1,90
139,331,69913,5,0,0:0:0:0:
215,93,70069,1,0,0:0:0:0:
329,238,70224,1,0,0:0:0:0:
93,193,70380,1,0,0:0:0:0:
368,171,70535,1,0,0:0:0:0:
264,328,70690,1,0,0:0:0:0:
226,296,70768,1,0,0:0:0:0:
205,262,70846,1,0,0:0:0:0:
201,232,70924,1,0,0:0:0:0:
203,208,71001,1,0,0:0:0:0:
212,188,71079,1,0,0:0:0:0:
221,171,71157,6,0,P|237:152|265:139,2,53.9999983520508
201,232,72245,1,0,0:0:0:0:
143,198,72400,6,0,P|130:121|155:81,1,90
327,24,72711,1,0,0:0:0:0:
202,146,72867,1,0,0:0:0:0:
381,184,73022,2,0,B|412:203|412:203|318:279,1,135
309,285,73333,1,0,0:0:0:0:
97,222,73488,1,0,0:0:0:0:
243,264,73644,5,0,0:0:0:0:
134,133,73799,2,0,L|226:178,1,90
392,245,74110,1,0,0:0:0:0:
292,116,74266,2,0,P|307:192|246:259,1,135
193,193,74576,2,0,P|230:167|185:152,1,90
75,64,74887,5,0,0:0:0:0:
17,234,75043,1,0,0:0:0:0:
191,278,75198,1,0,0:0:0:0:
243,106,75354,1,0,0:0:0:0:
17,234,75509,2,0,P|66:290|132:284,1,135
155,276,75820,1,0,0:0:0:0:
109,119,75975,1,0,0:0:0:0:
63,307,76131,6,0,L|92:219,1,90
151,38,76442,2,0,B|69:23|32:84,1,135
20,113,76753,1,0,0:0:0:0:
194,189,76908,1,0,0:0:0:0:
356,98,77064,2,0,P|396:57|403:18,1,90
159,96,77374,5,0,0:0:0:0:
323,25,77530,1,0,0:0:0:0:
418,177,77685,1,0,0:0:0:0:
251,249,77841,1,0,0:0:0:0:
228,60,77996,2,0,P|213:150|146:171,1,135
145,175,78307,1,0,0:0:0:0:
345,159,78463,1,0,0:0:0:0:
159,93,78618,5,0,0:0:0:0:
41,233,78773,2,0,P|26:283|39:327,2,90
217,168,79240,2,0,P|186:228|97:281,1,135
102,280,79551,1,0,0:0:0:0:
45,122,79706,1,0,0:0:0:0:
155,213,79861,6,0,L|208:254,3,45
143,62,80172,2,0,L|101:21,3,45
88,177,80483,1,0,0:0:0:0:
112,184,80561,1,0,0:0:0:0:
146,186,80639,1,0,0:0:0:0:
179,172,80716,1,0,0:0:0:0:
213,155,80794,1,0,0:0:0:0:
253,141,80872,1,0,0:0:0:0:
304,138,80950,1,0,0:0:0:0:
353,153,81027,1,0,0:0:0:0:
391,198,81105,1,0,0:0:0:0:
256,192,81183,12,0,83592,0:0:0:0:
360,46,91053,6,0,P|428:57|467:112,1,108
478,109,91364,1,0,0:0:0:0:
381,128,91520,2,0,P|343:173|296:182,1,108
263,175,91830,1,0,0:0:0:0:
223,54,91986,2,0,P|283:75|308:111,1,108
323,138,92297,5,0,0:0:0:0:
193,225,92452,2,0,P|206:158|238:125,1,108
256,107,92763,1,0,0:0:0:0:
427,148,92918,1,0,0:0:0:0:
283,210,93074,1,0,0:0:0:0:
288,215,93229,1,0,0:0:0:0:
432,150,93385,1,0,0:0:0:0:
255,289,93540,6,0,P|348:270|364:236,1,108
373,237,93851,1,0,0:0:0:0:
290,217,94007,2,0,P|257:168|197:160,1,108
178,157,94317,1,0,0:0:0:0:
124,284,94473,2,0,P|195:258|215:230,1,108
228,205,94784,5,0,0:0:0:0:
32,117,94939,1,0,0:0:0:0:
134,202,95095,1,0,0:0:0:0:
165,82,95250,1,0,0:0:0:0:
17,228,95406,1,0,0:0:0:0:
110,345,95561,1,0,0:0:0:0:
110,345,95639,1,0,0:0:0:0:
110,345,95716,1,0,0:0:0:0:
235,274,95872,1,0,0:0:0:0:
273,108,96027,6,0,P|216:152|204:186,1,108
197,217,96338,1,0,0:0:0:0:
360,267,96494,2,0,P|332:214|288:194,1,108
257,186,96804,1,0,0:0:0:0:
279,276,96960,2,0,P|326:341|349:348,1,108
381,351,97271,5,0,0:0:0:0:
359,268,97426,2,0,P|395:217|386:159,1,108
361,113,97737,2,0,L|337:71,2,36
483,351,98126,2,0,L|419:226,1,108
259,90,98514,5,0,0:0:0:0:
186,228,98670,1,0,0:0:0:0:
373,140,98825,1,0,0:0:0:0:
108,160,98981,2,0,P|57:185|30:235,1,108
24,258,99292,1,0,0:0:0:0:
250,130,99447,2,0,P|313:114|341:58,1,108
350,49,99758,5,0,0:0:0:0:
95,69,99913,1,0,0:0:0:0:
265,56,100069,1,0,0:0:0:0:
8,79,100224,1,0,0:0:0:0:
179,62,100380,1,0,0:0:0:0:
108,180,100535,1,0,0:0:0:0:
108,180,100613,1,0,0:0:0:0:
108,180,100690,1,0,0:0:0:0:
84,24,100846,1,0,0:0:0:0:
119,257,101001,6,0,B|139:353|139:353|195:315,1,144
382,297,101468,2,0,B|348:244|348:244|302:271,1,108
276,337,101779,2,0,P|243:311|229:274,1,72
402,155,102089,1,0,0:0:0:0:
307,267,102245,5,0,0:0:0:0:
139,179,102400,1,0,0:0:0:0:
290,115,102556,1,0,0:0:0:0:
174,295,102711,1,0,0:0:0:0:
98,67,102867,1,0,0:0:0:0:
296,192,103022,1,0,0:0:0:0:
282,220,103100,1,0,0:0:0:0:
263,245,103178,1,0,0:0:0:0:
232,261,103255,1,0,0:0:0:0:
196,270,103333,1,0,0:0:0:0:
161,288,103411,1,0,0:0:0:0:
140,321,103488,6,0,P|186:351|225:350,2,72
37,197,103955,2,0,P|94:159|161:131,1,108
159,127,104266,1,0,0:0:0:0:
475,197,104421,2,0,P|418:159|350:137,1,108
351,135,104732,5,0,0:0:0:0:
173,323,104887,1,0,0:0:0:0:
159,127,105043,1,0,0:0:0:0:
333,280,105198,1,0,0:0:0:0:
336,55,105354,1,0,0:0:0:0:
174,249,105509,1,0,0:0:0:0:
402,161,105665,1,0,0:0:0:0:
333,280,105820,1,0,0:0:0:0:
154,348,105975,5,0,0:0:0:0:
54,269,106131,2,0,P|35:221|50:178,1,72
182,61,106442,1,0,0:0:0:0:
187,210,106597,2,0,P|129:222|88:213,1,72
339,148,106908,2,0,P|390:131|428:137,1,72
239,254,107219,6,0,P|195:226|182:193,2,72
389,209,107685,1,0,0:0:0:0:
173,135,107841,2,0,P|131:156|114:198,1,72
210,329,108152,1,0,0:0:0:0:
223,320,108229,1,0,0:0:0:0:
236,309,108307,1,0,0:0:0:0:
248,298,108385,1,0,0:0:0:0:
261,285,108463,6,0,P|284:247|290:205,1,72
266,67,108773,1,0,0:0:0:0:
183,280,108929,2,0,P|212:342|283:359,1,144
349,153,109395,1,0,0:0:0:0:
264,278,109551,1,0,0:0:0:0:
435,141,109706,6,0,P|388:83|330:73,1,108
325,68,110017,1,0,0:0:0:0:
305,221,110172,1,0,0:0:0:0:
434,140,110328,1,0,0:0:0:0:
428,155,110406,1,0,0:0:0:0:
420,174,110483,1,0,0:0:0:0:
413,192,110561,1,0,0:0:0:0:
405,215,110639,2,0,L|390:251,1,36
262,138,110794,2,0,L|285:93,1,36
305,221,110950,6,0,P|278:271|231:326,1,108
220,333,111260,1,0,0:0:0:0:
117,164,111416,2,0,P|158:108|201:75,1,108
215,63,111727,1,0,0:0:0:0:
391,287,111882,2,0,P|299:243|298:184,1,144
370,41,112349,5,0,0:0:0:0:
216,186,112504,1,0,0:0:0:0:
292,48,112659,1,0,0:0:0:0:
419,162,112815,2,0,L|357:224,1,72
174,314,113126,2,0,L|248:250,1,72
356,139,113437,5,0,0:0:0:0:
346,312,113592,1,0,0:0:0:0:
452,233,113747,1,0,0:0:0:0:
284,206,113903,2,0,P|263:121|279:73,1,108
277,70,114214,1,0,0:0:0:0:
427,135,114369,2,0,L|333:139,1,72
172,149,114680,5,0,0:0:0:0:
143,211,114991,1,0,0:0:0:0:
110,270,115302,1,0,0:0:0:0:
78,329,115613,1,0,0:0:0:0:
345,323,115924,5,0,0:0:0:0:
381,148,116079,1,0,0:0:0:0:
226,216,116235,1,0,0:0:0:0:
467,192,116390,2,0,P|475:137|421:60,1,144
183,108,116856,2,0,P|305:164|384:146,1,216
401,309,117478,2,0,P|374:337|340:347,1,72
210,224,117789,1,0,0:0:0:0:
336,271,117944,1,0,0:0:0:0:
184,300,118100,2,0,P|139:264|133:230,1,72
311,94,118411,6,0,L|348:43,1,62.9999980773926
114,174,118877,2,0,L|68:174,1,31.4999990386963
243,264,119032,2,0,L|243:312,1,31.4999990386963
161,236,119188,2,0,L|121:282,1,31.4999990386963
327,236,119343,2,0,L|363:271,1,31.4999990386963
175,139,119499,6,0,P|222:191|310:165,1,144
325,24,119965,1,0,0:0:0:0:
249,117,120121,1,0,0:0:0:0:
153,22,120276,1,0,0:0:0:0:
392,91,120431,1,0,0:0:0:0:
379,221,120587,1,0,0:0:0:0:
363,251,120665,1,0,0:0:0:0:
342,278,120743,1,0,0:0:0:0:
316,300,120821,1,0,0:0:0:0:
289,325,120898,6,0,P|241:348|209:342,1,80.9999975280763
72,254,121209,1,0,0:0:0:0:
183,127,121364,2,0,P|227:195|235:280,1,161.999995056153
335,281,121830,2,0,P|334:209|350:174,1,80.9999975280763
394,85,122141,6,0,P|422:166|415:248,1,161.999995056153
280,362,122608,1,0,0:0:0:0:
174,251,122763,2,0,P|154:197|162:144,2,80.9999975280763
237,26,123229,1,0,0:0:0:0:
246,190,123385,6,0,P|314:169|348:124,1,121.499996292114
366,104,123696,1,0,0:0:0:0:
176,72,123851,2,0,P|237:102|295:77,1,121.499996292114
309,62,124162,1,0,0:0:0:0:
455,46,124317,2,0,P|475:89|468:150,1,80.9999975280763
305,183,124628,6,0,P|304:247|319:279,1,80.9999975280763
398,101,124939,2,0,L|353:23,1,80.9999975280763
383,220,125250,2,0,L|421:308,2,80.9999975280763
313,61,125716,1,0,0:0:0:0:
108,171,125872,6,0,B|41:211|41:211|99:275,1,161.999995056153
190,362,126338,1,0,0:0:0:0:
314,211,126494,2,0,P|321:142|274:83,1,121.499996292114
245,167,126804,2,0,P|231:219|239:249,1,80.9999975280763
390,276,127115,6,0,B|421:234|421:234|300:208,1,161.999995056153
71,183,127582,1,0,0:0:0:0:
229,271,127737,2,0,L|320:291,1,80.9999975280763
416,159,128048,1,0,0:0:0:0:
203,121,128203,1,0,0:0:0:0:
285,330,128359,5,0,0:0:0:0:
132,172,128514,1,0,0:0:0:0:
394,170,128670,1,0,0:0:0:0:
240,267,128825,1,0,0:0:0:0:
240,267,128903,1,0,0:0:0:0:
240,267,128981,1,0,0:0:0:0:
341,124,129136,1,0,0:0:0:0:
83,126,129292,1,0,0:0:0:0:
230,31,129447,1,0,0:0:0:0:
230,31,129525,1,0,0:0:0:0:
230,31,129602,5,0,0:0:0:0:
130,186,129758,1,0,0:0:0:0:
326,185,129913,1,0,0:0:0:0:
426,33,130069,1,0,0:0:0:0:
400,198,130224,2,0,P|375:246|321:262,1,80.9999975280763
171,309,130535,2,0,P|200:263|244:246,1,80.9999975280763
354,110,130846,6,0,L|315:209,1,80.9999975280763
301,243,131157,1,0,0:0:0:0:
296,251,131468,1,0,0:0:0:0:
291,261,131779,1,0,0:0:0:0:
162,147,132089,5,0,0:0:0:0:
166,159,132400,1,0,0:0:0:0:
347,204,132556,1,0,0:0:0:0:
172,275,132711,1,0,0:0:0:0:
274,124,132867,1,0,0:0:0:0:
297,304,133022,2,0,P|312:341|346:370,1,62.9999980773926
479,213,133333,5,0,0:0:0:0:
372,295,133488,1,0,0:0:0:0:
282,178,133644,1,0,0:0:0:0:
398,108,133799,1,0,0:0:0:0:
291,307,133955,1,0,0:0:0:0:
206,118,134110,1,0,0:0:0:0:
398,108,134266,1,0,0:0:0:0:
171,233,134421,1,0,0:0:0:0:
285,57,134576,5,0,0:0:0:0:
349,342,134732,1,0,0:0:0:0:
421,168,134887,1,0,0:0:0:0:
144,233,135043,1,0,0:0:0:0:
352,111,135198,1,0,0:0:0:0:
215,362,135354,1,0,0:0:0:0:
61,91,135509,1,0,0:0:0:0:
347,230,135665,1,0,0:0:0:0:
285,300,135820,5,0,0:0:0:0:
260,322,136053,1,0,0:0:0:0:
235,344,136286,1,0,0:0:0:0:
126,219,136442,2,0,L|172:258,1,45
185,268,136675,1,0,0:0:0:0:
215,288,136753,1,0,0:0:0:0:
291,164,136908,1,0,0:0:0:0:
264,144,136986,1,0,0:0:0:0:
237,121,137064,6,0,L|199:92,2,30
232,235,137374,2,0,L|195:279,2,30
340,212,137685,2,0,L|363:230,2,30
341,98,137996,2,0,L|360:75,2,30
254,191,138307,2,0,L|191:264,1,94.4999971160889
169,288,138929,5,0,0:0:0:0:
323,356,139239,1,0,0:0:0:0:
220,222,139550,1,0,0:0:0:0:
296,264,139706,1,0,0:0:0:0:
370,299,139861,1,0,0:0:0:0:
384,134,140172,5,0,0:0:0:0:
340,198,140327,1,0,0:0:0:0:
296,264,140482,1,0,0:0:0:0:
110,113,140794,1,0,0:0:0:0:
171,164,140949,1,0,0:0:0:0:
231,214,141104,1,0,0:0:0:0:
52,364,141416,5,0,0:3:0:0:
112,312,141571,1,0,0:3:0:0:
172,263,141726,1,0,0:3:0:0:
281,52,142037,1,0,0:0:0:0:
226,107,142192,1,0,0:0:0:0:
171,164,142347,1,0,0:0:0:0:
311,246,142659,5,0,0:0:0:0:
432,144,142815,1,0,0:0:0:0:
251,295,142970,2,0,P|236:259|235:235,1,54
311,246,143281,2,0,P|339:244|366:252,1,54
326,322,143592,2,0,P|311:348|288:366,1,54
103,253,143903,6,0,P|45:171|70:62,1,207.000003948212
202,26,144369,1,0,0:0:0:0:
174,198,144524,2,0,P|136:165|134:114,1,103.500001974106
240,230,144835,2,0,P|278:263|280:314,1,103.500001974106
261,137,145146,6,0,B|296:137|328:114|335:75|327:42|327:42|400:109,1,207.000003948212
366,232,145612,1,0,0:0:0:0:
184,125,145768,2,0,P|226:66|267:62,1,103.500001974106
256,287,146079,2,0,P|214:346|173:350,1,103.500001974106
259,133,146390,6,0,L|367:133,1,103.500001974106
181,277,146701,2,0,L|76:279,1,103.500001974106
364,208,147011,2,0,L|254:299,1,103.500001974106
82,198,147322,2,0,L|166:136,1,103.500001974106
425,146,147633,5,0,0:0:0:0:
163,237,147789,1,0,0:0:0:0:
263,101,147944,1,0,0:0:0:0:
346,292,148099,1,0,0:0:0:0:
216,330,148255,1,0,0:0:0:0:
192,324,148333,1,0,0:0:0:0:
168,308,148410,1,0,0:0:0:0:
151,277,148488,1,0,0:0:0:0:
163,237,148566,1,0,0:0:0:0:
197,198,148644,1,0,0:0:0:0:
239,161,148721,1,0,0:0:0:0:
255,106,148799,1,0,0:0:0:0:
244,55,148877,6,0,P|206:17|149:12,1,103.500001974106
65,212,149188,1,0,0:0:0:0:
172,85,149343,1,0,0:0:0:0:
195,249,149498,2,0,P|266:268|317:253,1,103.500001974106
301,34,149809,1,0,0:0:0:0:
254,187,149965,1,0,0:0:0:0:
55,120,150120,6,0,P|115:146|159:213,1,103.500001974106
49,341,150431,1,0,0:0:0:0:
58,208,150587,1,0,0:0:0:0:
251,278,150742,2,0,P|308:321|361:317,1,103.500001974106
373,107,151053,1,0,0:0:0:0:
325,242,151208,1,0,0:0:0:0:
161,331,151364,6,0,B|106:284|88:251|88:251|117:178,1,155.250002961159
212,194,151675,2,0,B|254:127|266:93|266:93|230:42,1,155.250002961159
162,111,151985,2,0,B|108:200|108:200|164:264,1,155.250002961159
208,316,152296,2,0,B|183:355|151:362|151:362|81:282,1,155.250002961159
43,215,152607,6,0,B|99:200|99:200|133:118,2,103.500001974106
207,317,153074,1,0,0:0:0:0:
253,147,153229,2,0,B|309:162|309:162|326:204,2,103.500001974106
159,30,153695,1,0,0:0:0:0:
249,224,153851,6,0,P|202:206|188:104,1,155.250002961159
201,83,154162,1,0,0:0:0:0:
416,41,154317,1,0,0:0:0:0:
258,145,154473,2,0,L|347:89,2,103.500001974106
99,226,154939,1,0,0:0:0:0:
255,317,155094,6,0,L|288:362,3,51.7500009870529
346,201,155405,2,0,L|311:146,3,51.7500009870529
419,215,155716,1,0,0:0:0:0:
400,261,155794,1,0,0:0:0:0:
360,275,155872,1,0,0:0:0:0:
314,268,155950,1,0,0:0:0:0:
276,246,156027,1,0,0:0:0:0:
233,247,156105,1,0,0:0:0:0:
194,278,156182,1,0,0:0:0:0:
179,315,156260,1,0,0:0:0:0:
193,360,156338,6,0,P|266:364|280:306,1,107.999996704102
254,81,156649,1,0,0:0:0:0:
137,243,156804,1,0,0:0:0:0:
107,107,156960,1,0,0:0:0:0:
279,263,157115,1,0,0:0:0:0:
368,165,157270,1,0,0:0:0:0:
182,364,157426,1,0,0:0:0:0:
194,178,157581,5,0,0:0:0:0:
408,60,157737,1,0,0:0:0:0:
204,95,157892,1,0,0:0:0:0:
385,254,158048,1,0,0:0:0:0:
253,228,158203,1,0,0:0:0:0:
448,124,158359,1,0,0:0:0:0:
115,147,158514,1,0,0:0:0:0:
417,191,158669,1,0,0:0:0:0:
181,283,158825,5,0,0:0:0:0:
307,115,158980,1,0,0:0:0:0:
339,274,159136,1,0,0:0:0:0:
143,123,159291,1,0,0:0:0:0:
377,194,159447,1,0,0:0:0:0:
80,217,159602,1,0,0:0:0:0:
282,352,159758,1,0,0:0:0:0:
215,38,159913,1,0,0:0:0:0:
145,274,160068,5,0,0:0:0:0:
352,267,160224,1,0,0:0:0:0:
267,91,160379,1,0,0:0:0:0:
282,352,160535,1,0,0:0:0:0:
139,187,160690,1,0,0:0:0:0:
348,181,160846,1,0,0:0:0:0:
185,93,161001,1,0,0:0:0:0:
206,353,161156,1,0,0:0:0:0:
53,178,161312,5,0,0:0:0:0:
166,18,161467,1,0,0:0:0:0:
222,227,161623,1,0,0:0:0:0:
23,76,161778,1,0,0:0:0:0:
248,57,161934,1,0,0:0:0:0:
115,234,162089,1,0,0:0:0:0:
72,18,162245,1,0,0:0:0:0:
286,164,162400,1,0,0:0:0:0:
442,46,162555,5,0,0:0:0:0:
301,244,162711,1,0,0:0:0:0:
285,40,162866,1,0,0:0:0:0:
508,154,163022,1,0,0:0:0:0:
374,280,163177,1,0,0:0:0:0:
365,41,163333,1,0,0:0:0:0:
225,108,163488,1,0,0:0:0:0:
474,231,163644,1,0,0:0:0:0:
286,182,163799,5,0,0:0:0:0:
45,294,163954,1,0,0:0:0:0:
99,174,164110,1,0,0:0:0:0:
261,357,164265,1,0,0:0:0:0:
97,350,164421,1,0,0:0:0:0:
335,235,164576,1,0,0:0:0:0:
171,140,164732,1,0,0:0:0:0:
336,313,164887,1,0,0:0:0:0:
163,280,165042,5,0,0:0:0:0:
353,137,165198,1,0,0:0:0:0:
171,140,165353,1,0,0:0:0:0:
276,354,165509,1,0,0:0:0:0:
361,317,165664,1,0,0:0:0:0:
358,282,165742,1,0,0:0:0:0:
341,247,165820,1,0,0:0:0:0:
312,216,165897,1,0,0:0:0:0:
262,196,165975,1,0,0:0:0:0:
204,202,166053,1,0,0:0:0:0:
146,212,166131,1,0,0:0:0:0:
96,182,166208,1,0,0:0:0:0:
74,129,166286,6,0,P|106:51|222:60,1,207.000003948212
255,288,166752,1,0,0:0:0:0:
157,114,166908,2,0,P|243:128|293:33,1,207.000003948212
29,29,167374,1,0,0:0:0:0:
128,226,167530,6,0,B|191:242|219:326|219:326|237:274|275:264,1,207.000003948212
341,146,167996,1,0,0:0:0:0:
468,279,168151,2,0,B|407:267|407:267|399:312|369:357|298:339,1,207.000003948212
105,326,168618,1,0,0:0:0:0:
230,224,168773,6,0,P|301:244|345:302,1,103.500001974106
206,129,169084,2,0,P|236:50|273:26,1,103.500001974106
117,180,169395,2,0,P|57:173|4:119,1,103.500001974106
146,273,169706,2,0,P|126:327|86:366,1,103.500001974106
279,176,170017,6,0,P|330:156|393:164,1,103.500001974106
352,315,170327,2,0,P|307:271|384:266,1,155.250002961159
401,259,170638,1,0,0:0:0:0:
215,331,170794,1,0,0:0:0:0:
277,177,170949,2,0,P|209:199|173:180,1,103.500001974106
37,36,171260,5,0,0:0:0:0:
225,126,171416,1,0,0:0:0:0:
375,20,171571,1,0,0:0:0:0:
137,128,171726,1,0,0:0:0:0:
259,249,171882,1,0,0:0:0:0:
178,56,172037,1,0,0:0:0:0:
54,246,172193,1,0,0:0:0:0:
310,123,172348,1,0,0:0:0:0:
163,249,172504,5,0,0:0:0:0:
243,92,172659,1,0,0:0:0:0:
219,319,172815,1,0,0:0:0:0:
128,116,172970,1,0,0:0:0:0:
377,146,173125,1,0,0:0:0:0:
346,295,173281,1,0,0:0:0:0:
317,314,173359,1,0,0:0:0:0:
275,332,173436,1,0,0:0:0:0:
223,341,173514,1,0,0:0:0:0:
168,339,173592,1,0,0:0:0:0:
111,318,173669,1,0,0:0:0:0:
67,274,173747,1,0,0:0:0:0:
256,192,173825,12,0,176079,0:0:0:0:
400,130,176234,6,0,P|357:171|308:187,1,103.500001974106
173,94,176545,1,0,0:0:0:0:
50,208,176701,2,0,P|65:280|96:301,2,103.500001974106
216,260,177167,2,0,P|174:230|123:230,1,103.500001974106
48,297,177478,6,0,P|111:314|181:277,2,103.500001974106
218,195,177944,1,0,0:0:0:0:
407,288,178099,2,0,P|329:263|316:226,1,103.500001974106
203,116,178410,2,0,P|266:135|298:193,1,103.500001974106
44,249,178721,6,0,L|123:180,1,103.500001974106
271,53,179032,1,0,0:0:0:0:
213,197,179188,2,0,P|229:268|296:296,2,103.500001974106
190,29,179654,2,0,P|225:82|218:139,1,103.500001974106
174,340,179965,6,0,P|156:280|190:209,2,103.500001974106
343,186,180431,1,0,0:0:0:0:
135,283,180587,2,0,P|184:297|233:283,1,103.500001974106
343,186,180897,2,0,P|279:160|221:198,1,103.500001974106
397,311,181208,6,0,B|433:356|433:356|477:352,2,103.500001974106
285,241,181675,1,0,0:0:0:0:
422,163,181830,2,0,B|402:110|402:110|345:96,2,103.500001974106
229,174,182296,1,0,0:0:0:0:
202,351,182452,6,0,P|239:308|239:250,1,103.500001974106
75,265,182763,2,0,P|136:261|182:207,1,103.500001974106
144,156,183074,2,0,P|114:149|81:120,1,51.7500009870529
202,95,183229,2,0,P|191:67|197:36,1,51.7500009870529
296,117,183384,2,0,P|316:93|361:85,1,51.7500009870529
304,217,183540,2,0,P|328:231|334:267,1,51.7500009870529
270,282,183695,6,0,P|232:220|241:183,2,103.500001974106
354,157,184162,2,0,P|362:104|335:48,2,103.500001974106
185,96,184628,2,0,P|260:121|302:101,1,103.500001974106
116,168,184939,6,0,P|88:122|101:39,2,103.500001974106
243,263,185405,1,0,0:0:0:0:
366,165,185561,2,0,P|419:231|428:286,2,103.500001974106
225,69,186027,1,0,0:0:0:0:
164,244,186182,6,0,P|239:188|243:142,2,103.500001974106
325,45,186649,2,0,P|366:106|350:171,2,103.500001974106
165,163,187115,1,0,0:0:0:0:
290,118,187270,1,0,0:0:0:0:
225,309,187426,6,0,P|155:258|142:224,1,103.500001974106
208,58,187737,2,0,P|289:116|307:157,1,103.500001974106
230,224,188048,1,0,0:0:0:0:
353,55,188203,2,0,P|405:87|424:134,1,103.500001974106
230,224,188514,1,0,0:0:0:0:
113,68,188669,5,0,0:0:0:0:
317,211,188825,1,0,0:0:0:0:
148,195,188980,1,0,0:0:0:0:
301,15,189136,1,0,0:0:0:0:
84,141,189291,1,0,0:0:0:0:
376,106,189447,1,0,0:0:0:0:
191,11,189602,1,0,0:0:0:0:
223,241,189758,1,0,0:0:0:0:
82,307,189913,5,0,0:0:0:0:
308,160,190068,1,0,0:0:0:0:
57,234,190224,1,0,0:0:0:0:
346,234,190379,1,0,0:0:0:0:
88,162,190535,1,0,0:0:0:0:
326,311,190690,1,0,0:0:0:0:
161,117,190846,1,0,0:0:0:0:
262,356,191001,1,0,0:0:0:0:
199,230,191156,5,0,0:0:0:0:
408,71,191312,1,0,0:0:0:0:
235,25,191467,1,0,0:0:0:0:
432,215,191623,1,0,0:0:0:0:
334,18,191778,1,0,0:0:0:0:
146,153,191934,1,0,0:0:0:0:
366,259,192089,1,0,0:0:0:0:
165,55,192245,1,0,0:0:0:0:
135,240,192400,5,0,0:0:0:0:
339,321,192555,1,0,0:0:0:0:
417,137,192711,1,0,0:0:0:0:
232,54,192866,1,0,0:0:0:0:
86,78,193022,1,0,0:0:0:0:
103,130,193099,1,0,0:0:0:0:
140,156,193177,1,0,0:0:0:0:
171,180,193255,1,0,0:0:0:0:
187,209,193333,1,0,0:0:0:0:
200,226,193410,1,0,0:0:0:0:
206,249,193488,1,0,0:0:0:0:
206,276,193566,1,0,0:0:0:0:
205,296,193644,6,0,P|188:333|146:351,1,67.5000025749208
135,280,193954,2,0,P|113:245|121:200,1,67.5000025749208
188,226,194265,2,0,P|227:224|264:253,1,67.5000025749208
309,281,194576,1,0,0:0:0:0:
176,329,194732,6,0,B|114:196|99:42|99:42|290:25|184:153|184:153|307:239,1,675.000025749208
51,192,195664,1,0,0:0:0:0:
306,97,195820,1,0,0:0:0:0:
254,302,195975,1,0,0:0:0:0:
