osu file format v14

[General]
AudioFilename: audio.mp3
AudioLeadIn: 0
PreviewTime: 66804
Countdown: 0
SampleSet: Soft
StackLeniency: 0.4
Mode: 0
LetterboxInBreaks: 0
WidescreenStoryboard: 1

[Editor]
DistanceSpacing: 0.5
BeatDivisor: 4
GridSize: 8
TimelineZoom: 1

[Metadata]
Title:microser
TitleUnicode:microser
Artist:nowisee
ArtistUnicode:nowisee
Creator:bilibilicnm
Version:Extra
Source:
Tags:Necho japanese pop jpop j-pop reALIVE ノイズ noise Strange Octave
BeatmapID:3017432
BeatmapSetID:1456710

[Difficulty]
HPDrainRate:6
CircleSize:4
OverallDifficulty:8.5
ApproachRate:9.2
SliderMultiplier:1.8
SliderTickRate:1

[Events]
//Background and Video events
0,0,"bg.jpg",0,0
//Break Periods
2,58148,62967
2,173990,193461
//Storyboard Layer 0 (Background)
//Storyboard Layer 1 (Fail)
//Storyboard Layer 2 (Pass)
//Storyboard Layer 3 (Foreground)
//Storyboard Layer 4 (Overlay)
//Storyboard Sound Samples

[TimingPoints]
298,722.89156626506,4,2,1,40,1,0
298,-55.5555555555556,4,2,1,40,0,0
11864,-52.6315789473684,4,2,1,55,0,0
22346,-50,4,2,1,55,0,0
22707,-47.6190476190476,4,2,1,65,0,0
23069,-45.4545454545455,4,2,1,75,0,0
23430,-52.6315789473684,4,2,1,60,0,0
46201,-125,4,2,1,60,0,0
46563,-52.6315789473684,4,2,1,60,0,0
49454,-55.5555555555556,4,2,1,60,0,0
51984,-125,4,2,1,60,0,0
52346,-52.6315789473684,4,2,1,60,0,0
63551,-125,4,2,1,60,0,0
63912,361.44578313253,4,2,1,75,1,0
63912,-100,4,2,1,75,0,0
69695,-83.3333333333333,4,2,1,80,0,0
110177,722.89156626506,4,2,1,65,1,0
110177,-52.6315789473684,4,2,1,65,0,0
121743,-62.5,4,2,1,55,0,0
133309,361.44578313253,4,2,1,70,1,0
133309,-111.111111111111,4,2,1,70,0,0
147766,-99.9999999999999,4,2,1,75,0,0
168007,722.89156626506,4,2,1,60,1,0
168007,-71.4285714285714,4,2,1,60,0,0
173790,-71.4285714285714,4,2,1,50,0,0
194031,-50,4,2,1,70,0,0
197646,722.89156626506,4,2,1,70,1,0
197646,-50,4,2,1,70,0,0
209212,361.44578313253,4,2,1,40,1,0
209212,-111.111111111111,4,2,1,40,0,0
217163,-100,4,2,1,70,0,0
220778,-83.3333333333333,4,2,1,80,0,0
238127,722.89156626506,4,2,1,65,1,0
238127,-52.6315789473684,4,2,1,65,0,0
248789,-41.6666666666667,4,2,1,70,0,0

[Colours]
Combo1 : 130,151,249
Combo2 : 96,190,247

[HitObjects]
448,320,298,6,0,L|429:269,2,53.9999983520508,2|0|0,0:0|0:0|0:0,0:0:0:0:
353,301,659,2,0,L|371:351,2,53.9999983520508
286,245,1020,2,0,L|267:295,2,53.9999983520508,2|0|0,0:0|0:0|0:0,0:0:0:0:
191,264,1382,2,0,L|209:213,2,53.9999983520508
117,311,1743,6,0,L|66:292,2,53.9999983520508,2|0|0,0:0|0:0|0:0,0:0:0:0:
12,227,2105,2,0,L|62:208,2,53.9999983520508
117,143,2466,2,0,L|66:124,2,53.9999983520508,2|0|0,0:0|0:0|0:0,0:0:0:0:
12,59,2828,1,0,0:0:0:0:
217,74,3189,6,0,L|203:126,2,53.9999983520508,2|0|0,0:0|0:0|0:0,0:0:0:0:
292,128,3551,2,0,L|344:141,2,53.9999983520508
289,217,3912,2,0,L|275:269,2,53.9999983520508,2|0|0,0:0|0:0|0:0,0:0:0:0:
200,214,4273,2,0,L|147:200,2,53.9999983520508
275,269,4635,6,0,L|289:217,2,53.9999983520508,2|0|0,0:0|0:0|0:0,0:0:0:0:
344,141,4996,2,0,L|292:128,2,53.9999983520508
203,126,5358,2,0,L|217:74,2,53.9999983520508,2|0|0,0:0|0:0|0:0,0:0:0:0:
148,199,5719,1,0,0:0:0:0:
330,89,6081,6,0,L|343:141,2,53.9999983520508,2|0|0,0:0|0:0|0:0,0:0:0:0:
420,178,6442,2,0,L|381:216,2,53.9999983520508
389,300,6804,2,0,L|336:286,2,53.9999983520508,2|0|0,0:0|0:0|0:0,0:0:0:0:
267,334,7165,2,0,L|253:281,2,53.9999983520508
213,206,7526,6,0,L|174:244,2,53.9999983520508,2|0|0,0:0|0:0|0:0,0:0:0:0:
89,234,7888,2,0,L|102:286,2,53.9999983520508
51,355,8249,2,0,L|103:368,2,53.9999983520508,2|0|0,0:0|0:0|0:0,0:0:0:0:
180,328,8611,1,0,0:0:0:0:
46,170,8972,6,0,P|199:128|273:95,1,161.999995056153,2|0,0:0|0:0,0:0:0:0:
329,235,9514,1,0,0:0:0:0:
329,235,9695,2,0,P|277:220|197:206,1,80.9999975280763,2|0,0:0|0:0,0:0:0:0:
109,99,10057,2,0,P|131:175|145:251,1,107.999996704102
197,299,10418,6,0,P|148:255|54:271,2,161.999995056153,2|0|2,0:0|0:0|0:0,0:0:0:0:
279,105,11502,2,0,P|227:120|147:134,1,80.9999975280763
344,33,11864,6,0,P|441:31|483:97,1,170.999995433807,4|0,3:1|0:0,0:0:0:0:
454,201,12406,1,0,3:0:0:0:
336,183,12587,2,0,P|352:243|358:275,1,85.4999977169037,2|0,0:0|0:0,0:0:0:0:
479,384,12948,2,0,P|491:332|500:301,1,85.4999977169037,0|0,3:0|0:0,0:0:0:0:
238,336,13310,6,0,P|343:299|485:284,2,170.999995433807,2|0|10,0:0|0:0|0:0,0:0:0:0:
136,203,14213,1,2,0:0:0:0:
230,237,14394,1,2,0:0:0:0:
306,172,14575,1,2,0:0:0:0:
212,360,14755,6,0,P|148:305|27:346,1,170.999995433807,2|0,3:2|0:0,0:0:0:0:
230,237,15297,1,0,3:0:0:0:
145,107,15478,2,0,P|192:118|306:158,1,85.4999977169037,2|0,0:0|0:0,0:0:0:0:
53,224,15840,2,0,P|79:216|153:200,1,85.4999977169037,0|0,3:0|0:0,0:0:0:0:
313,68,16201,6,0,P|256:140|291:223,2,170.999995433807,2|0|10,0:0|0:0|0:0,0:0:0:0:
457,156,17105,1,2,0:0:0:0:
412,69,17285,1,2,0:0:0:0:
493,13,17466,1,2,0:0:0:0:
353,156,17647,6,0,P|256:134|102:127,1,170.999995433807,2|0,3:2|0:0,0:0:0:0:
283,33,18189,1,0,3:0:0:0:
132,96,18370,2,0,P|144:146|152:185,1,85.4999977169037,2|0,0:0|0:0,0:0:0:0:
45,30,18731,2,0,P|22:66|24:112,1,85.4999977169037,0|0,3:0|0:0,0:0:0:0:
106,264,19093,6,0,P|204:262|246:200,2,170.999995433807,2|0|10,0:0|0:0|0:0,0:0:0:0:
224,114,19996,1,2,0:0:0:0:
150,179,20177,1,2,0:0:0:0:
243,208,20358,1,2,0:0:0:0:
298,23,20538,6,0,P|322:91|362:257,1,170.999995433807,2|0,3:2|0:0,0:0:0:0:
512,284,21081,1,0,3:0:0:0:
415,297,21261,2,0,P|418:272|442:196,1,85.4999977169037,2|0,0:0|0:0,0:0:0:0:
331,357,21623,2,0,P|318:316|311:273,1,85.4999977169037,0|0,3:0|0:0,0:0:0:0:
445,120,21984,6,0,P|416:73|348:115,1,128.249996575356,2|0,0:0|0:0,0:0:0:0:
338,62,22346,2,0,P|280:45|266:111,1,135,2|0,0:0|0:0,0:0:0:0:
193,162,22707,2,0,P|239:154|338:125,1,94.499997116089,10|0,0:0|0:0,0:0:0:0:
131,268,23069,2,0,P|72:251|-41:232,1,99.0000030212403,10|0,0:0|0:0,0:0:0:0:
227,360,23430,6,0,P|290:296|357:321,1,170.999995433807,2|0,3:2|0:0,0:0:0:0:
511,208,23972,1,0,3:0:0:0:
461,364,24153,2,0,P|435:274|400:175,1,170.999995433807,10|0,0:0|3:0,0:0:0:0:
286,31,24876,6,0,P|334:57|391:77,1,85.4999977169037,2|0,0:0|0:0,0:0:0:0:
402,78,25147,1,0,0:0:0:0:
402,78,25237,1,2,0:0:0:0:
264,206,25418,1,0,0:0:0:0:
494,98,25599,2,0,B|415:110|286:150,1,170.999995433807,10|0,0:0|0:0,0:0:0:0:
184,23,26141,1,0,0:0:0:0:
31,164,26322,6,0,P|118:185|182:131,1,170.999995433807,2|0,3:2|0:0,0:0:0:0:
264,206,26864,1,0,3:0:0:0:
95,90,27044,2,0,P|91:197|72:316,1,170.999995433807,10|0,0:0|3:0,0:0:0:0:
76,297,27496,1,0,0:0:0:0:
76,297,27587,1,0,0:0:0:0:
327,283,27767,6,0,P|261:233|181:255,2,170.999995433807,2|2|10,0:0|0:0|0:0,0:0:0:0:
166,367,28671,1,0,0:0:0:0:
76,297,28852,1,2,0:0:0:0:
193,384,29032,1,0,0:0:0:0:
264,206,29213,6,0,P|374:196|494:175,1,170.999995433807,2|0,3:2|0:0,0:0:0:0:
349,306,29755,1,0,3:0:0:0:
260,108,29936,2,0,P|150:98|30:77,1,170.999995433807,10|0,0:0|3:0,0:0:0:0:
73,297,30659,6,0,P|108:270|162:272,1,85.4999977169037,2|0,0:0|0:0,0:0:0:0:
187,283,30930,1,0,0:0:0:0:
187,283,31020,1,2,0:0:0:0:
30,200,31201,1,0,0:0:0:0:
145,384,31382,2,0,P|237:347|387:324,1,170.999995433807,10|2,0:0|0:0,0:0:0:0:
485,235,31924,1,0,0:0:0:0:
345,93,32105,6,0,B|376:208|389:294,1,170.999995433807,2|0,3:2|0:0,0:0:0:0:
469,72,32647,1,0,3:0:0:0:
324,187,32828,2,0,P|282:192|234:168,1,85.4999977169037,10|0,0:0|0:0,0:0:0:0:
133,36,33189,2,0,P|169:16|215:18,1,85.4999977169037,0|0,3:0|0:0,0:0:0:0:
73,216,33551,6,0,P|51:179|55:133,1,85.4999977169037,2|0,0:0|0:0,0:0:0:0:
133,36,33912,1,2,0:0:0:0:
133,36,34093,1,2,0:0:0:0:
216,100,34273,1,10,0:0:0:0:
216,100,34454,1,2,0:0:0:0:
170,191,34635,1,2,0:0:0:0:
170,191,34816,1,2,0:0:0:0:
366,64,34996,6,0,P|291:114|211:96,1,170.999995433807,2|0,3:2|0:0,0:0:0:0:
439,169,35538,1,0,3:0:0:0:
341,306,35719,2,0,P|321:222|305:138,1,170.999995433807,10|0,0:0|3:0,0:0:0:0:
117,45,36442,6,0,P|126:86|133:128,1,85.4999977169037,2|0,0:0|0:0,0:0:0:0:
135,166,36713,1,0,0:0:0:0:
135,166,36804,1,2,0:0:0:0:
281,72,36984,1,0,0:0:0:0:
190,258,37165,2,0,P|121:204|36:228,1,170.999995433807,10|2,0:0|0:0,0:0:0:0:
122,354,37707,1,0,0:0:0:0:
239,172,37888,6,0,P|287:274|239:344,1,170.999995433807,2|0,3:2|0:0,0:0:0:0:
135,166,38430,1,0,3:0:0:0:
320,98,38611,2,0,P|362:107|408:115,1,85.4999977169037,10|0,0:0|0:0,0:0:0:0:
492,62,38972,1,0,3:0:0:0:
411,308,39334,6,0,B|375:261|375:261|399:145,2,170.999995433807,2|2|10,0:0|0:0|0:0,0:0:0:0:
488,224,40237,1,0,0:0:0:0:
301,181,40418,2,0,P|310:148|320:97,1,85.4999977169037,2|0,0:0|0:0,0:0:0:0:
211,268,40779,6,0,P|110:308|-20:324,1,170.999995433807,2|0,3:2|0:0,0:0:0:0:
190,164,41322,1,0,3:0:0:0:
292,326,41502,2,0,P|393:366|523:382,1,170.999995433807,10|0,0:0|3:0,0:0:0:0:
190,164,42225,6,0,P|89:204|-41:220,1,170.999995433807,2|2,0:0|0:0,0:0:0:0:
211,268,42767,1,0,0:0:0:0:
80,113,42948,2,0,P|126:100|174:79,1,85.4999977169037,10|0,0:0|0:0,0:0:0:0:
361,206,43310,2,0,P|271:181|197:168,1,128.249996575356,2|0,0:0|0:0,0:0:0:0:
190,164,43672,5,2,3:2:0:0:
227,148,43852,1,2,0:0:0:0:
265,133,44032,1,2,0:0:0:0:
211,268,44214,5,2,3:2:0:0:
286,237,44394,1,10,0:0:0:0:
361,206,44575,1,2,0:0:0:0:
244,29,44755,6,0,P|285:39|402:61,1,85.4999977169037,0|0,3:0|0:0,0:0:0:0:
399,278,45117,2,0,P|391:239|356:202,1,85.4999977169037,2|0,0:0|0:0,0:0:0:0:
321,189,45388,1,0,0:0:0:0:
321,189,45478,2,0,P|222:181|202:175,1,85.4999977169037,2|0,0:0|0:0,0:0:0:0:
474,106,45840,2,0,P|453:164|442:210,1,85.4999977169037,10|0,0:0|0:0,0:0:0:0:
312,309,46201,6,0,P|338:302|363:294,1,54,2|0,0:0|0:0,0:0:0:0:
377,383,46563,6,0,P|298:351|178:321,1,170.999995433807,4|0,3:1|0:0,0:0:0:0:
46,351,47105,1,0,3:0:0:0:
232,279,47285,2,0,P|192:291|145:302,1,85.4999977169037
321,189,47647,1,0,3:0:0:0:
119,35,48008,5,2,0:0:0:0:
143,117,48370,1,2,0:0:0:0:
167,199,48731,1,8,0:0:0:0:
119,35,49093,2,0,P|160:25|201:12,1,85.4999977169037,2|0,0:0|0:0,0:0:0:0:
276,95,49454,6,0,P|353:52|419:77,1,161.999995056153,0|0,3:0|0:0,0:0:0:0:
498,4,49996,2,0,P|450:149|450:232,1,161.999995056153,0|0,3:0|0:0,0:0:0:0:
356,150,50538,1,0,3:0:0:0:
356,150,50719,1,0,0:0:0:0:
351,278,50900,6,0,P|446:242|549:219,2,161.999995056153,2|2|8,0:0|0:0|0:0,0:0:0:0:
167,199,51984,2,0,P|180:242|186:267,1,54,2|0,0:0|0:0,0:0:0:0:
243,295,52346,6,0,P|219:215|196:121,1,170.999995433807,0|0,3:0|0:0,0:0:0:0:
74,253,52888,1,0,3:0:0:0:
190,91,53069,2,0,P|147:104|108:114,1,85.4999977169037
316,178,53430,1,0,3:0:0:0:
122,14,53791,5,2,0:0:0:0:
122,14,54334,1,0,0:0:0:0:
190,91,54514,2,0,P|269:111|349:57,1,170.999995433807,8|2,0:0|0:0,0:0:0:0:
478,98,55057,1,0,0:0:0:0:
423,272,55237,6,0,P|388:189|313:178,1,170.999995433807,0|0,3:0|0:0,0:0:0:0:
245,374,55779,1,0,3:0:0:0:
120,307,55960,2,0,P|204:293|286:271,1,170.999995433807,0|0,0:0|3:0,0:0:0:0:
237,111,56502,6,0,P|225:157|212:226,1,85.4999977169037,0|2,0:0|0:0,0:0:0:0:
109,130,56864,1,0,0:0:0:0:
333,94,57044,2,0,P|318:55|262:15,1,85.4999977169037,2|0,0:0|0:0,0:0:0:0:
135,222,57406,2,0,P|149:253|193:281,2,85.4999977169037,8|2|2,0:0|0:0|0:0,0:0:0:0:
237,111,57948,1,2,0:0:0:0:
237,111,63551,6,0,P|195:132|173:129,1,54,2|0,0:0|0:0,0:0:0:0:
100,142,63912,6,0,P|164:164|187:264,1,135,4|0,3:1|0:0,0:0:0:0:
156,303,64273,2,0,P|207:258|305:288,1,135,0|0,3:0|0:0,0:0:0:0:
323,335,64634,2,0,P|310:268|385:198,1,135,0|0,3:0|0:0,0:0:0:0:
434,206,64996,2,0,P|370:184|347:84,1,135,0|0,3:0|0:0,0:0:0:0:
261,86,65357,6,0,L|439:62,1,135,0|0,3:0|0:0,0:0:0:0:
255,125,65719,2,0,L|121:108,1,135,0|0,3:0|0:0,0:0:0:0:
82,102,66080,1,0,3:0:0:0:
186,200,66261,1,0,1:0:0:0:
50,242,66442,1,0,1:0:0:0:
202,24,66622,1,0,1:0:0:0:
256,317,66803,5,0,3:0:0:0:
256,317,68610,1,0,3:0:0:0:
256,317,69152,1,0,1:0:0:0:
350,335,69333,1,0,1:0:0:0:
444,353,69514,1,0,1:0:0:0:
278,231,69695,6,0,P|213:234|178:273,1,107.999996704102,4|0,3:2|0:0,0:0:0:0:
166,302,69966,1,0,3:0:0:0:
166,302,70056,1,0,1:0:0:0:
221,146,70237,2,0,L|272:131,1,53.9999983520508,2|0,0:0|0:0,0:0:0:0:
365,108,70418,1,0,0:0:0:0:
133,72,70598,1,2,3:2:0:0:
278,231,70779,1,0,1:0:0:0:
388,2,70960,1,2,0:0:0:0:
388,2,71050,1,0,0:0:0:0:
388,2,71140,6,0,P|371:71|359:155,1,107.999996704102,0|0,3:0|3:0,0:0:0:0:
423,206,71502,1,0,1:0:0:0:
272,130,71683,1,2,0:0:0:0:
243,138,71773,1,0,0:0:0:0:
218,154,71863,1,0,0:0:0:0:
197,176,71954,1,0,0:0:0:0:
184,204,72044,1,2,3:2:0:0:
301,336,72225,2,0,P|291:282|277:230,1,107.999996704102,0|2,1:0|0:0,0:0:0:0:
159,78,72586,5,0,3:0:0:0:
19,178,72767,2,0,P|36:173|71:165,1,53.9999983520508,2|0,0:0|3:0,0:0:0:0:
184,204,72948,1,0,1:0:0:0:
43,38,73128,5,2,0:0:0:0:
272,130,73309,1,0,0:0:0:0:
89,282,73490,5,2,3:2:0:0:
310,112,73671,1,0,1:0:0:0:
263,288,73851,1,2,0:0:0:0:
263,288,73942,1,0,0:0:0:0:
263,288,74032,5,0,3:0:0:0:
71,164,74213,1,2,3:2:0:0:
334,13,74393,1,0,1:0:0:0:
217,195,74574,6,0,P|148:178|64:166,1,107.999996704102,2|2,0:0|0:0,0:0:0:0:
395,290,74936,2,0,P|447:276|500:266,1,107.999996704102,2|0,3:2|1:0,0:0:0:0:
310,112,75297,1,2,0:0:0:0:
178,337,75478,6,0,P|108:345|62:309,1,107.999996704102,4|0,3:2|0:0,0:0:0:0:
51,296,75749,1,0,3:0:0:0:
51,296,75839,1,0,1:0:0:0:
101,118,76020,2,0,P|106:140|111:171,1,53.9999983520508,2|0,0:0|1:0,0:0:0:0:
218,245,76201,2,0,P|279:232|326:225,1,107.999996704102,0|0,0:0|3:0,0:0:0:0:
403,23,76562,1,2,1:2:0:0:
229,137,76743,1,2,0:0:0:0:
459,216,76924,5,2,3:2:0:0:
283,28,77104,1,0,3:0:0:0:
120,223,77285,2,0,P|113:169|100:117,1,107.999996704102,2|2,1:2|0:0,0:0:0:0:
95,81,77556,1,2,0:0:0:0:
95,81,77646,1,2,0:0:0:0:
291,154,77827,1,0,3:0:0:0:
66,278,78008,2,0,P|146:281|250:297,1,161.999995056153,0|0,1:0|0:0,0:0:0:0:
288,359,78369,6,0,P|318:303|310:251,1,107.999996704102,2|0,3:2|0:0,0:0:0:0:
281,234,78640,1,0,3:0:0:0:
281,234,78731,1,0,1:0:0:0:
414,358,78912,1,2,0:0:0:0:
446,354,79002,1,0,0:0:0:0:
473,336,79092,1,2,0:0:0:0:
490,308,79183,1,0,0:0:0:0:
494,276,79273,1,2,3:2:0:0:
401,72,79454,2,0,P|387:124|381:177,1,107.999996704102,0|2,1:0|0:0,0:0:0:0:
498,145,79815,5,2,3:2:0:0:
278,35,79996,1,0,3:0:0:0:
479,170,80177,1,0,1:0:0:0:
348,327,80357,1,2,0:0:0:0:
313,319,80448,1,2,0:0:0:0:
279,312,80538,1,2,0:0:0:0:
245,305,80629,1,0,0:0:0:0:
211,298,80719,1,2,3:2:0:0:
285,148,80899,2,0,P|338:146|382:179,1,107.999996704102,2|2,1:2|0:0,0:0:0:0:
475,384,81261,6,0,P|481:330|495:278,1,107.999996704102,4|2,3:2|0:0,0:0:0:0:
512,240,81532,1,0,3:0:0:0:
512,240,81622,1,0,1:0:0:0:
392,88,81803,1,2,0:0:0:0:
357,83,81894,1,0,1:0:0:0:
324,93,81984,1,0,0:0:0:0:
299,116,82075,1,0,0:0:0:0:
285,148,82165,6,0,P|289:174|291:201,1,53.9999983520508,0|0,3:0|0:0,0:0:0:0:
362,294,82345,2,0,P|357:320|355:347,1,53.9999983520508,0|0,1:0|0:0,0:0:0:0:
147,238,82526,1,2,0:0:0:0:
147,238,82616,1,0,1:0:0:0:
147,238,82707,6,0,P|200:231|252:217,1,107.999996704102,2|0,3:2|3:0,0:0:0:0:
291,201,82978,1,0,0:0:0:0:
291,201,83068,1,0,1:0:0:0:
153,348,83249,1,2,0:0:0:0:
153,348,83339,1,0,0:0:0:0:
153,348,83430,1,0,0:0:0:0:
53,167,83610,2,0,P|26:165|0:160,1,53.9999983520508,2|0,3:2|0:0,0:0:0:0:
147,238,83791,2,0,P|178:195|176:142,1,107.999996704102,2|0,1:2|0:0,0:0:0:0:
82,41,84152,5,4,3:2:0:0:
291,201,84333,1,2,0:0:0:0:
291,201,84424,1,0,3:0:0:0:
291,201,84514,1,0,1:0:0:0:
175,141,84695,1,2,0:0:0:0:
148,133,84785,1,0,1:0:0:0:
120,130,84875,5,0,0:0:0:0:
417,13,85056,1,0,3:0:0:0:
345,245,85237,2,0,P|328:176|316:92,1,107.999996704102,0|2,1:0|0:0,0:0:0:0:
272,59,85508,1,0,1:0:0:0:
272,59,85598,6,0,P|299:57|325:52,1,53.9999983520508,2|0,3:2|0:0,0:0:0:0:
486,165,85779,2,0,P|459:167|433:172,1,53.9999983520508,0|0,3:0|0:0,0:0:0:0:
241,214,85960,1,2,1:2:0:0:
421,371,86140,1,2,0:0:0:0:
421,371,86231,1,0,0:0:0:0:
421,371,86321,2,0,P|381:336|314:336,1,107.999996704102,0|0,0:0|3:0,0:0:0:0:
169,368,86683,2,0,P|116:363|76:328,1,107.999996704102,2|2,1:2|0:0,0:0:0:0:
0,97,87044,5,4,3:2:0:0:
153,272,87225,1,0,0:0:0:0:
153,272,87315,1,0,3:0:0:0:
153,272,87405,1,0,1:0:0:0:
228,51,87586,1,2,0:0:0:0:
223,79,87677,1,0,1:0:0:0:
204,99,87767,5,2,0:0:0:0:
6,219,87948,1,0,3:0:0:0:
96,14,88128,2,0,P|113:83|125:167,1,107.999996704102,0|2,1:0|0:0,0:0:0:0:
267,230,88490,6,0,P|272:203|274:176,1,53.9999983520508,2|0,3:2|0:0,0:0:0:0:
385,36,88671,2,0,P|437:40|477:75,1,107.999996704102,2|0,3:2|1:0,0:0:0:0:
459,261,89032,1,2,0:0:0:0:
459,261,89122,1,0,0:0:0:0:
459,261,89213,6,0,P|390:244|306:232,1,107.999996704102,2|0,0:0|3:0,0:0:0:0:
273,176,89484,1,2,0:0:0:0:
273,176,89574,2,0,P|242:183|220:189,1,53.9999983520508,0|0,1:0|0:0,0:0:0:0:
125,142,89755,2,0,P|102:163|86:180,1,53.9999983520508,2|0,0:0|0:0,0:0:0:0:
228,373,89936,6,0,P|223:320|188:280,1,107.999996704102,4|0,3:2|0:0,0:0:0:0:
150,264,90207,1,0,3:0:0:0:
150,264,90297,1,0,1:0:0:0:
34,166,90478,2,0,P|59:173|86:179,1,53.9999983520508,2|0,0:0|1:0,0:0:0:0:
220,189,90658,1,2,0:0:0:0:
13,280,90839,1,0,3:0:0:0:
115,63,91020,2,0,P|184:80|268:92,1,107.999996704102,2|2,1:2|0:0,0:0:0:0:
265,88,91291,1,0,1:0:0:0:
265,88,91381,5,2,3:2:0:0:
86,179,91562,1,0,3:0:0:0:
328,261,91743,1,0,1:0:0:0:
220,189,91924,6,0,P|213:214|207:241,1,53.9999983520508,2|0,0:0|1:0,0:0:0:0:
183,354,92104,1,2,0:0:0:0:
374,138,92285,6,0,P|379:164|387:190,1,53.9999983520508,2|0,3:2|0:0,0:0:0:0:
437,297,92465,1,0,1:0:0:0:
265,88,92646,1,2,1:2:0:0:
265,88,92737,1,0,1:0:0:0:
265,88,92827,6,0,P|223:55|170:57,1,107.999996704102,4|0,3:2|0:0,0:0:0:0:
134,77,93098,1,0,3:0:0:0:
134,77,93189,1,0,1:0:0:0:
62,288,93369,2,0,L|113:273,1,53.9999983520508,2|0,0:0|0:0,0:0:0:0:
206,241,93550,1,0,0:0:0:0:
23,158,93731,1,2,3:2:0:0:
277,166,93911,1,0,1:0:0:0:
137,378,94092,1,2,0:0:0:0:
137,378,94183,1,0,0:0:0:0:
137,378,94273,6,0,P|127:324|113:272,1,107.999996704102,0|0,3:0|3:0,0:0:0:0:
23,158,94634,1,0,1:0:0:0:
196,38,94815,1,2,0:0:0:0:
185,69,94905,1,0,0:0:0:0:
174,100,94996,1,0,0:0:0:0:
163,131,95086,1,0,0:0:0:0:
152,162,95177,1,2,3:2:0:0:
0,23,95357,2,0,P|53:13|105:0,1,107.999996704102,0|2,1:0|0:0,0:0:0:0:
278,127,95719,5,0,3:0:0:0:
396,0,95899,2,0,P|392:26|389:53,1,53.9999983520508,2|0,0:0|3:0,0:0:0:0:
398,187,96080,1,0,1:0:0:0:
224,26,96261,5,2,0:0:0:0:
338,307,96442,1,0,0:0:0:0:
389,53,96622,5,2,3:2:0:0:
88,160,96803,1,0,1:0:0:0:
302,218,96984,1,2,0:0:0:0:
302,218,97074,1,0,0:0:0:0:
302,218,97165,5,0,3:0:0:0:
60,356,97345,1,2,3:2:0:0:
202,117,97526,1,0,1:0:0:0:
402,319,97707,6,0,P|471:336|555:348,1,107.999996704102,2|2,0:0|0:0,0:0:0:0:
194,233,98068,2,0,P|125:250|41:262,1,107.999996704102,2|0,3:2|1:0,0:0:0:0:
350,82,98430,1,2,0:0:0:0:
311,348,98610,6,0,P|278:306|280:253,1,107.999996704102,4|0,3:2|0:0,0:0:0:0:
302,218,98881,1,0,3:0:0:0:
302,218,98972,1,0,1:0:0:0:
445,279,99152,2,0,P|449:305|455:332,1,53.9999983520508,2|0,0:0|1:0,0:0:0:0:
279,253,99333,2,0,P|269:199|255:147,1,107.999996704102,0|0,0:0|3:0,0:0:0:0:
350,82,99695,1,2,1:2:0:0:
169,224,99875,1,2,0:0:0:0:
331,367,100056,5,2,3:2:0:0:
255,147,100237,1,0,3:0:0:0:
167,58,100418,5,2,1:2:0:0:
123,320,100598,1,2,0:0:0:0:
5,359,100779,5,2,0:0:0:0:
273,284,100960,1,0,3:0:0:0:
367,207,101140,5,2,1:2:0:0:
81,135,101321,1,2,0:0:0:0:
211,238,101502,6,0,P|224:290|244:385,1,107.999996704102,2|0,3:2|0:0,0:0:0:0:
232,382,101773,1,0,3:0:0:0:
232,382,101863,1,0,1:0:0:0:
367,207,102044,1,2,0:0:0:0:
367,207,102134,1,0,0:0:0:0:
367,207,102225,2,0,P|408:174|467:177,1,107.999996704102,0|0,0:0|3:0,0:0:0:0:
498,195,102496,1,0,0:0:0:0:
498,195,102586,1,0,1:0:0:0:
408,341,102767,1,2,0:0:0:0:
264,247,102948,6,0,P|235:241|210:237,1,53.9999983520508,2|0,3:2|0:0,0:0:0:0:
117,172,103128,2,0,P|88:177|63:181,1,53.9999983520508,0|0,3:0|0:0,0:0:0:0:
0,283,103309,1,0,1:0:0:0:
13,76,103490,1,2,0:0:0:0:
13,76,103580,1,0,1:0:0:0:
13,76,103671,2,0,P|68:67|151:50,1,107.999996704102,2|0,0:0|3:0,0:0:0:0:
242,3,104032,1,2,1:2:0:0:
117,172,104213,1,2,0:0:0:0:
368,143,104393,6,0,P|327:110|268:113,1,107.999996704102,4|0,3:2|0:0,0:0:0:0:
236,124,104665,1,0,3:0:0:0:
236,124,104755,1,0,1:0:0:0:
376,257,104936,1,2,0:0:0:0:
411,248,105026,1,0,0:0:0:0:
442,230,105116,1,2,0:0:0:0:
466,203,105207,1,0,0:0:0:0:
478,170,105297,6,0,P|474:144|472:117,1,53.9999983520508,0|0,3:0|0:0,0:0:0:0:
350,0,105478,2,0,P|354:26|356:53,1,53.9999983520508,0|0,1:0|0:0,0:0:0:0:
294,211,105658,1,2,0:0:0:0:
294,211,105749,1,0,1:0:0:0:
294,211,105839,6,0,P|241:196|188:189,1,107.999996704102,2|0,3:2|3:0,0:0:0:0:
110,92,106201,1,0,1:0:0:0:
179,298,106381,1,2,0:0:0:0:
179,298,106472,1,2,0:0:0:0:
179,298,106562,1,2,0:0:0:0:
273,110,106743,1,2,3:2:0:0:
33,181,106924,2,0,P|48:234|61:324,1,107.999996704102,2|2,1:2|0:0,0:0:0:0:
188,189,107285,5,2,3:2:0:0:
4,60,107466,1,0,1:0:0:0:
4,60,107556,1,0,1:0:0:0:
4,60,107646,1,0,1:0:0:0:
57,286,107827,1,2,0:0:0:0:
57,286,107918,1,0,0:0:0:0:
57,286,108008,5,2,0:0:0:0:
141,84,108189,1,0,3:0:0:0:
22,311,108369,2,0,P|75:320|127:334,1,107.999996704102,0|2,1:0|0:0,0:0:0:0:
166,348,108640,1,2,0:0:0:0:
166,348,108731,5,2,3:2:0:0:
308,120,108911,1,2,0:0:0:0:
386,241,109092,5,0,3:0:0:0:
141,84,109273,1,0,1:0:0:0:
207,228,109454,5,0,3:0:0:0:
349,0,109634,1,2,0:0:0:0:
491,172,109815,1,0,3:0:0:0:
474,143,109905,1,0,0:0:0:0:
448,121,109996,1,0,1:0:0:0:
418,103,110087,1,0,1:0:0:0:
383,95,110177,6,0,P|304:119|202:144,1,170.999995433807,6|0,3:2|0:0,0:0:0:0:
140,213,110719,1,0,3:0:0:0:
156,56,110899,2,0,P|200:35|255:45,1,85.4999977169037,2|0,0:0|0:0,0:0:0:0:
72,124,111261,2,0,P|31:110|2:65,1,85.4999977169037,0|0,3:0|0:0,0:0:0:0:
43,275,111622,6,0,P|148:238|290:223,2,170.999995433807,2|0|10,0:0|0:0|0:0,0:0:0:0:
218,140,112526,1,2,0:0:0:0:
317,160,112707,1,2,0:0:0:0:
416,180,112887,1,2,0:0:0:0:
263,52,113068,6,0,P|168:54|122:117,1,170.999995433807,2|0,3:2|0:0,0:0:0:0:
272,224,113610,1,0,3:0:0:0:
197,288,113791,2,0,P|173:209|218:140,1,170.999995433807,2|0,0:0|3:0,0:0:0:0:
393,75,114333,1,0,0:0:0:0:
272,224,114514,6,0,P|348:243|373:256,1,85.4999977169037,2|0,0:0|0:0,0:0:0:0:
485,318,114875,2,0,P|409:337|384:350,1,85.4999977169037
198,346,115237,1,10,0:0:0:0:
174,248,115417,1,2,0:0:0:0:
272,224,115598,1,2,0:0:0:0:
296,322,115779,1,2,0:0:0:0:
115,213,115960,6,0,P|131:114|137:-2,1,170.999995433807,2|0,3:2|0:0,0:0:0:0:
42,124,116502,1,0,3:0:0:0:
256,121,116683,2,0,P|195:135|166:140,1,85.4999977169037,2|0,0:0|0:0,0:0:0:0:
298,15,117044,2,0,P|340:14|377:33,1,85.4999977169037,0|0,3:0|0:0,0:0:0:0:
336,254,117405,6,0,P|291:185|315:106,2,170.999995433807,2|0|10,0:0|0:0|0:0,0:0:0:0:
495,100,118309,1,2,0:0:0:0:
410,151,118490,1,2,0:0:0:0:
497,199,118670,1,2,0:0:0:0:
377,33,118851,6,0,P|297:59|134:83,1,170.999995433807,2|0,3:2|0:0,0:0:0:0:
292,185,119393,1,0,3:0:0:0:
142,18,119574,2,0,P|121:62|131:117,1,85.4999977169037,2|0,0:0|0:0,0:0:0:0:
207,252,119936,2,0,P|207:209|188:172,1,85.4999977169037,0|0,3:0|0:0,0:0:0:0:
32,306,120297,6,0,P|115:322|197:349,2,170.999995433807,2|0|2,0:0|0:0|0:0,0:0:0:0:
187,171,121381,2,0,P|263:190|288:203,1,85.4999977169037,2|0,0:0|0:0,0:0:0:0:
367,302,121743,6,0,P|463:331|462:216,1,216,4|0,3:1|3:0,0:0:0:0:
391,197,122466,1,2,0:0:0:0:
402,227,123189,1,2,0:0:0:0:
413,257,123911,2,0,B|303:211|320:350|179:279,1,216,2|0,0:0|0:0,0:0:0:0:
157,201,124634,6,0,B|102:257|102:257|158:394,2,216,2|0|2,3:2|3:0|0:0,0:0:0:0:
260,116,126080,1,2,0:0:0:0:
290,125,126442,1,2,0:0:0:0:
198,25,126803,1,2,0:0:0:0:
168,34,127165,1,2,0:0:0:0:
44,154,127526,6,0,P|130:167|250:223,1,216,0|0,3:0|3:0,0:0:0:0:
315,294,128249,1,2,0:0:0:0:
324,262,128972,1,2,0:0:0:0:
333,230,129695,2,0,P|247:243|127:299,1,216,2|0,0:0|0:0,0:0:0:0:
85,377,130417,6,0,P|-1:333|44:248,2,216,2|0|2,3:2|3:0|0:0,0:0:0:0:
226,252,131863,2,0,P|213:166|157:46,1,216,2|0,0:0|0:0,0:0:0:0:
85,14,132586,2,0,P|73:63|91:91,1,72,0|0,1:0|0:0,0:0:0:0:
188,133,132948,1,0,1:0:0:0:
201,123,133038,1,0,1:0:0:0:
216,117,133128,1,0,1:0:0:0:
233,116,133219,1,0,1:0:0:0:
248,122,133309,6,0,P|229:179|227:200,1,80.9999975280763,2|0,3:2|0:0,0:0:0:0:
235,234,133580,1,0,3:0:0:0:
235,234,133670,1,2,1:2:0:0:
101,313,133851,2,0,P|59:284|9:282,1,80.9999975280763,2|2,0:0|0:0,0:0:0:0:
233,373,134212,1,2,3:2:0:0:
149,220,134393,2,0,P|188:213|226:199,1,80.9999975280763,0|2,1:0|0:0,0:0:0:0:
379,321,134754,6,0,P|372:281|358:243,1,80.9999975280763,2|0,3:2|0:0,0:0:0:0:
341,215,135025,1,0,3:0:0:0:
341,215,135116,1,2,1:2:0:0:
465,82,135296,1,0,3:0:0:0:
440,60,135658,1,0,3:0:0:0:
341,215,135839,2,0,P|380:221|418:235,1,80.9999975280763,2|2,1:2|0:0,0:0:0:0:
287,73,136200,6,0,P|249:87|182:96,1,80.9999975280763,2|0,3:2|0:0,0:0:0:0:
179,80,136471,1,0,3:0:0:0:
179,80,136562,1,2,1:2:0:0:
56,151,136742,2,0,P|27:109|25:59,1,80.9999975280763,2|2,0:0|0:0,0:0:0:0:
173,206,137104,1,2,3:2:0:0:
70,297,137284,2,0,P|30:288|0:263,1,80.9999975280763,0|2,1:0|0:0,0:0:0:0:
187,352,137646,6,0,P|218:327|273:320,1,80.9999975280763,2|0,3:2|0:0,0:0:0:0:
291,330,137917,1,0,3:0:0:0:
291,330,138007,1,2,1:2:0:0:
458,238,138188,1,0,3:0:0:0:
470,208,138549,1,0,3:0:0:0:
402,370,138730,2,0,P|387:332|381:292,1,80.9999975280763,2|2,1:2|0:0,0:0:0:0:
498,99,139092,6,0,P|483:137|477:177,1,80.9999975280763,2|0,3:2|0:0,0:0:0:0:
470,208,139363,1,2,3:2:0:0:
470,208,139453,1,0,1:2:0:0:
348,106,139634,2,0,P|291:87|270:85,1,80.9999975280763,2|2,0:0|0:0,0:0:0:0:
171,222,139995,2,0,P|228:203|249:201,1,80.9999975280763,2|0,3:2|1:0,0:0:0:0:
86,79,140357,6,0,P|25:102|28:218,1,161.999995056153,2|2,0:0|0:0,0:0:0:0:
24,221,140809,1,2,3:2:0:0:
24,221,140899,1,0,1:2:0:0:
170,266,141080,2,0,P|163:226|149:188,1,80.9999975280763,0|2,3:0|0:0,0:0:0:0:
71,353,141441,1,0,3:0:0:0:
249,327,141622,2,0,P|288:335|319:360,1,80.9999975280763,2|2,1:2|0:0,0:0:0:0:
473,234,141983,5,2,1:2:0:0:
396,297,142164,1,0,0:0:0:0:
399,144,142345,5,0,1:0:0:0:
317,245,142525,1,2,0:0:0:0:
298,84,142706,5,0,1:0:0:0:
224,223,142887,1,2,0:0:0:0:
182,62,143068,5,2,1:2:0:0:
129,234,143248,1,0,0:0:0:0:
65,81,143429,5,2,1:2:0:0:
43,276,143610,2,0,P|28:238|22:198,1,80.9999975280763,0|0,0:0|1:0,0:0:0:0:
140,338,143971,1,2,0:0:0:0:
224,223,144152,2,0,P|255:248|310:255,1,80.9999975280763,2|0,1:2|0:0,0:0:0:0:
431,246,144513,1,2,1:2:0:0:
459,232,144604,1,0,1:0:0:0:
478,207,144694,1,0,1:0:0:0:
485,176,144785,1,0,1:0:0:0:
478,145,144875,6,0,P|364:169|287:200,1,161.999995056153,4|2,3:1|0:0,0:0:0:0:
257,73,145417,1,0,0:0:0:0:
257,73,145598,2,0,P|220:302|221:348,1,242.999992584229,2|0,0:0|0:0,0:0:0:0:
71,253,146321,2,0,P|117:194|225:213,1,161.999995056153,2|0,0:0|0:0,0:0:0:0:
326,296,146863,1,2,1:2:0:0:
326,296,147766,5,4,3:2:0:0:
399,217,147947,1,2,0:0:0:0:
399,217,148037,1,0,0:0:0:0:
399,217,148128,1,0,3:0:0:0:
431,320,148309,5,2,1:2:0:0:
294,193,148489,1,2,3:2:0:0:
252,375,148670,2,0,P|205:368|147:364,1,90,2|0,0:0|3:0,0:0:0:0:
59,222,149031,6,0,P|96:252|150:248,1,90,2|0,1:2|3:0,0:0:0:0:
217,125,149393,2,0,P|210:73|207:30,1,90,2|0,0:0|3:0,0:0:0:0:
294,193,149754,1,2,1:2:0:0:
109,79,149935,2,0,P|115:123|119:175,1,90,2|2,3:2|0:0,0:0:0:0:
231,270,150296,1,2,3:2:0:0:
317,96,150477,1,2,1:2:0:0:
317,96,150568,1,0,1:0:0:0:
317,96,150658,6,0,P|356:52|472:70,1,180,4|0,3:2|3:2,0:0:0:0:
399,226,151200,1,2,0:0:0:0:
499,173,151381,1,2,3:2:0:0:
452,326,151562,1,2,1:2:0:0:
452,326,151652,1,0,0:0:0:0:
452,326,151742,1,0,3:0:0:0:
236,228,151923,6,0,P|243:176|246:133,1,90,2|0,0:0|3:0,0:0:0:0:
324,292,152284,2,0,P|317:344|314:387,1,90,2|0,0:0|3:0,0:0:0:0:
399,226,152646,1,0,1:0:0:0:
226,330,152827,2,0,P|174:323|131:320,1,90,0|0,3:0|1:0,0:0:0:0:
44,189,153188,1,2,3:2:0:0:
109,316,153369,1,2,1:2:0:0:
19,158,153549,6,0,P|63:154|108:148,1,90,6|0,3:2|0:0,0:0:0:0:
280,96,153911,1,2,3:0:0:0:
167,224,154092,1,2,0:0:0:0:
307,71,154272,6,0,P|313:115|316:160,1,90,2|0,3:2|0:0,0:0:0:0:
419,312,154634,1,2,3:2:0:0:
265,243,154815,1,2,0:0:0:0:
453,338,154995,6,0,P|408:341|363:347,1,90,2|2,3:2|0:0,0:0:0:0:
316,160,155357,2,0,P|360:156|405:150,1,90,2|0,3:2|1:0,0:0:0:0:
288,269,155718,2,0,P|243:272|198:278,1,90,2|2,3:2|0:0,0:0:0:0:
151,91,156080,2,0,P|195:87|240:81,1,90,2|0,3:2|1:0,0:0:0:0:
272,0,156351,1,0,1:0:0:0:
272,0,156441,6,0,P|157:15|51:27,1,180,6|0,3:2|3:0,0:0:0:0:
0,165,156983,1,2,0:0:0:0:
0,165,157074,1,0,0:0:0:0:
0,165,157164,2,0,P|47:192|90:191,1,90,0|0,3:0|0:0,0:0:0:0:
115,180,157435,1,0,0:0:0:0:
115,180,157525,1,0,3:0:0:0:
240,80,157706,1,0,1:0:0:0:
215,305,157887,5,2,3:2:0:0:
228,193,158068,1,2,0:0:0:0:
340,206,158248,1,0,3:0:0:0:
327,318,158429,1,0,1:0:0:0:
228,296,158610,5,2,3:2:0:0:
317,306,158791,1,2,0:0:0:0:
328,216,158971,1,0,3:0:0:0:
143,352,159152,1,0,1:0:0:0:
143,352,159242,1,0,1:0:0:0:
143,352,159333,6,0,P|96:295|145:198,1,180,4|0,3:2|3:0,0:0:0:0:
233,157,159875,1,2,1:2:0:0:
328,216,160055,1,2,3:2:0:0:
254,49,160236,2,0,P|193:60|135:66,1,90,2|0,0:0|3:0,0:0:0:0:
328,216,160598,6,0,P|326:160|354:119,1,90,2|0,1:2|3:0,0:0:0:0:
494,41,160959,2,0,P|496:97|468:138,1,90,2|0,0:0|3:0,0:0:0:0:
359,25,161321,1,2,1:2:0:0:
435,226,161501,5,2,3:2:0:0:
480,125,161682,1,2,0:0:0:0:
447,260,161863,1,2,3:2:0:0:
341,131,162043,1,2,1:2:0:0:
341,131,162134,1,0,1:0:0:0:
341,131,162224,6,0,P|245:115|141:115,1,180,4|0,3:2|3:2,0:0:0:0:
65,58,162766,1,2,0:0:0:0:
166,9,162947,1,2,3:2:0:0:
45,164,163128,2,0,P|59:224|61:264,1,90,2|0,1:2|3:0,0:0:0:0:
162,113,163489,6,0,P|217:116|251:146,1,90,2|0,0:0|3:0,0:0:0:0:
377,16,163851,2,0,P|322:19|288:49,1,90,2|0,0:0|3:0,0:0:0:0:
372,197,164212,1,0,1:0:0:0:
243,136,164393,1,0,3:0:0:0:
452,94,164574,1,0,1:0:0:0:
243,136,164754,2,0,P|254:202|259:269,1,135,2|0,3:2|1:0,0:0:0:0:
283,358,165116,6,0,P|263:321|150:310,1,135,6|0,3:2|0:0,0:0:0:0:
105,345,165477,2,0,P|49:359|2:335,1,90,2|0,3:2|1:0,0:0:0:0:
204,210,165839,1,2,3:2:0:0:
22,94,166019,1,2,0:0:0:0:
22,94,166110,1,0,0:0:0:0:
22,94,166200,1,2,3:2:0:0:
60,269,166381,1,0,1:0:0:0:
198,34,166562,5,2,3:2:0:0:
178,296,166742,1,2,0:0:0:0:
305,84,166923,1,2,3:2:0:0:
111,186,167104,1,0,1:0:0:0:
323,195,167284,2,0,P|382:206|418:216,1,90,2|2,3:2|0:0,0:0:0:0:
505,274,167646,1,2,3:2:0:0:
457,39,167827,1,0,1:0:0:0:
457,39,167917,1,0,1:0:0:0:
457,39,168007,6,0,P|399:101|284:58,1,188.999994232178,6|0,3:2|0:0,0:0:0:0:
221,22,168729,2,0,B|123:12|138:106|24:58,1,188.999994232178,2|0,0:0|0:0,0:0:0:0:
137,150,169452,2,0,B|175:136|199:112|199:112|159:282,1,220.499993270874,2|0,0:0|0:2,0:0:0:0:
148,331,170175,5,0,3:0:0:0:
256,192,170356,12,6,173790,3:2:0:0:
360,106,194031,5,4,3:2:0:0:
139,153,194211,1,0,3:0:0:0:
382,131,194392,1,0,3:0:0:0:
170,262,194573,5,4,3:2:0:0:
418,303,194753,1,0,3:0:0:0:
149,232,194934,1,0,3:0:0:0:
346,25,195115,5,4,3:2:0:0:
240,344,195296,1,4,3:2:0:0:
240,344,195838,6,0,P|227:302|216:257,1,90,0|0,3:0|0:0,0:0:0:0:
268,129,196199,1,0,1:0:0:0:
297,104,196290,1,0,1:0:0:0:
334,96,196380,1,0,1:0:0:0:
370,108,196470,1,0,1:0:0:0:
395,136,196560,1,0,1:0:0:0:
402,173,196652,1,0,1:0:0:0:
390,209,196742,1,0,1:0:0:0:
362,234,196832,1,0,1:0:0:0:
422,321,197103,6,0,P|388:302|254:271,1,135,2|0,3:2|0:0,0:0:0:0:
216,257,197464,1,0,1:0:0:0:
334,96,197646,6,0,P|476:61|543:35,1,180,4|0,3:2|0:0,0:0:0:0:
402,173,198188,1,2,3:2:0:0:
253,39,198368,2,0,P|207:44|171:71,1,90,0|2,1:0|0:0,0:0:0:0:
119,177,198730,1,0,0:0:0:0:
134,190,198820,1,0,0:0:0:0:
145,206,198911,1,2,3:2:0:0:
151,224,199000,1,0,0:0:0:0:
153,244,199091,1,2,0:0:0:0:
10,277,199272,6,0,P|31:267|48:254,1,45,0|0,3:0|0:0,0:0:0:0:
130,332,199453,2,0,P|139:351|152:370,1,45,0|0,3:0|0:0,0:0:0:0:
276,271,199633,2,0,P|229:266|148:243,1,90,2|0,0:0|1:0,0:0:0:0:
379,350,199995,2,0,P|332:355|251:378,1,90,2|0,3:2|0:0,0:0:0:0:
255,374,200266,1,0,0:0:0:0:
255,374,200356,1,2,1:2:0:0:
288,181,200537,6,0,P|283:225|266:310,2,90,0|2|0,3:0|0:0|0:0,0:0:0:0:
394,35,201079,1,2,3:2:0:0:
394,35,201170,1,0,0:0:0:0:
394,35,201260,2,0,P|401:79|410:167,1,90,0|2,1:0|0:0,0:0:0:0:
482,265,201621,1,0,0:0:0:0:
482,265,201712,1,0,0:0:0:0:
482,265,201802,6,0,P|437:257|349:248,1,90,2|0,3:2|0:0,0:0:0:0:
288,181,202164,2,0,P|281:158|271:139,1,45,0|0,3:0|0:0,0:0:0:0:
239,280,202344,2,0,P|219:290|197:296,1,45,0|0,3:0|0:0,0:0:0:0:
88,173,202525,2,0,P|131:184|202:193,1,90,2|0,0:0|1:0,0:0:0:0:
275,308,202886,2,0,P|231:320|189:336,1,90,2|0,3:2|0:0,0:0:0:0:
6,226,203248,1,2,1:2:0:0:
6,226,203338,1,0,0:0:0:0:
6,226,203429,6,0,P|-11:164|61:78,1,180,4|0,3:2|0:0,0:0:0:0:
224,168,203971,1,0,3:2:0:0:
66,0,204152,2,0,P|97:77|122:198,1,180,2|2,1:2|0:0,0:0:0:0:
275,75,204694,1,2,3:2:0:0:
279,258,204874,5,2,0:0:0:0:
279,258,205055,1,2,3:2:0:0:
224,168,205236,1,2,3:2:0:0:
224,168,205417,1,2,0:0:0:0:
420,139,205597,2,0,P|367:149|333:167,1,90,2|0,1:2|0:0,0:0:0:0:
281,76,205959,1,2,0:0:0:0:
281,76,206049,1,0,0:0:0:0:
281,76,206139,1,0,1:0:0:0:
455,231,206320,6,0,P|498:198|495:75,1,180,0|2,3:0|0:0,0:0:0:0:
359,6,206862,1,2,3:2:0:0:
420,139,207043,1,2,1:2:0:0:
420,139,207224,1,2,0:0:0:0:
499,80,207405,1,2,0:0:0:0:
499,80,207585,1,2,3:2:0:0:
329,186,207766,5,2,3:2:0:0:
191,119,207947,1,0,3:0:0:0:
72,207,208127,2,0,P|80:268|82:310,1,90,0|2,3:0|0:0,0:0:0:0:
88,340,208399,1,0,0:0:0:0:
88,340,208489,1,0,1:0:0:0:
224,231,208670,1,0,0:0:0:0:
142,46,208850,2,0,P|199:81|267:89,1,135
344,62,209212,5,2,3:2:0:0:
344,62,209573,1,0,3:0:0:0:
344,62,209934,1,0,3:0:0:0:
344,62,210295,1,0,3:0:0:0:
435,116,210477,1,2,0:0:0:0:
381,207,210657,5,0,3:0:0:0:
381,207,211018,1,0,3:0:0:0:
381,207,211379,1,0,3:0:0:0:
381,207,211742,1,0,3:0:0:0:
472,261,212103,5,0,3:0:0:0:
472,261,212464,1,0,3:0:0:0:
472,261,212825,1,0,3:0:0:0:
472,261,213186,1,0,3:0:0:0:
381,207,213368,1,2,0:0:0:0:
327,298,213549,5,0,3:0:0:0:
327,298,213910,1,0,3:0:0:0:
327,298,214271,1,0,3:0:0:0:
327,298,214633,1,0,3:0:0:0:
235,350,214815,1,2,0:0:0:0:
236,244,214995,5,0,3:0:0:0:
236,244,215356,1,0,3:0:0:0:
236,244,215717,1,0,3:0:0:0:
236,244,216078,1,0,3:0:0:0:
290,153,216440,5,0,3:0:0:0:
236,244,216621,2,0,P|184:235|127:232,1,80.9999975280763,2|0,0:0|3:0,0:0:0:0:
44,69,216983,1,2,0:0:0:0:
159,134,217163,6,0,P|98:149|68:197,1,90,4|0,3:2|0:0,0:0:0:0:
244,155,217434,2,0,P|200:110|143:108,1,90,4|0,3:2|0:0,0:0:0:0:
236,244,217705,1,4,3:2:0:0:
350,62,217886,6,0,B|381:183|382:281,1,180,4|0,3:2|0:0,0:0:0:0:
491,113,218428,1,0,3:0:0:0:
447,294,218609,2,0,P|379:286|300:287,1,135,0|0,1:0|0:0,0:0:0:0:
236,244,218971,6,0,P|190:238|177:358,1,180,4|0,3:2|0:0,0:0:0:0:
9,272,219513,1,0,3:0:0:0:
71,152,219693,2,0,P|132:137|162:129,1,90,0|2,3:0|0:0,0:0:0:0:
272,52,220055,1,0,1:0:0:0:
236,244,220236,1,2,0:0:0:0:
390,118,220416,1,0,1:0:0:0:
416,108,220507,1,0,1:0:0:0:
443,109,220597,1,2,1:2:0:0:
467,122,220688,1,0,1:0:0:0:
483,143,220778,6,0,P|463:210|456:265,1,107.999996704102,4|0,3:2|0:0,0:0:0:0:
315,132,221139,1,0,1:0:0:0:
310,376,221320,2,0,P|305:354|294:325,1,53.9999983520508,2|0,0:0|0:0,0:0:0:0:
236,244,221501,1,0,0:0:0:0:
420,352,221681,1,2,3:2:0:0:
325,164,221862,1,0,1:0:0:0:
182,334,222043,1,2,0:0:0:0:
182,334,222133,1,0,0:0:0:0:
182,334,222224,6,0,P|124:350|76:329,1,107.999996704102,0|0,3:0|3:0,0:0:0:0:
168,133,222585,1,0,1:0:0:0:
14,256,222766,1,2,0:0:0:0:
14,256,222856,1,0,0:0:0:0:
14,256,222946,2,0,P|81:236|130:228,1,107.999996704102,0|2,0:0|3:2,0:0:0:0:
235,56,223308,2,0,P|186:45|129:29,1,107.999996704102,0|2,1:0|0:0,0:0:0:0:
17,0,223669,5,0,3:0:0:0:
219,155,223850,1,2,0:0:0:0:
0,149,224031,5,0,1:0:0:0:
235,56,224212,1,2,0:0:0:0:
235,56,224302,1,0,1:0:0:0:
235,56,224392,1,0,0:0:0:0:
180,304,224573,5,2,3:2:0:0:
91,41,224754,1,0,1:0:0:0:
360,142,224934,6,0,P|371:88|391:37,1,107.999996704102,2|0,0:0|3:0,0:0:0:0:
295,285,225296,2,0,P|277:238|264:181,1,107.999996704102,2|0,3:2|1:0,0:0:0:0:
466,120,225657,1,2,0:0:0:0:
466,120,225748,1,2,0:0:0:0:
466,120,225838,1,2,0:0:0:0:
471,369,226019,2,0,P|429:341|391:298,1,107.999996704102,2|0,3:2|1:0,0:0:0:0:
264,181,226380,1,2,0:0:0:0:
94,358,226561,6,0,P|138:318|184:317,1,107.999996704102,4|0,3:2|0:0,0:0:0:0:
223,326,226832,1,0,3:0:0:0:
223,326,226922,1,0,1:0:0:0:
26,223,227103,1,2,0:0:0:0:
26,223,227193,1,0,1:0:0:0:
26,223,227284,5,0,0:0:0:0:
264,181,227465,1,0,3:0:0:0:
106,118,227645,5,2,1:2:0:0:
326,288,227826,1,2,0:0:0:0:
137,281,228007,5,2,3:2:0:0:
362,75,228187,1,0,3:0:0:0:
264,181,228368,5,2,1:2:0:0:
512,360,228549,1,2,0:0:0:0:
512,360,228639,1,0,0:0:0:0:
512,360,228730,2,0,P|458:369|406:384,1,107.999996704102,2|0,0:0|3:0,0:0:0:0:
494,117,229091,2,0,P|484:170|467:227,1,107.999996704102,2|0,1:2|0:0,0:0:0:0:
332,303,229452,6,0,P|332:250|299:208,1,107.999996704102,2|0,3:2|0:0,0:0:0:0:
267,190,229724,1,0,3:0:0:0:
267,190,229814,1,0,1:0:0:0:
78,75,229995,1,2,0:0:0:0:
78,75,230085,1,0,0:0:0:0:
78,75,230175,2,0,P|131:65|183:50,1,107.999996704102,0|0,0:0|3:0,0:0:0:0:
108,238,230537,1,0,1:0:0:0:
262,104,230718,1,2,0:0:0:0:
46,163,230898,6,0,P|13:204|81:334,1,215.999993408203,2|0,3:2|1:0,0:0:0:0:
237,208,231440,1,2,0:0:0:0:
237,208,231531,1,0,1:0:0:0:
237,208,231621,2,0,P|247:155|262:103,1,107.999996704102,2|0,0:0|3:0,0:0:0:0:
342,235,231983,1,2,1:2:0:0:
138,128,232163,1,2,0:0:0:0:
335,12,232344,6,0,P|387:11|429:44,1,107.999996704102,4|0,3:2|0:0,0:0:0:0:
442,84,232615,1,0,3:0:0:0:
442,84,232705,1,0,1:0:0:0:
342,235,232886,1,2,0:0:0:0:
310,219,232977,1,0,0:0:0:0:
287,193,233067,1,2,0:0:0:0:
281,159,233157,1,0,0:0:0:0:
292,125,233248,1,0,3:0:0:0:
441,191,233428,5,0,1:0:0:0:
256,318,233609,1,2,0:0:0:0:
203,69,233790,6,0,P|254:83|313:93,1,107.999996704102,2|0,3:2|3:0,0:0:0:0:
429,44,234151,1,0,1:0:0:0:
310,219,234332,1,2,0:0:0:0:
310,219,234422,1,2,0:0:0:0:
310,219,234513,1,2,0:0:0:0:
484,334,234693,1,2,3:2:0:0:
432,142,234874,2,0,P|417:193|407:252,1,107.999996704102,2|2,1:2|0:0,0:0:0:0:
256,318,235236,6,0,P|204:303|109:289,1,107.999996704102,2|0,3:2|1:0,0:0:0:0:
112,304,235507,1,0,1:0:0:0:
112,304,235597,1,0,1:0:0:0:
241,150,235778,1,2,0:0:0:0:
251,116,235868,1,0,0:0:0:0:
243,82,235958,1,2,0:0:0:0:
218,56,236049,1,0,0:0:0:0:
185,42,236139,1,0,3:0:0:0:
38,159,236320,2,0,P|91:149|142:134,1,107.999996704102,0|2,1:0|0:0,0:0:0:0:
342,136,236681,5,2,3:2:0:0:
75,56,236862,1,2,0:0:0:0:
369,115,237043,5,0,3:0:0:0:
100,230,237224,1,0,1:0:0:0:
388,84,237404,5,0,3:0:0:0:
213,359,237585,1,2,0:0:0:0:
391,220,237766,1,0,3:0:0:0:
429,222,237856,1,0,0:0:0:0:
458,245,237946,1,0,1:0:0:0:
470,281,238037,1,0,1:0:0:0:
460,318,238127,6,0,P|416:365|313:323,1,170.999995433807,6|0,3:2|0:0,0:0:0:0:
217,151,238669,1,0,3:0:0:0:
306,232,238849,2,0,P|346:227|395:219,1,85.4999977169037,2|0,0:0|0:0,0:0:0:0:
209,313,239211,2,0,P|169:308|112:293,1,85.4999977169037,0|0,3:0|0:0,0:0:0:0:
61,107,239572,6,0,P|159:81|212:140,2,170.999995433807,2|0|10,0:0|0:0|0:0,0:0:0:0:
125,297,240476,1,2,0:0:0:0:
202,226,240656,1,2,0:0:0:0:
306,232,240837,1,2,0:0:0:0:
250,31,241018,6,0,P|280:116|298:198,1,170.999995433807,2|0,3:2|0:0,0:0:0:0:
242,326,241560,1,0,3:0:0:0:
410,262,241741,2,0,P|448:257|495:279,1,85.4999977169037,2|0,0:0|0:0,0:0:0:0:
297,194,242102,2,0,P|311:158|354:128,1,85.4999977169037,0|0,3:0|0:0,0:0:0:0:
166,73,242464,6,0,P|249:54|329:25,2,170.999995433807,2|0|10,0:0|0:0|0:0,0:0:0:0:
297,194,243367,1,2,0:0:0:0:
191,182,243548,1,2,0:0:0:0:
85,170,243729,1,2,0:0:0:0:
256,291,243910,6,0,P|329:229|404:222,1,170.999995433807,2|0,3:2|0:0,0:0:0:0:
330,361,244452,1,0,3:0:0:0:
148,311,244633,2,0,P|121:299|61:289,1,85.4999977169037,2|0,0:0|0:0,0:0:0:0:
191,182,244994,2,0,P|203:155|213:95,1,85.4999977169037,0|0,3:0|0:0,0:0:0:0:
29,38,245355,6,0,P|8:128|120:119,2,170.999995433807,2|0|10,0:0|0:0|0:0,0:0:0:0:
241,5,246259,1,2,0:0:0:0:
212,100,246440,1,2,0:0:0:0:
145,28,246620,1,2,0:0:0:0:
316,129,246801,6,0,P|289:260|286:300,1,170.999995433807,2|0,3:2|0:0,0:0:0:0:
428,44,247524,2,0,P|455:175|458:215,1,170.999995433807,2|0,0:0|3:0,0:0:0:0:
339,384,248247,2,0,P|266:324|190:348,1,170.999995433807,2|2,0:0|0:0,0:0:0:0:
34,252,248789,6,0,P|87:243|145:233,1,107.999996704102,2|0,1:2|0:0,0:0:0:0:
249,144,249151,2,0,P|195:135|138:125,1,107.999996704102,2|0,1:2|0:0,0:0:0:0:
3,45,249512,2,0,P|56:36|114:26,1,107.999996704102,2|0,1:2|0:0,0:0:0:0:
