osu file format v14

[General]
AudioFilename: audio.mp3
AudioLeadIn: 0
PreviewTime: 163563
Countdown: 0
SampleSet: Soft
StackLeniency: 0.7
Mode: 0
LetterboxInBreaks: 0
WidescreenStoryboard: 0

[Editor]
DistanceSpacing: 2
BeatDivisor: 4
GridSize: 8
TimelineZoom: 1.8

[Metadata]
Title:confusion
TitleUnicode:confusion
Artist:nowisee
ArtistUnicode:nowisee
Creator:hot anime girl
Version:Fearful Star Extra
Source:
Tags:掌の戦争 Lasse Akitoshi Naotoshi Nao Tomori LMT Mir Maffe Shiratoi Ohwow Mordred
BeatmapID:1522329
BeatmapSetID:720882

[Difficulty]
HPDrainRate:6
CircleSize:4.2
OverallDifficulty:8.5
ApproachRate:9.4
SliderMultiplier:1.3
SliderTickRate:1

[Events]
//Background and Video events
0,0,"crycry.jpg",0,0
//Break Periods
2,164104,174103
//Storyboard Layer 0 (Background)
//Storyboard Layer 1 (Fail)
//Storyboard Layer 2 (Pass)
//Storyboard Layer 3 (Foreground)
//Storyboard Sound Samples

[TimingPoints]
268,340.909090909091,4,2,1,60,1,0
4870,-100,4,2,1,5,0,0
5040,-100,4,2,1,60,0,0
5552,-100,4,2,1,5,0,0
5722,-100,4,2,1,60,0,0
10324,-100,4,2,1,5,0,0
10495,-100,4,2,1,60,0,0
10665,-100,4,2,1,5,0,0
10836,-133.333333333333,4,2,1,60,0,0
11006,-133.333333333333,4,2,1,5,0,0
11177,-66.6666666666667,4,2,1,70,0,0
11858,-200,4,2,1,70,0,0
12370,-66.6666666666667,4,2,1,70,0,0
13222,-133.333333333333,4,2,1,70,0,0
13904,-66.6666666666667,4,2,1,70,0,0
14586,-133.333333333333,4,2,1,70,0,0
15779,-200,4,2,1,70,0,0
16290,-66.6666666666667,4,2,1,70,0,0
17143,-133.333333333333,4,2,1,70,0,0
17995,-200,4,2,1,70,0,0
18336,-66.6666666666667,4,2,1,70,0,0
18677,-133.333333333333,4,2,1,70,0,0
19358,-66.6666666666667,4,2,1,70,0,0
20040,-133.333333333333,4,2,1,70,0,0
20722,-66.6666666666667,4,2,1,70,0,0
21233,-200,4,2,1,70,0,0
21745,-100,4,2,1,70,0,0
22086,-100,4,2,1,60,0,0
31631,-83.3333333333333,4,2,1,60,0,0
32995,-83.3333333333333,4,2,1,65,0,0
33677,-200,4,2,1,65,0,0
34188,-83.3333333333333,4,2,1,65,0,0
35040,-133.333333333333,4,2,1,65,0,0
35722,-83.3333333333333,4,2,1,65,0,0
36404,-200,4,2,1,65,0,0
36915,-83.3333333333333,4,2,1,65,0,0
37768,-133.333333333333,4,2,1,65,0,0
38449,-83.3333333333333,4,2,1,65,0,0
38961,-133.333333333333,4,2,1,65,0,0
39813,-83.3333333333333,4,2,1,65,0,0
40324,-133.333333333333,4,2,1,65,0,0
41177,-83.3333333333333,4,2,1,65,0,0
41858,-200,4,2,1,65,0,0
42540,-83.3333333333333,4,2,1,65,0,0
43904,-66.6666666666667,4,2,1,60,0,0
46290,-100,4,2,1,60,0,0
46631,-100,4,2,1,40,0,0
46972,-125,4,2,1,40,0,0
47313,-142.857142857143,4,2,1,40,0,0
47654,-200,4,2,1,40,0,0
47995,-100,4,2,1,40,0,0
49358,-66.6666666666667,4,2,1,60,0,0
51233,-133.333333333333,4,2,1,60,0,0
52086,-66.6666666666667,4,2,1,60,0,0
52597,-100,4,2,1,60,0,0
53279,-66.6666666666667,4,2,1,60,0,0
53790,-100,4,2,1,60,0,0
54813,-133.333333333333,4,2,1,60,0,0
58904,-100,4,2,1,60,0,0
59586,-200,4,2,1,60,0,0
60268,-200,4,2,1,80,0,1
60949,-66.6666666666667,4,2,1,80,0,1
62910,-66.6666666666667,4,2,1,80,0,0
62995,-66.6666666666667,4,2,1,80,0,1
65722,-50,4,2,1,80,0,1
65978,-50,4,2,1,5,0,1
66063,-133.333333333333,4,2,1,80,0,1
66404,-50,4,2,1,80,0,1
66660,-50,4,2,1,5,0,1
66745,-133.333333333333,4,2,1,80,0,1
67086,-50,4,2,1,80,0,1
67341,-50,4,2,1,5,0,1
67427,-133.333333333333,4,2,1,80,0,1
67768,-50,4,2,1,80,0,1
68023,-50,4,2,1,5,0,1
68108,-133.333333333333,4,2,1,80,0,1
68449,-50,4,2,1,80,0,1
70495,-83.3333333333333,4,2,1,80,0,1
71091,-83.3333333333333,4,2,1,80,0,0
71177,-83.3333333333333,4,2,1,80,0,1
71858,-66.6666666666667,4,2,1,80,0,1
72881,-83.3333333333333,4,2,1,80,0,1
73222,-66.6666666666667,4,2,1,80,0,1
75949,-83.3333333333333,4,2,1,80,0,1
76631,-66.6666666666667,4,2,1,80,0,1
81404,-100,4,2,1,80,0,1
82086,-100,4,2,1,50,0,0
82768,-200,4,2,1,50,0,0
83279,-100,4,2,1,50,0,0
84131,-200,4,2,1,50,0,0
84813,-100,4,2,1,50,0,0
85495,-200,4,2,1,50,0,0
86006,-100,4,2,1,50,0,0
86688,-133.333333333333,4,2,1,50,0,0
87540,-100,4,2,1,50,0,0
88222,-200,4,2,1,50,0,0
88733,-100,4,2,1,50,0,0
89415,-133.333333333333,4,2,1,50,0,0
90268,-100,4,2,1,50,0,0
90779,-133.333333333333,4,2,1,50,0,0
91631,-100,4,2,1,50,0,0
92313,-200,4,2,1,50,0,0
93677,-100,4,2,1,50,0,0
97256,-100,4,2,1,5,0,0
97341,-100,4,2,1,50,0,0
97512,-100,4,2,1,5,0,0
97597,-100,4,2,1,50,0,0
98364,-100,4,2,1,5,0,0
98449,-100,4,2,1,50,0,0
99728,-100,4,2,1,5,0,0
99813,-100,4,2,1,50,0,0
101091,-100,4,2,1,5,0,0
101177,-100,4,2,1,50,0,0
103904,-76.9230769230769,4,2,1,60,0,0
104586,-133.333333333333,4,2,1,60,0,0
105268,-200,4,2,1,60,0,0
105779,-133.333333333333,4,2,1,60,0,0
106631,-76.9230769230769,4,2,1,60,0,0
107313,-200,4,2,1,60,0,0
107824,-76.9230769230769,4,2,1,60,0,0
108677,-200,4,2,1,60,0,0
109358,-76.9230769230769,4,2,1,60,0,0
110040,-200,4,2,1,60,0,0
110552,-76.9230769230769,4,2,1,60,0,0
111404,-200,4,2,1,60,0,0
112086,-76.9230769230769,4,2,1,60,0,0
112768,-200,4,2,1,60,0,0
113449,-76.9230769230769,4,2,1,60,0,0
114813,-66.6666666666667,4,2,1,60,0,0
116347,-66.6666666666667,4,2,1,40,0,0
117881,-76.9230769230769,4,2,1,40,0,0
118222,-83.3333333333333,4,2,1,40,0,0
118563,-100,4,2,1,40,0,0
118904,-133.333333333333,4,2,1,40,0,0
119586,-100,4,2,1,40,0,0
120268,-66.6666666666667,4,2,1,60,0,0
122313,-100,4,2,1,60,0,0
122995,-66.6666666666667,4,2,1,60,0,0
123506,-76.9230769230769,4,2,1,60,0,0
124018,-100,4,2,1,60,0,0
125722,-133.333333333333,4,2,1,60,0,0
128961,-100,4,2,1,60,0,0
129472,-66.6666666666667,4,2,1,60,0,0
129813,-66.6666666666667,4,2,1,70,0,0
131177,-66.6666666666667,4,2,1,80,0,1
131347,-133.333333333333,4,2,1,80,0,1
131688,-66.6666666666667,4,2,1,80,0,1
133563,-100,4,2,1,80,0,1
133819,-100,4,2,1,80,0,0
133904,-100,4,2,1,80,0,1
134415,-66.6666666666667,4,2,1,80,0,1
136290,-100,4,2,1,80,0,1
136631,-58.8235294117647,4,2,1,80,0,1
139018,-100,4,2,1,80,0,1
139358,-66.6666666666667,4,2,1,80,0,1
141404,-100,4,2,1,80,0,1
141745,-83.3333333333333,4,2,1,80,0,1
142000,-83.3333333333333,4,2,1,80,0,0
142086,-83.3333333333333,4,2,1,80,0,1
142427,-66.6666666666667,4,2,1,80,0,1
146858,-100,4,2,1,80,0,1
147540,-66.6666666666667,4,2,1,80,0,1
152313,-83.3333333333333,4,2,1,80,0,1
152654,-100,4,2,1,80,0,1
152995,-100,4,2,1,50,0,0
154018,-66.6666666666667,4,2,1,50,0,0
155040,-133.333333333333,4,2,1,50,0,0
155722,-100,4,2,1,50,0,0
156745,-76.9230769230769,4,2,1,50,0,0
158449,-100,4,2,1,50,0,0
159472,-90.9090909090909,4,2,1,50,0,0
160495,-166.666666666667,4,2,1,50,0,0
161177,-76.9230769230769,4,2,1,50,0,0
162199,-100,4,2,1,50,0,0
163563,-200,4,2,1,60,0,0
174813,-83.3333333333333,4,2,1,50,0,0
179245,-133.333333333333,4,2,1,50,0,0
179586,-83.3333333333333,4,2,1,50,0,0
180268,-66.6666666666667,4,2,1,60,0,0
182995,-66.6666666666667,4,2,1,70,0,0
185381,-83.3333333333333,4,2,1,60,0,0
185722,-104.166666666667,4,2,1,50,0,0
189813,-133.333333333333,4,2,1,60,0,0
191177,-133.333333333333,4,2,1,80,0,1
191518,-62.5,4,2,1,80,0,1
193563,-83.3333333333333,4,2,1,80,0,1
193819,-83.3333333333333,4,2,1,80,0,0
193904,-83.3333333333333,4,2,1,80,0,1
196631,-50,4,2,1,80,0,1
196887,-50,4,2,1,5,0,1
196972,-76.9230769230769,4,2,1,80,0,1
197654,-66.6666666666667,4,2,1,80,0,1
199018,-100,4,2,1,80,0,1
199358,-66.6666666666667,4,2,1,80,0,1
201404,-100,4,2,1,80,0,1
202000,-100,4,2,1,80,0,0
202086,-58.8235294117647,4,2,1,80,0,1
207199,-83.3333333333333,4,2,1,80,0,1
207540,-50,4,2,1,80,0,1
207796,-50,4,2,1,5,0,1
207881,-83.3333333333333,4,2,1,80,0,1
208222,-50,4,2,1,80,0,1
208478,-50,4,2,1,5,0,1
208563,-83.3333333333333,4,2,1,80,0,1
208904,-50,4,2,1,80,0,1
209160,-50,4,2,1,5,0,1
209245,-83.3333333333333,4,2,1,80,0,1
209586,-50,4,2,1,80,0,1
209841,-50,4,2,1,5,0,1
209927,-83.3333333333333,4,2,1,80,0,1
210268,-50,4,2,1,80,0,1
212313,-83.3333333333333,4,2,1,80,0,1
212910,-83.3333333333333,4,2,1,80,0,0
212995,-83.3333333333333,4,2,1,80,0,1
213336,-58.8235294117647,4,2,1,80,0,1
214018,-58.8235294117647,4,2,1,80,0,1
218108,-83.3333333333333,4,2,1,80,0,1
218449,-58.8235294117647,4,2,1,80,0,1
223393,-83.3333333333333,4,2,1,80,0,1
223819,-83.3333333333333,4,2,1,80,0,0
223904,-83.3333333333333,4,2,1,80,0,1
224245,-62.5,4,2,1,80,0,1
229018,-83.3333333333333,4,2,1,80,0,1
229358,-58.8235294117647,4,2,1,80,0,1
234131,-83.3333333333333,4,2,1,80,0,1
234813,-133.333333333333,4,2,1,60,0,0
244358,-200,4,2,1,60,0,0
245722,419.58041958042,4,2,1,60,1,0
247400,454.545454545455,4,2,1,60,1,0
247854,490.79754601227,4,2,1,50,1,0
248344,545.454545454546,4,2,1,40,1,0
248895,800,4,2,1,30,1,0

[Colours]
Combo1 : 255,168,168
Combo2 : 231,206,255
Combo3 : 155,155,255
Combo4 : 113,113,255
Combo5 : 184,113,255
Combo6 : 255,113,113

[HitObjects]
204,145,268,53,2,0:0:0:0:
284,128,949,1,2,0:0:0:0:
324,199,1631,1,2,0:0:0:0:
270,259,2313,1,2,0:0:0:0:
270,259,4358,38,0,B|222:226|158:224|138:252|138:252|153:288|210:272,1,195,2|0,0:0|0:0,0:0:0:0:
322,182,5040,2,0,B|265:192|226:225|223:270|223:270|259:285|288:233,1,195,2|0,0:0|0:0,0:0:0:0:
295,93,5722,21,2,0:0:0:0:
215,76,6403,1,2,0:0:0:0:
174,146,7085,1,2,0:0:0:0:
229,206,7767,1,2,0:0:0:0:
229,206,9813,70,0,B|257:259|260:334|260:334|264:296|281:266,1,195,2|0,0:0|0:0,0:0:0:0:
229,206,10495,2,0,P|195:194|141:208,1,65,2|0,0:0|0:0,0:0:0:0:
397,297,10836,2,0,P|429:281|449:256,1,48.750001859665,8|0,0:0|0:0,0:0:0:0:
267,86,11177,6,0,B|292:30|292:30|316:170,1,195.00000743866,0|8,1:2|0:0,0:0:0:0:
315,162,11688,1,0,0:0:0:0:
136,123,11858,1,0,0:0:0:0:
151,118,11943,1,0,0:0:0:0:
167,117,12028,1,0,1:2:0:0:
88,207,12199,1,0,0:0:0:0:
307,45,12370,70,0,P|256:43|212:26,1,97.50000371933,8|0,0:0|0:0,0:0:0:0:
385,17,12711,1,0,1:2:0:0:
169,184,12881,2,0,P|219:177|265:186,1,97.50000371933,8|0,0:0|0:0,0:0:0:0:
370,98,13222,1,0,0:0:0:0:
357,119,13307,1,0,0:0:0:0:
353,142,13392,1,0,1:2:0:0:
357,166,13477,1,0,0:0:0:0:
369,187,13562,1,0,0:0:0:0:
452,143,13733,1,8,0:0:0:0:
208,270,13904,6,0,B|275:246|301:285|301:293|349:325|395:297,1,195.00000743866,0|8,1:2|0:0,0:0:0:0:
391,300,14415,1,0,0:0:0:0:
254,94,14586,1,0,0:0:0:0:
266,115,14671,1,0,0:0:0:0:
269,139,14756,1,0,1:2:0:0:
262,162,14841,1,0,0:0:0:0:
247,181,14926,1,0,0:0:0:0:
186,130,15097,1,8,0:0:0:0:
447,271,15268,5,4,0:0:0:0:
327,283,15438,1,0,0:0:0:0:
207,295,15608,1,8,0:0:0:0:
415,199,15779,1,8,0:0:0:0:
398,200,15864,1,8,0:0:0:0:
382,202,15949,1,0,1:2:0:0:
447,127,16120,1,0,0:0:0:0:
109,173,16290,2,0,L|206:163,1,97.50000371933,8|0,0:0|0:0,0:0:0:0:
275,35,16631,54,0,B|268:106|268:106|289:148|289:148|281:236,1,195.00000743866,0|8,1:2|0:0,0:0:0:0:
282,224,17143,1,0,0:0:0:0:
71,283,17313,1,0,0:0:0:0:
87,264,17398,1,0,0:0:0:0:
108,252,17483,1,0,0:0:0:0:
131,246,17568,1,0,0:0:0:0:
155,248,17653,1,0,1:2:0:0:
140,336,17824,1,8,0:0:0:0:
314,226,17995,5,0,0:0:0:0:
297,223,18080,1,0,0:0:0:0:
281,225,18165,1,0,1:2:0:0:
471,160,18336,2,0,P|423:160|372:138,1,97.50000371933,8|0,0:0|0:0,0:0:0:0:
260,35,18677,1,0,0:0:0:0:
275,53,18762,1,0,0:0:0:0:
283,76,18847,1,0,1:2:0:0:
280,100,18932,1,0,0:0:0:0:
269,122,19017,1,0,0:0:0:0:
181,88,19188,1,8,0:0:0:0:
499,44,19358,70,0,B|363:69|363:69|400:16,1,195.00000743866,0|8,1:2|0:0,0:0:0:0:
395,22,19870,1,0,0:0:0:0:
347,237,20040,1,0,0:0:0:0:
361,217,20125,1,0,0:0:0:0:
367,194,20210,1,0,1:2:0:0:
363,170,20295,1,0,0:0:0:0:
350,149,20380,1,0,0:0:0:0:
267,190,20552,1,8,0:0:0:0:
494,283,20722,6,0,B|423:294|423:294|388:325|388:325|301:340,1,195.00000743866,4|8,0:0|0:0,0:0:0:0:
141,297,21233,1,0,0:0:0:0:
157,295,21318,1,8,0:0:0:0:
173,297,21403,1,0,1:2:0:0:
87,362,21574,1,0,0:0:0:0:
332,182,21745,1,8,0:0:0:0:
299,185,21830,1,8,0:0:0:0:
267,190,21915,1,8,0:0:0:0:
234,195,22000,1,8,0:0:0:0:
201,203,22086,69,4,0:0:0:0:
201,203,22256,1,0,0:0:0:0:
166,103,22427,1,0,1:2:0:0:
166,103,22598,1,0,0:0:0:0:
90,181,22768,1,0,1:2:0:0:
90,181,22939,1,0,0:0:0:0:
123,281,23108,1,0,1:2:0:0:
123,281,23279,1,0,0:0:0:0:
235,292,23449,69,0,1:2:0:0:
235,292,23620,1,0,0:0:0:0:
304,213,23790,1,0,1:2:0:0:
304,213,23961,1,0,0:0:0:0:
274,111,24131,1,0,1:2:0:0:
274,111,24302,1,0,0:0:0:0:
170,82,24472,1,0,1:2:0:0:
170,82,24643,1,0,0:0:0:0:
111,261,24813,5,0,1:2:0:0:
84,161,24983,1,0,0:0:0:0:
194,262,25154,1,0,1:2:0:0:
167,162,25324,1,0,0:0:0:0:
277,263,25495,1,0,1:2:0:0:
250,163,25665,1,0,0:0:0:0:
360,264,25836,1,0,1:2:0:0:
333,164,26006,1,0,0:0:0:0:
470,365,26177,69,0,1:2:0:0:
443,265,26347,1,0,0:0:0:0:
387,364,26518,1,0,1:2:0:0:
360,264,26688,1,0,0:0:0:0:
304,363,26859,1,0,1:2:0:0:
277,263,27029,1,0,0:0:0:0:
221,362,27199,2,0,L|201:284,1,65,0|0,1:2|0:0,0:0:0:0:
198,183,27540,6,0,L|208:221,2,32.5,0|0|0,1:2|0:0|0:0,0:0:0:0:
228,98,27881,2,0,L|255:70,2,32.5,0|0|0,1:2|0:0|0:0,0:0:0:0:
135,121,28222,2,0,L|97:110,2,32.5,0|0|0,1:2|0:0|0:0,0:0:0:0:
284,175,28563,2,0,L|356:176,1,65,0|0,1:2|0:0,0:0:0:0:
433,146,28904,70,0,L|470:156,2,32.5,0|0|0,1:2|0:0|0:0,0:0:0:0:
348,175,29245,2,0,L|320:202,2,32.5,0|0|0,1:2|0:0|0:0,0:0:0:0:
370,82,29586,2,0,L|359:44,2,32.5,0|0|0,1:2|0:0|0:0,0:0:0:0:
415,231,29927,2,0,L|409:304,1,65,0|0,1:2|0:0,0:0:0:0:
333,337,30268,6,0,L|299:341,2,32.5,0|0|0,1:2|0:0|0:0,0:0:0:0:
253,260,30608,2,0,L|219:256,2,32.5,0|0|0,1:2|0:0|0:0,0:0:0:0:
211,376,30949,2,0,L|177:380,2,32.5,0|0|0,1:2|0:0|0:0,0:0:0:0:
151,168,31290,2,0,L|117:164,2,32.5,0|0|0,1:2|0:0|0:0,0:0:0:0:
38,291,31631,70,0,L|136:275,1,77.999997619629,8|0,0:0|0:0,0:0:0:0:
114,278,32143,2,0,L|211:262,1,77.999997619629,8|0,0:0|0:0,0:0:0:0:
299,138,32483,2,0,L|264:230,1,77.999997619629,8|0,0:0|0:0,0:0:0:0:
278,301,32824,1,8,0:0:0:0:
418,89,32995,6,0,B|379:71|379:71|401:196,1,155.999995239258,4|8,0:0|0:0,0:0:0:0:
398,182,33506,1,0,0:0:0:0:
234,150,33677,1,0,1:2:0:0:
249,147,33762,1,0,0:0:0:0:
266,147,33847,1,0,1:2:0:0:
183,218,34018,1,0,0:0:0:0:
365,68,34188,70,0,P|322:68|286:54,1,77.999997619629,8|0,0:0|0:0,0:0:0:0:
438,26,34529,1,0,1:2:0:0:
212,193,34699,2,0,P|254:185|292:193,1,77.999997619629,8|0,0:0|0:0,0:0:0:0:
389,161,35040,1,0,0:0:0:0:
380,183,35125,1,0,0:0:0:0:
379,208,35210,1,0,1:2:0:0:
385,231,35295,1,0,0:0:0:0:
398,251,35380,1,0,0:0:0:0:
473,197,35552,1,8,0:0:0:0:
169,294,35722,6,0,B|223:271|248:300|247:308|279:331|328:307,1,155.999995239258,0|8,1:2|0:0,0:0:0:0:
317,312,36233,1,0,0:0:0:0:
212,161,36404,1,0,1:2:0:0:
211,177,36489,1,0,0:0:0:0:
212,193,36574,1,0,1:2:0:0:
272,100,36745,1,0,0:0:0:0:
107,215,36915,70,0,P|108:174|97:133,1,77.999997619629,8|0,0:0|0:0,0:0:0:0:
72,306,37256,1,0,0:0:0:0:
235,84,37427,2,0,P|234:125|245:166,1,77.999997619629,8|0,0:0|0:0,0:0:0:0:
210,283,37768,1,0,0:0:0:0:
230,270,37853,1,0,0:0:0:0:
254,267,37938,1,0,1:2:0:0:
278,273,38023,1,0,0:0:0:0:
297,287,38108,1,0,0:0:0:0:
250,364,38279,1,8,0:0:0:0:
362,157,38449,6,0,L|378:259,1,77.999997619629,0|0,1:2|0:0,0:0:0:0:
309,89,38790,1,8,0:0:0:0:
153,158,38961,1,0,0:0:0:0:
175,148,39046,1,0,0:0:0:0:
199,147,39131,1,0,1:2:0:0:
222,155,39216,1,0,0:0:0:0:
239,172,39301,1,0,1:2:0:0:
116,73,39472,1,0,0:0:0:0:
184,241,39643,1,8,0:0:0:0:
294,63,39813,70,0,L|381:78,1,77.999997619629,0|0,1:2|0:0,0:0:0:0:
221,100,40154,1,8,0:0:0:0:
404,248,40324,1,0,0:0:0:0:
412,225,40409,1,0,0:0:0:0:
415,201,40494,1,0,0:0:0:0:
411,177,40579,1,0,0:0:0:0:
401,155,40664,1,0,1:2:0:0:
470,307,40836,1,0,0:0:0:0:
321,204,41006,1,8,0:0:0:0:
478,98,41177,6,0,B|444:77|438:37|438:37|405:68|357:63,1,155.999995239258,0|8,1:2|0:0,0:0:0:0:
364,63,41688,1,0,0:0:0:0:
237,186,41858,1,0,1:2:0:0:
238,169,41943,1,0,0:0:0:0:
238,153,42028,1,0,1:2:0:0:
236,137,42370,1,8,0:0:0:0:
314,280,42540,70,0,P|312:240|321:203,1,77.999997619629,0|0,0:0|1:2,0:0:0:0:
204,336,42881,2,0,P|206:296|197:259,1,77.999997619629,8|0,0:0|0:0,0:0:0:0:
167,139,43222,2,0,P|200:160|237:171,1,77.999997619629,0|0,0:0|1:2,0:0:0:0:
39,251,43563,2,0,P|72:229|109:218,1,77.999997619629,0|8,0:0|0:0,0:0:0:0:
407,127,43904,6,0,B|373:83|373:83|354:239,1,195.00000743866,4|0,0:0|0:0,0:0:0:0:
186,279,44415,2,0,B|220:323|220:323|239:167,1,195.00000743866,4|0,0:0|0:0,0:0:0:0:
69,97,44927,2,0,B|103:53|103:53|122:209,1,195.00000743866,4|0,0:0|0:0,0:0:0:0:
119,191,45437,1,0,0:0:0:0:
239,152,45608,1,8,0:0:0:0:
119,113,45779,1,0,0:0:0:0:
194,216,45949,1,2,0:0:0:0:
194,89,46120,1,0,0:0:0:0:
119,191,46290,2,0,L|42:209,1,65,2|0,0:0|0:0,0:0:0:0:
18,282,46546,69,2,0:0:0:0:
24,291,46631,2,0,L|101:309,1,65,2|0,1:2|1:2,0:0:0:0:
134,366,46972,2,0,L|204:363,1,52,8|0,0:0|0:0,0:0:0:0:
262,384,47313,2,0,L|319:361,1,45.4999986114502,0|0,1:2|1:2,0:0:0:0:
380,371,47654,2,0,L|401:341,1,32.5,0|8,0:0|0:0,0:0:0:0:
333,282,47995,5,0,0:0:0:0:
383,200,48165,1,0,1:2:0:0:
274,132,48336,2,0,L|265:59,1,65,8|0,0:0|0:0,0:0:0:0:
204,306,48677,2,0,P|205:266|199:238,1,65,0|0,0:0|1:2,0:0:0:0:
168,158,49018,2,0,P|167:118|173:90,1,65,0|8,0:0|0:0,0:0:0:0:
37,309,49358,70,0,B|90:337|90:337|55:188,1,195.00000743866,4|0,0:0|0:0,0:0:0:0:
250,123,49870,2,0,B|197:95|197:95|232:244,1,195.00000743866,4|0,0:0|0:0,0:0:0:0:
405,281,50381,2,0,B|352:309|352:309|387:160,1,195.00000743866,4|0,0:0|0:0,0:0:0:0:
382,177,50893,5,0,1:2:0:0:
244,323,51063,1,8,0:0:0:0:
186,250,51233,1,0,0:0:0:0:
204,234,51318,1,0,0:0:0:0:
227,226,51403,1,0,0:0:0:0:
251,227,51488,1,0,0:0:0:0:
274,235,51573,1,0,1:2:0:0:
144,169,51745,2,0,P|141:139|141:120,1,48.750001859665,2|8,0:0|0:0,0:0:0:0:
346,34,52086,70,0,B|339:105|339:105|360:147|360:147|353:227,1,195.00000743866,4|0,0:0|0:0,0:0:0:0:
421,88,52597,2,0,L|497:79,1,65,0|8,1:2|0:0,0:0:0:0:
279,166,52938,2,0,L|203:157,1,65,0|0,1:2|0:0,0:0:0:0:
496,340,53279,2,0,B|421:365|398:320|398:315|350:291|294:323,1,195.00000743866,0|0,1:2|0:0,0:0:0:0:
461,246,53790,2,0,P|466:212|465:176,1,65,8|0,0:0|0:0,0:0:0:0:
135,331,54131,5,8,0:0:0:0:
152,303,54216,1,8,0:0:0:0:
158,271,54301,1,8,0:0:0:0:
151,240,54386,1,8,0:0:0:0:
134,213,54471,1,8,0:0:0:0:
119,184,54557,1,8,0:0:0:0:
115,152,54642,1,8,0:0:0:0:
124,121,54727,1,8,0:0:0:0:
143,95,54813,2,0,L|304:79,2,146.250005578995
256,192,56177,12,0,57370,0:0:0:0:
316,126,57540,5,8,0:0:0:0:
144,189,57711,1,8,0:0:0:0:
326,282,57881,1,8,0:0:0:0:
191,80,58052,1,8,0:0:0:0:
371,202,58222,1,8,0:0:0:0:
157,296,58393,1,8,0:0:0:0:
418,121,58563,1,8,0:0:0:0:
104,176,58733,1,8,0:0:0:0:
350,71,58904,5,8,0:0:0:0:
331,97,58989,1,8,0:0:0:0:
325,129,59074,1,8,0:0:0:0:
333,160,59159,1,8,0:0:0:0:
353,186,59245,1,8,0:0:0:0:
372,212,59330,1,8,0:0:0:0:
378,244,59415,1,8,0:0:0:0:
370,275,59500,1,8,0:0:0:0:
350,301,59586,2,0,P|327:288|260:303,1,97.5
207,367,60268,5,4,0:0:0:0:
191,257,60438,1,2,0:0:0:0:
175,147,60608,1,10,0:0:0:0:
159,37,60779,1,2,0:0:0:0:
414,181,60949,54,0,P|438:130|439:75,1,97.50000371933,0|0,1:2|0:0,0:0:0:0:
191,257,61290,2,0,P|137:237|98:199,1,97.50000371933,8|0,0:0|0:0,0:0:0:0:
407,268,61631,2,0,P|460:248|499:210,1,97.50000371933,0|0,1:2|0:0,0:0:0:0:
183,175,61972,2,0,P|159:123|158:68,1,97.50000371933,8|0,0:0|0:0,0:0:0:0:
341,321,62313,2,0,P|392:345|447:346,1,97.50000371933,0|0,1:2|0:0,0:0:0:0:
238,107,62654,2,0,P|257:53|295:14,1,97.50000371933,8|0,0:0|0:0,0:0:0:0:
462,140,62995,37,4,0:0:0:0:
349,187,63165,1,2,0:0:0:0:
237,236,63335,1,10,0:0:0:0:
123,284,63506,1,2,0:0:0:0:
307,78,63677,54,0,P|256:54|201:53,1,97.50000371933,0|0,1:2|0:0,0:0:0:0:
383,301,64018,2,0,P|363:355|325:394,1,97.50000371933,8|0,0:0|0:0,0:0:0:0:
394,85,64359,2,0,P|374:32|336:-7,1,97.50000371933,0|0,1:2|0:0,0:0:0:0:
301,309,64700,2,0,P|249:333|194:334,1,97.50000371933,8|0,0:0|0:0,0:0:0:0:
447,151,65041,2,0,P|471:100|472:45,1,97.50000371933,0|0,1:2|0:0,0:0:0:0:
233,254,65382,2,0,P|179:235|140:197,1,97.50000371933,8|0,0:0|0:0,0:0:0:0:
450,284,65722,70,0,B|403:230|332:260|332:264|299:252|297:219|322:198|355:211|352:242,1,195,0|0,1:2|0:0,0:0:0:0:
346,222,66063,2,0,P|344:256|337:277,1,48.750001859665,8|0,0:0|0:0,0:0:0:0:
71,266,66404,2,0,B|118:212|189:242|189:246|222:234|224:201|199:180|166:193|169:224,1,195,0|0,1:2|0:0,0:0:0:0:
174,204,66745,2,0,P|180:232|193:254,1,48.750001859665,8|0,0:0|0:0,0:0:0:0:
458,61,67086,6,0,B|386:56|357:127|360:130|328:145|303:123|306:90|339:76|359:100,1,195,0|0,1:2|0:0,0:0:0:0:
339,90,67427,2,0,P|356:112|363:136,1,48.750001859665,8|0,0:0|0:0,0:0:0:0:
88,38,67768,2,0,B|159:33|188:104|185:107|217:122|242:100|239:67|206:53|186:77,1,195,0|0,1:2|0:0,0:0:0:0:
204,67,68108,2,0,P|187:96|185:119,1,48.750001859665,8|0,0:0|0:0,0:0:0:0:
470,223,68449,70,0,B|409:161|333:215|332:219|287:232|277:193|291:161|317:149|347:164|344:202,3,260,0|8|8|8,1:2|0:0|0:0|0:0,0:0:0:0:
343,190,69983,1,8,0:0:0:0:
248,301,70154,1,8,0:0:0:0:
101,289,70324,1,8,0:0:0:0:
48,211,70495,5,8,0:0:0:0:
82,194,70580,1,8,0:0:0:0:
121,193,70665,1,8,0:0:0:0:
156,209,70750,1,8,0:0:0:0:
181,239,70835,1,8,0:0:0:0:
215,255,70921,1,8,0:0:0:0:
254,256,71006,1,8,0:0:0:0:
289,240,71091,1,8,0:0:0:0:
314,210,71176,69,4,0:0:0:0:
101,289,71347,1,0,0:0:0:0:
234,81,71518,2,0,P|232:125|238:161,1,77.999997619629,8|0,0:0|0:0,0:0:0:0:
445,274,71858,2,0,B|412:306|412:306|419:198,1,146.250005578995,0|0,1:2|0:0,0:0:0:0:
464,131,72199,1,4,0:0:0:0:
290,270,72370,1,0,0:0:0:0:
143,104,72540,5,0,1:2:0:0:
323,190,72711,1,0,0:0:0:0:
171,315,72881,2,0,P|171:269|150:211,1,77.999997619629,12|0,0:0|0:0,0:0:0:0:
343,118,73222,2,0,B|305:91|305:91|324:195,1,146.250005578995,0|0,1:2|0:0,0:0:0:0:
381,253,73563,1,4,0:0:0:0:
448,91,73733,1,0,0:0:0:0:
163,238,73904,69,0,1:2:0:0:
411,168,74074,1,0,0:0:0:0:
144,122,74245,1,12,0:0:0:0:
381,253,74415,1,0,0:0:0:0:
302,9,74586,2,0,P|304:56|289:104,1,97.50000371933,0|0,1:2|0:0,0:0:0:0:
492,276,74927,2,0,P|490:229|505:181,1,97.50000371933,12|0,0:0|0:0,0:0:0:0:
196,212,75268,6,0,B|275:218|275:218|305:245|305:245|385:252,1,195.00000743866,0|8,1:2|0:0,0:0:0:0:
380,252,75779,1,0,0:0:0:0:
237,296,75949,2,0,P|232:341|237:379,1,77.999997619629,0|0,1:2|0:0,0:0:0:0:
470,292,76290,1,8,0:0:0:0:
481,255,76375,1,8,0:0:0:0:
475,216,76460,1,8,0:0:0:0:
453,185,76545,1,8,0:0:0:0:
419,166,76631,70,0,B|277:183|277:183|324:128,1,195.00000743866,4|8,0:0|0:0,0:0:0:0:
310,143,77143,1,0,0:0:0:0:
107,316,77313,1,0,1:2:0:0:
180,204,77483,1,0,0:0:0:0:
43,170,77654,2,0,P|35:115|42:72,1,97.50000371933,12|0,0:0|0:0,0:0:0:0:
209,18,77995,5,0,1:2:0:0:
140,113,78165,1,0,0:0:0:0:
441,96,78336,2,0,B|370:70|340:109|340:117|303:144|243:119,1,195.00000743866,12|0,0:0|1:2,0:0:0:0:
257,124,78847,1,0,0:0:0:0:
403,188,79018,1,12,0:0:0:0:
288,41,79188,1,0,0:0:0:0:
239,268,79358,69,0,1:2:0:0:
366,85,79529,1,0,0:0:0:0:
192,197,79699,1,12,0:0:0:0:
411,157,79870,1,0,0:0:0:0:
201,108,80040,5,0,1:2:0:0:
402,247,80211,1,0,0:0:0:0:
282,59,80381,1,12,0:0:0:0:
325,299,80552,1,0,0:0:0:0:
366,85,80722,69,0,1:2:0:0:
212,304,80893,1,0,0:0:0:0:
411,157,81063,1,12,0:0:0:0:
145,203,81234,1,0,0:0:0:0:
295,37,81404,5,8,0:0:0:0:
309,65,81489,1,8,0:0:0:0:
313,97,81574,1,8,0:0:0:0:
306,129,81659,1,8,0:0:0:0:
288,156,81744,1,8,0:0:0:0:
273,184,81830,1,8,0:0:0:0:
269,216,81915,1,8,0:0:0:0:
276,248,82000,1,8,0:0:0:0:
294,275,82086,38,0,P|344:243|429:269,1,130,4|8,0:0|0:0,0:0:0:0:
410,254,82597,1,0,0:0:0:0:
200,332,82768,1,0,1:2:0:0:
205,316,82853,1,0,0:0:0:0:
205,300,82938,1,0,1:2:0:0:
288,376,83108,1,0,0:0:0:0:
134,177,83279,6,0,P|136:217|123:253,1,65,8|0,0:0|0:0,0:0:0:0:
96,101,83620,1,0,1:2:0:0:
281,297,83790,2,0,P|279:257|292:221,1,65,8|0,0:0|0:0,0:0:0:0:
426,154,84131,1,0,0:0:0:0:
409,156,84216,1,0,0:0:0:0:
393,156,84301,1,0,1:2:0:0:
492,206,84472,1,0,0:0:0:0:
406,70,84643,1,8,0:0:0:0:
296,279,84813,70,0,B|323:295|323:295|312:188,1,130,0|8,1:2|0:0,0:0:0:0:
312,196,85324,1,0,0:0:0:0:
172,270,85495,1,0,1:2:0:0:
187,273,85580,1,0,0:0:0:0:
203,269,85665,1,0,1:2:0:0:
108,212,85836,1,0,0:0:0:0:
301,357,86006,6,0,P|272:356|236:368,1,65,8|0,0:0|0:0,0:0:0:0:
376,354,86347,1,0,1:2:0:0:
184,236,86518,1,8,0:0:0:0:
268,285,86688,1,2,0:0:0:0:
278,263,86773,1,0,0:0:0:0:
282,239,86858,1,0,0:0:0:0:
279,215,86943,1,0,0:0:0:0:
269,192,87028,1,0,1:2:0:0:
372,275,87199,1,0,0:0:0:0:
184,236,87370,1,8,0:0:0:0:
396,84,87540,70,0,B|365:68|365:68|380:175,1,130,4|8,0:0|0:0,0:0:0:0:
378,162,88052,1,0,0:0:0:0:
257,96,88222,1,0,1:2:0:0:
272,90,88307,1,0,0:0:0:0:
288,91,88392,1,0,1:2:0:0:
202,152,88563,1,0,0:0:0:0:
350,17,88733,6,0,P|314:18|285:10,1,65,8|0,0:0|0:0,0:0:0:0:
427,2,89074,1,0,1:2:0:0:
251,134,89245,1,8,0:0:0:0:
336,87,89415,1,0,0:0:0:0:
345,109,89500,1,0,0:0:0:0:
349,133,89585,1,0,0:0:0:0:
346,157,89670,1,0,0:0:0:0:
337,179,89755,1,0,1:2:0:0:
426,77,89927,1,0,0:0:0:0:
251,134,90097,1,8,0:0:0:0:
452,224,90268,70,0,L|460:294,1,65,0|0,1:2|0:0,0:0:0:0:
434,383,90608,1,8,0:0:0:0:
261,289,90779,1,0,0:0:0:0:
279,273,90864,1,0,0:0:0:0:
302,266,90949,1,0,1:2:0:0:
326,268,91034,1,0,0:0:0:0:
348,279,91119,1,0,1:2:0:0:
265,191,91290,1,0,0:0:0:0:
312,354,91461,1,8,0:0:0:0:
58,321,91631,6,0,P|113:283|184:301,1,130,0|8,0:0|0:0,0:0:0:0:
172,292,92143,1,0,0:0:0:0:
78,208,92313,1,0,0:0:0:0:
74,192,92398,1,0,0:0:0:0:
72,176,92483,1,0,1:2:0:0:
73,159,92824,1,8,0:0:0:0:
267,230,92995,69,0,1:2:0:0:
246,94,93165,1,0,0:0:0:0:
190,241,93336,1,8,0:0:0:0:
305,154,93506,1,0,0:0:0:0:
270,345,93677,2,0,P|312:302|397:333,1,130
376,310,94188,1,0,1:2:0:0:
434,126,94358,5,0,0:0:0:0:
373,203,94529,2,0,L|296:211,1,65,0|8,1:2|0:0,0:0:0:0:
211,325,94870,2,0,L|242:254,1,65,0|0,1:2|0:0,0:0:0:0:
237,265,95211,1,0,1:2:0:0:
165,94,95381,2,0,L|241:197,1,97.5,8|0,0:0|0:0,0:0:0:0:
222,172,95722,69,0,1:2:0:0:
222,172,95893,1,0,1:2:0:0:
295,116,96063,1,8,0:0:0:0:
308,209,96233,1,0,1:2:0:0:
308,209,97086,6,0,P|305:245|314:279,1,65,2|0,1:2|0:0,0:0:0:0:
321,368,97341,2,0,P|291:347|257:338,1,65,2|0,0:0|0:0,0:0:0:0:
178,298,97597,2,0,P|210:282|227:265,1,32.5,10|0,0:0|0:0,0:0:0:0:
308,209,97768,2,0,P|268:207|238:194,1,65,2|0,1:2|0:0,0:0:0:0:
428,353,98108,2,0,P|426:318|439:246,1,97.5,8|0,0:0|0:0,0:0:0:0:
435,256,98449,69,0,1:2:0:0:
435,256,98620,1,0,1:2:0:0:
395,176,98790,1,8,0:0:0:0:
354,277,98961,1,0,1:2:0:0:
354,277,99472,2,0,L|248:285,1,97.5
256,284,99813,5,0,1:2:0:0:
256,284,99983,1,0,1:2:0:0:
220,368,100154,1,8,0:0:0:0:
172,260,100324,1,0,1:2:0:0:
172,260,100836,2,0,P|182:227|174:161,1,97.5
175,165,101177,69,0,1:2:0:0:
175,165,101347,1,0,1:2:0:0:
227,87,101518,1,8,0:0:0:0:
282,208,101688,2,0,L|427:225,1,130,0|0,1:2|0:0,0:0:0:0:
255,287,102199,2,0,L|333:296,1,65,8|0,0:0|0:0,0:0:0:0:
400,304,102540,5,0,0:0:0:0:
400,304,102711,1,0,1:2:0:0:
350,371,102881,1,8,0:0:0:0:
319,294,103052,1,0,1:2:0:0:
319,294,103393,1,0,1:2:0:0:
269,361,103563,1,8,0:0:0:0:
236,284,103734,1,0,0:0:0:0:
107,335,103904,70,0,B|143:361|143:361|132:226,1,168.999992263794,4|8,0:0|0:0,0:0:0:0:
132,236,104415,1,0,0:0:0:0:
309,175,104586,1,0,1:2:0:0:
290,191,104671,1,0,0:0:0:0:
268,200,104756,1,0,1:2:0:0:
244,201,104841,1,0,0:0:0:0:
221,195,104926,1,0,0:0:0:0:
245,100,105097,1,8,0:0:0:0:
438,148,105268,5,0,0:0:0:0:
421,145,105353,1,0,0:0:0:0:
406,150,105438,1,0,1:2:0:0:
505,201,105608,1,8,0:0:0:0:
290,191,105779,1,0,0:0:0:0:
313,193,105864,1,0,0:0:0:0:
333,205,105949,1,0,0:0:0:0:
347,225,106034,1,0,0:0:0:0:
350,249,106119,1,0,1:2:0:0:
331,108,106290,1,0,0:0:0:0:
264,278,106461,1,8,0:0:0:0:
505,201,106631,70,0,P|476:165|367:200,1,168.999992263794,0|8,1:2|0:0,0:0:0:0:
370,191,107143,1,0,0:0:0:0:
265,310,107313,1,0,1:2:0:0:
267,294,107398,1,0,0:0:0:0:
264,278,107483,1,0,1:2:0:0:
335,362,107654,1,0,0:0:0:0:
181,183,107824,6,0,P|181:226|168:265,1,84.4999961318971,8|0,0:0|0:0,0:0:0:0:
150,106,108165,1,0,1:2:0:0:
305,321,108336,2,0,P|305:278|318:239,1,84.4999961318971,8|0,0:0|0:0,0:0:0:0:
460,167,108677,1,0,0:0:0:0:
444,170,108762,1,0,0:0:0:0:
428,168,108847,1,0,1:2:0:0:
504,95,109018,1,0,0:0:0:0:
399,248,109188,1,8,0:0:0:0:
281,83,109358,70,0,B|299:38|299:38|324:163,1,168.999992263794,0|8,1:2|0:0,0:0:0:0:
322,156,109870,1,0,0:0:0:0:
166,138,110040,1,0,1:2:0:0:
180,131,110125,1,0,0:0:0:0:
196,132,110210,1,0,1:2:0:0:
115,207,110381,1,0,0:0:0:0:
302,61,110552,6,0,P|260:62|218:51,1,84.4999961318971,8|0,0:0|0:0,0:0:0:0:
369,23,110893,1,0,1:2:0:0:
151,173,111063,2,0,P|193:172|235:183,1,84.4999961318971,8|0,0:0|0:0,0:0:0:0:
408,168,111404,1,0,0:0:0:0:
392,165,111489,1,0,0:0:0:0:
376,167,111574,1,0,1:2:0:0:
471,118,111745,1,0,0:0:0:0:
313,234,111915,1,8,0:0:0:0:
512,346,112086,70,0,P|493:300|376:323,1,168.999992263794,0|8,1:2|0:0,0:0:0:0:
388,302,112597,1,0,0:0:0:0:
259,368,112768,1,0,1:2:0:0:
263,352,112853,1,0,0:0:0:0:
265,336,112938,1,0,1:2:0:0:
263,320,113279,1,8,0:0:0:0:
227,139,113449,6,0,P|229:183|216:225,1,84.4999961318971,0|0,0:0|1:2,0:0:0:0:
354,277,113790,2,0,P|352:233|365:191,1,84.4999961318971,8|0,0:0|0:0,0:0:0:0:
400,64,114131,2,0,P|362:87|320:97,1,84.4999961318971,0|0,0:0|1:2,0:0:0:0:
512,177,114472,2,0,P|474:153|432:143,1,84.4999961318971,0|8,0:0|0:0,0:0:0:0:
342,327,114813,70,0,B|375:366|375:366|383:212,1,195.00000743866,4|0,0:0|0:0,0:0:0:0:
187,177,115324,2,0,B|220:138|220:138|228:292,1,195.00000743866,4|0,0:0|0:0,0:0:0:0:
47,344,115836,2,0,B|80:383|80:383|88:229,1,195.00000743866,4|0,0:0|0:0,0:0:0:0:
87,239,116347,5,0,0:0:0:0:
198,178,116518,1,0,0:0:0:0:
89,116,116688,1,0,0:0:0:0:
188,189,116858,1,2,0:0:0:0:
98,100,117028,1,0,0:0:0:0:
171,204,117199,1,2,0:0:0:0:
274,56,117369,69,0,0:0:0:0:
274,56,117540,2,0,L|391:35,1,97.50000371933,0|0,1:2|0:0,0:0:0:0:
322,127,117881,2,0,L|433:134,1,84.4999961318971,0|0,0:0|1:2,0:0:0:0:
342,208,118222,2,0,L|439:250,1,77.999997619629,8|0,0:0|0:0,0:0:0:0:
325,286,118563,2,0,L|382:353,1,65
112,317,118904,6,0,P|148:296|210:298,1,97.50000371933,0|0,0:0|1:2,0:0:0:0:
202,295,119415,1,0,0:0:0:0:
112,207,119586,2,0,P|111:174|117:137,1,65,8|0,0:0|0:0,0:0:0:0:
165,70,119927,2,0,P|166:37|160:0,1,65
420,149,120268,70,0,B|380:111|380:111|366:271,1,195.00000743866,4|0,0:0|0:0,0:0:0:0:
192,72,120779,2,0,B|232:34|232:34|246:194,1,195.00000743866,4|0,0:0|0:0,0:0:0:0:
46,276,121290,2,0,B|86:314|86:314|100:154,1,195.00000743866,4|0,0:0|0:0,0:0:0:0:
98,174,121802,5,0,1:2:0:0:
224,251,121972,1,0,0:0:0:0:
98,174,122143,1,0,0:0:0:0:
286,118,122313,2,0,L|298:43,1,65,8|0,0:0|0:0,0:0:0:0:
286,118,122654,1,0,0:0:0:0:
224,170,122824,1,0,0:0:0:0:
459,100,122995,70,0,B|409:68|409:68|434:220,1,195.00000743866,0|0,1:2|0:0,0:0:0:0:
455,304,123506,2,0,L|366:292,1,84.4999961318971,0|8,1:2|0:0,0:0:0:0:
212,357,124018,2,0,L|190:203,2,130,0|0|0,1:2|0:0|1:2,0:0:0:0:
212,357,125040,5,8,0:0:0:0:
197,327,125125,1,8,0:0:0:0:
192,295,125210,1,8,0:0:0:0:
196,263,125295,1,8,0:0:0:0:
210,234,125380,1,8,0:0:0:0:
224,204,125466,1,8,0:0:0:0:
229,172,125551,1,8,0:0:0:0:
225,140,125636,1,8,0:0:0:0:
211,111,125722,2,0,L|58:98,2,146.250005578995
256,192,127086,12,0,128279,1:2:0:0:
209,142,128449,6,0,P|174:147|112:135,1,97.50000371933,0|0,1:2|0:0,0:0:0:0:
286,237,128961,2,0,P|251:232|159:262,1,130
406,152,129472,2,0,P|371:157|309:145,1,97.50000371933
467,220,129813,5,8,0:0:0:0:
362,71,129983,1,8,0:0:0:0:
251,260,130154,1,8,0:0:0:0:
164,79,130324,1,8,0:0:0:0:
80,224,130495,2,0,P|150:223|224:164,1,146.250005578995
248,101,130836,1,8,0:0:0:0:
173,335,131177,5,4,0:0:0:0:
362,222,131347,1,2,0:0:0:0:
338,217,131432,1,0,0:0:0:0:
314,222,131517,1,2,0:0:0:0:
452,89,131688,70,0,P|402:87|353:68,1,97.50000371933,8|0,0:0|0:0,0:0:0:0:
512,43,132029,1,0,1:2:0:0:
279,207,132199,2,0,P|328:208|377:227,1,97.50000371933,8|0,0:0|0:0,0:0:0:0:
195,259,132540,69,0,1:2:0:0:
267,117,132711,1,0,0:0:0:0:
83,146,132881,1,0,1:2:0:0:
346,11,133052,2,0,P|343:65|355:113,1,97.50000371933,8|0,0:0|0:0,0:0:0:0:
439,51,133393,1,0,1:2:0:0:
150,24,133563,1,8,0:0:0:0:
176,5,133648,1,8,0:0:0:0:
208,1,133733,1,8,0:0:0:0:
239,11,133818,1,8,0:0:0:0:
262,33,133903,21,0,1:2:0:0:
132,152,134074,1,0,0:0:0:0:
309,215,134245,1,0,1:2:0:0:
155,328,134415,70,0,L|266:342,1,97.50000371933,8|0,0:0|0:0,0:0:0:0:
83,367,134756,1,0,1:2:0:0:
381,163,134927,2,0,L|270:177,1,97.50000371933,8|0,0:0|0:0,0:0:0:0:
431,229,135268,69,0,1:2:0:0:
163,80,135438,1,8,0:0:0:0:
284,175,135608,2,0,L|291:293,1,97.50000371933,8|0,0:0|0:0,0:0:0:0:
55,186,135949,2,0,L|48:304,1,97.50000371933,0|0,1:2|0:0,0:0:0:0:
186,358,136290,1,8,0:0:0:0:
171,328,136375,1,8,0:0:0:0:
166,295,136460,1,8,0:0:0:0:
170,263,136545,1,8,0:0:0:0:
184,234,136631,6,0,B|223:209|223:209|296:217,2,110.50000210762,0|0|0,1:2|0:0|0:0,0:0:0:0:
356,152,137143,1,8,0:0:0:0:
73,63,137313,2,0,P|136:71|195:56,1,110.50000210762,0|0,1:2|0:0,0:0:0:0:
369,241,137654,2,0,P|313:234|260:249,1,110.50000210762,8|0,0:0|0:0,0:0:0:0:
76,326,137995,70,0,B|98:289|98:289|93:218,2,110.50000210762,0|0|0,1:2|0:0|0:0,0:0:0:0:
136,137,138506,1,8,0:0:0:0:
278,353,138677,2,0,B|256:316|256:316|261:245,1,110.50000210762,0|0,1:2|0:0,0:0:0:0:
434,45,139018,1,8,0:0:0:0:
445,74,139103,1,8,0:0:0:0:
445,107,139188,1,8,0:0:0:0:
431,135,139273,1,8,0:0:0:0:
406,156,139358,6,0,L|299:135,1,97.50000371933,0|0,1:2|0:0,0:0:0:0:
466,212,139699,1,0,1:2:0:0:
201,301,139870,2,0,L|304:324,1,97.50000371933,8|0,0:0|0:0,0:0:0:0:
136,363,140211,1,0,1:2:0:0:
225,119,140381,2,0,P|233:166|218:219,1,97.50000371933,8|0,0:0|0:0,0:0:0:0:
383,369,140722,69,0,1:2:0:0:
470,109,140893,1,8,0:0:0:0:
298,238,141063,1,8,0:0:0:0:
262,28,141233,1,8,0:0:0:0:
377,185,141404,5,8,0:0:0:0:
358,158,141489,1,8,0:0:0:0:
331,141,141574,1,8,0:0:0:0:
299,137,141659,1,8,0:0:0:0:
268,146,141744,1,8,0:0:0:0:
231,158,141830,1,8,0:0:0:0:
192,155,141915,1,8,0:0:0:0:
157,139,142000,1,8,0:0:0:0:
130,112,142085,69,4,0:0:0:0:
326,41,142256,1,0,0:0:0:0:
221,285,142427,2,0,P|221:232|204:177,1,97.50000371933,8|0,0:0|0:0,0:0:0:0:
463,127,142768,2,0,B|432:98|432:98|418:213,1,146.250005578995,0|0,1:2|0:0,0:0:0:0:
443,273,143108,1,12,0:0:0:0:
241,92,143279,1,0,0:0:0:0:
296,328,143449,5,0,1:2:0:0:
346,122,143620,1,0,0:0:0:0:
126,273,143790,2,0,P|175:269|230:291,1,97.50000371933,12|0,0:0|0:0,0:0:0:0:
261,70,144131,2,0,B|222:42|222:42|240:162,1,146.250005578995,0|0,1:2|0:0,0:0:0:0:
279,200,144472,1,12,0:0:0:0:
118,44,144643,1,0,0:0:0:0:
47,222,144813,69,0,1:2:0:0:
322,113,144983,1,0,0:0:0:0:
23,99,145154,1,12,0:0:0:0:
301,196,145324,1,0,0:0:0:0:
195,0,145495,2,0,P|202:52|186:109,1,97.50000371933,0|0,1:2|0:0,0:0:0:0:
388,269,145836,2,0,P|381:217|397:160,1,97.50000371933,12|0,0:0|0:0,0:0:0:0:
125,233,146177,6,0,B|204:239|204:239|242:267|242:267|322:274,1,195.00000743866,0|12,1:2|0:0,0:0:0:0:
310,273,146688,1,0,0:0:0:0:
168,317,146858,2,0,P|165:355|170:382,1,65,0|0,1:2|0:0,0:0:0:0:
405,304,147199,1,8,0:0:0:0:
405,271,147284,1,8,0:0:0:0:
397,240,147369,1,8,0:0:0:0:
381,212,147454,1,8,0:0:0:0:
358,189,147540,70,0,B|226:205|226:205|274:152,1,195.00000743866,4|8,0:0|0:0,0:0:0:0:
267,159,148052,1,0,0:0:0:0:
91,276,148222,1,0,1:2:0:0:
150,174,148393,1,0,0:0:0:0:
27,120,148563,2,0,P|22:71|33:17,1,97.50000371933,12|0,0:0|0:0,0:0:0:0:
194,20,148904,5,0,1:2:0:0:
110,101,149074,1,0,0:0:0:0:
237,178,149245,2,0,L|248:278,1,97.50000371933,12|0,0:0|0:0,0:0:0:0:
254,360,149586,1,0,1:2:0:0:
447,179,149756,2,0,P|392:171|351:188,1,97.50000371933,0|12,0:0|0:0,0:0:0:0:
287,256,150097,1,0,0:0:0:0:
314,59,150268,69,0,1:2:0:0:
397,278,150438,1,0,0:0:0:0:
400,52,150608,1,12,0:0:0:0:
303,265,150778,1,0,0:0:0:0:
481,111,150949,5,0,1:2:0:0:
238,201,151119,1,0,0:0:0:0:
473,216,151290,1,12,0:0:0:0:
237,107,151460,1,0,0:0:0:0:
411,310,151631,69,0,1:2:0:0:
312,41,151801,1,0,0:0:0:0:
289,301,151972,1,12,0:0:0:0:
414,36,152142,1,0,0:0:0:0:
113,188,152313,5,8,0:0:0:0:
148,172,152398,1,8,0:0:0:0:
187,171,152483,1,8,0:0:0:0:
222,187,152568,1,8,0:0:0:0:
248,215,152653,1,8,0:0:0:0:
270,237,152739,1,8,0:0:0:0:
300,249,152824,1,8,0:0:0:0:
333,248,152909,1,8,0:0:0:0:
362,235,152995,54,0,P|349:166|368:100,1,130,0|0,1:2|0:0,0:0:0:0:
363,109,153506,1,0,1:2:0:0:
363,109,154018,2,0,B|450:101|450:101|371:14|299:114|299:122|248:172|131:121,1,390.00001487732,4|0,0:0|0:0,0:0:0:0:
176,136,155040,2,0,P|184:160|183:235,1,97.50000371933,8|0,0:0|0:0,0:0:0:0:
397,329,155722,70,0,P|390:276|435:186,1,130,0|0,1:2|0:0,0:0:0:0:
416,205,156233,1,0,1:2:0:0:
416,205,156745,2,0,B|456:185|500:192|500:192|431:100|331:187|331:192|302:248|168:206,1,422.499980659486,4|0,0:0|0:0,0:0:0:0:
121,76,157768,2,0,P|124:119|104:162,1,84.4999961318971,8|0,0:0|0:0,0:0:0:0:
58,240,158108,2,0,P|55:283|75:326,1,84.4999961318971
272,307,158449,6,0,P|318:294|408:309,1,130,0|0,1:2|0:0,0:0:0:0:
398,304,158961,1,0,1:2:0:0:
398,304,159472,2,0,B|329:360|329:360|360:138,1,286.000008728028,4|0,0:0|0:0,0:0:0:0:
356,164,160495,2,0,P|331:156|274:159,1,77.999997619629,8|0,0:0|0:0,0:0:0:0:
143,329,161177,70,0,P|148:285|120:157,1,168.999992263794,0|0,1:2|0:0,0:0:0:0:
123,163,161688,1,0,1:2:0:0:
123,163,162199,2,0,B|93:208|18:272|-40:223|-37:145|8:122|75:113|82:181|82:183|65:270|166:290,1,390,0|12,0:0|0:0,0:0:0:0:
142,282,163393,1,0,1:2:0:0:
142,282,163734,1,8,0:0:0:0:
157,277,163819,1,8,0:0:0:0:
173,277,163904,1,8,0:0:0:0:
189,200,174643,85,0,0:0:0:0:
189,200,174813,2,0,P|188:157|174:119,1,77.999997619629,0|0,1:2|0:0,0:0:0:0:
132,54,175154,1,0,1:2:0:0:
284,249,175324,2,0,P|285:206|309:171,1,77.999997619629,0|0,0:0|1:2,0:0:0:0:
340,102,175665,1,0,0:0:0:0:
121,302,175836,2,0,P|162:294|205:300,1,77.999997619629,0|0,1:2|0:0,0:0:0:0:
279,342,176177,1,0,1:2:0:0:
388,190,176347,6,0,L|387:271,1,77.999997619629,0|0,0:0|1:2,0:0:0:0:
386,344,176688,1,0,0:0:0:0:
288,163,176858,2,0,L|287:244,1,77.999997619629,0|0,1:2|0:0,0:0:0:0:
106,274,177199,2,0,L|107:193,1,77.999997619629,0|0,1:2|0:0,0:0:0:0:
301,44,177540,70,0,P|258:57|213:55,1,77.999997619629,0|0,1:2|0:0,0:0:0:0:
98,64,177881,2,0,P|130:94|151:134,1,77.999997619629,0|0,1:2|0:0,0:0:0:0:
218,226,178222,2,0,P|228:182|252:144,1,77.999997619629,0|0,1:2|0:0,0:0:0:0:
495,125,178563,6,0,B|433:103|416:136|416:141|383:158|332:136,1,155.999995239258,0|0,1:2|1:2,0:0:0:0:
347,142,179074,1,0,0:0:0:0:
468,216,179245,2,0,P|472:243|472:266,1,48.750001859665,0|0,1:2|0:0,0:0:0:0:
215,303,179586,2,0,P|213:247|223:210,1,77.999997619629,0|0,1:2|0:0,0:0:0:0:
262,147,179927,2,0,P|264:91|254:54,1,77.999997619629,0|0,1:2|0:0,0:0:0:0:
107,16,180268,6,0,L|97:133,1,97.50000371933,8|0,0:0|0:0,0:0:0:0:
81,307,180608,2,0,L|91:190,1,97.50000371933,8|0,0:0|0:0,0:0:0:0:
185,73,180949,2,0,L|175:190,1,97.50000371933,8|0,0:0|0:0,0:0:0:0:
159,364,181290,2,0,L|169:247,1,97.50000371933,8|0,0:0|0:0,0:0:0:0:
450,70,181631,6,0,L|339:110,1,97.50000371933,8|0,0:0|0:0,0:0:0:0:
176,170,181972,2,0,L|286:129,1,97.50000371933,8|0,0:0|0:0,0:0:0:0:
430,163,182313,2,0,L|319:203,1,97.50000371933,8|0,0:0|0:0,0:0:0:0:
156,263,182654,2,0,L|266:222,1,97.50000371933,8|0,0:0|0:0,0:0:0:0:
327,18,182995,69,8,0:0:0:0:
319,287,183165,1,8,0:0:0:0:
238,51,183336,1,8,0:0:0:0:
224,331,183506,1,8,0:0:0:0:
420,79,183677,5,8,0:0:0:0:
121,148,183847,1,8,0:0:0:0:
444,210,184018,1,8,0:0:0:0:
119,290,184188,1,8,0:0:0:0:
477,115,184358,5,8,0:0:0:0:
240,213,184529,1,8,0:0:0:0:
499,312,184699,1,8,0:0:0:0:
193,111,184870,1,8,0:0:0:0:
419,203,185041,1,8,0:0:0:0:
183,341,185211,1,8,0:0:0:0:
321,46,185381,5,8,0:0:0:0:
301,79,185466,1,8,0:0:0:0:
296,117,185551,1,8,0:0:0:0:
306,155,185636,1,8,0:0:0:0:
329,185,185722,6,0,B|380:183|390:142|390:142|349:131|308:162|308:162|340:79|284:47|284:47|220:71|236:151|236:151|177:66|143:124|70:64|70:64|53:160|114:209|114:209|63:226|18:198|18:198|0:265|74:303,1,998.400024375001,4|0,0:0|0:0,0:0:0:0:
256,192,188620,12,0,189643,0:0:0:0:
201,143,189813,6,0,B|280:149|280:149|310:176|310:176|390:183,1,195.00000743866,0|2,1:2|0:0,0:0:0:0:
385,182,191177,53,4,0:0:0:0:
242,224,191347,1,0,0:0:0:0:
431,100,191518,54,0,P|441:49|425:-9,1,104,8|0,0:0|0:0,0:0:0:0:
156,192,191858,2,0,P|112:163|83:110,1,104,8|0,0:0|0:0,0:0:0:0:
85,119,192199,1,0,1:2:0:0:
317,177,192370,70,0,P|327:228|311:285,1,104,8|0,0:0|0:0,0:0:0:0:
230,225,192711,1,0,1:2:0:0:
411,261,192881,1,0,1:2:0:0:
180,348,193052,2,0,L|56:327,1,104,8|0,0:0|0:0,0:0:0:0:
77,330,193393,1,0,1:2:0:0:
218,86,193563,1,8,0:0:0:0:
242,115,193648,1,8,0:0:0:0:
253,152,193733,1,8,0:0:0:0:
249,191,193818,1,8,0:0:0:0:
230,225,193903,21,4,0:0:0:0:
351,137,194074,1,0,0:0:0:0:
155,161,194245,70,0,L|57:131,1,77.999997619629,8|0,0:0|0:0,0:0:0:0:
209,320,194586,1,0,1:2:0:0:
243,219,194756,1,0,0:0:0:0:
356,352,194927,1,0,1:2:0:0:
422,130,195097,70,0,L|439:211,1,77.999997619629,8|0,0:0|0:0,0:0:0:0:
230,322,195438,1,0,1:2:0:0:
310,211,195608,1,0,1:2:0:0:
176,154,195779,2,0,L|162:68,1,77.999997619629,8|0,0:0|0:0,0:0:0:0:
49,366,196120,1,8,0:0:0:0:
87,189,196290,1,8,0:0:0:0:
222,307,196461,1,8,0:0:0:0:
123,288,196631,6,0,B|170:234|241:264|241:268|274:256|276:223|251:202|218:215|221:246,1,195,0|0,1:2|0:0,0:0:0:0:
226,226,196972,2,0,P|238:263|227:327,1,84.4999961318971,8|0,0:0|0:0,0:0:0:0:
364,103,197313,2,0,P|356:142|369:194,1,84.4999961318971,8|0,0:0|0:0,0:0:0:0:
412,270,197654,1,0,1:2:0:0:
155,118,197824,70,0,P|209:103|265:120,1,97.50000371933,8|0,0:0|0:0,0:0:0:0:
207,194,198165,1,0,1:2:0:0:
298,35,198336,1,0,1:2:0:0:
364,224,198506,2,0,L|464:244,1,97.50000371933,8|0,0:0|0:0,0:0:0:0:
459,243,198847,1,0,1:2:0:0:
272,326,199018,1,8,0:0:0:0:
276,293,199103,1,8,0:0:0:0:
272,261,199188,1,8,0:0:0:0:
109,346,199358,6,0,L|7:328,1,97.50000371933,0|0,1:2|0:0,0:0:0:0:
186,311,199699,1,0,1:2:0:0:
112,94,199870,2,0,P|114:146|97:195,1,97.50000371933,8|0,0:0|0:0,0:0:0:0:
38,249,200211,1,0,1:2:0:0:
224,34,200381,2,0,P|222:86|239:135,1,97.50000371933,8|0,0:0|0:0,0:0:0:0:
322,70,200722,69,0,1:2:0:0:
216,316,200893,1,8,0:0:0:0:
329,167,201063,1,8,0:0:0:0:
401,338,201233,1,8,0:0:0:0:
299,351,201404,5,8,0:0:0:0:
303,318,201489,1,8,0:0:0:0:
317,289,201574,1,8,0:0:0:0:
340,266,201659,1,8,0:0:0:0:
368,250,201744,1,8,0:0:0:0:
395,233,201830,1,8,0:0:0:0:
415,207,201915,1,8,0:0:0:0:
423,176,202000,1,8,0:0:0:0:
418,144,202086,70,0,L|277:113,1,110.50000210762,8|0,0:0|0:0,0:0:0:0:
146,227,202427,2,0,L|287:196,1,110.50000210762,8|0,0:0|0:0,0:0:0:0:
428,123,202768,2,0,L|271:103,1,110.50000210762,8|0,0:0|0:0,0:0:0:0:
138,240,203109,2,0,L|290:193,1,110.50000210762,8|0,0:0|0:0,0:0:0:0:
438,100,203449,2,0,L|282:96,1,110.50000210762,8|0,0:0|0:0,0:0:0:0:
132,256,203790,2,0,L|280:197,1,110.50000210762,8|0,0:0|0:0,0:0:0:0:
447,74,204131,2,0,L|286:85,1,110.50000210762,8|0,0:0|0:0,0:0:0:0:
126,274,204472,2,0,L|267:203,1,110.50000210762,8|0,0:0|0:0,0:0:0:0:
146,29,204813,6,0,P|139:85|151:149,1,110.50000210762,8|0,0:0|0:0,0:0:0:0:
398,295,205154,2,0,P|405:239|393:175,1,110.50000210762,8|0,0:0|0:0,0:0:0:0:
119,23,205495,2,0,P|117:85|136:154,1,110.50000210762,8|0,0:0|0:0,0:0:0:0:
421,291,205836,2,0,P|423:229|404:160,1,110.50000210762,8|0,0:0|0:0,0:0:0:0:
90,20,206177,2,0,P|94:89|121:162,1,110.50000210762,8|0,0:0|0:0,0:0:0:0:
446,284,206518,2,0,P|443:216|415:142,1,110.50000210762,8|0,0:0|0:0,0:0:0:0:
58,20,206858,2,0,P|68:94|106:172,1,110.50000210762,8|0,0:0|0:0,0:0:0:0:
463,225,207199,1,8,0:0:0:0:
427,208,207284,1,8,0:0:0:0:
389,207,207369,1,8,0:0:0:0:
353,222,207454,1,8,0:0:0:0:
325,249,207540,70,0,B|329:177|258:148|255:151|240:119|262:94|295:97|309:130|285:150,1,195,0|0,1:2|0:0,0:0:0:0:
295,131,207881,2,0,P|257:148|216:147,1,77.999997619629,8|0,0:0|0:0,0:0:0:0:
28,175,208222,2,0,B|23:103|94:74|97:77|112:45|90:20|57:23|43:56|67:76,1,195,0|0,1:2|0:0,0:0:0:0:
58,57,208563,2,0,P|95:74|136:73,1,77.999997619629,8|0,0:0|0:0,0:0:0:0:
440,128,208904,6,0,B|393:74|322:104|322:108|288:96|287:63|312:42|345:55|342:86,1,195,0|0,1:2|0:0,0:0:0:0:
335,66,209245,2,0,P|320:104|291:132,1,77.999997619629,8|0,0:0|0:0,0:0:0:0:
82,312,209586,2,0,B|129:258|200:288|200:292|233:280|235:247|210:226|177:239|180:270,1,195,0|0,1:2|0:0,0:0:0:0:
187,250,209927,2,0,P|201:288|230:316,1,77.999997619629,8|0,0:0|0:0,0:0:0:0:
433,57,210268,70,0,B|371:118|425:194|429:195|442:240|403:250|371:236|359:210|374:180|412:183,3,260,0|8|8|8,1:2|0:0|0:0|0:0,0:0:0:0:
400,183,211802,1,8,0:0:0:0:
343,339,211972,1,8,0:0:0:0:
237,173,212143,1,8,0:0:0:0:
182,381,212313,1,8,0:0:0:0:
170,343,212398,1,8,0:0:0:0:
170,304,212483,1,8,0:0:0:0:
279,266,212654,1,2,0:0:0:0:
109,197,212824,1,2,0:0:0:0:
413,63,212995,5,4,0:0:0:0:
185,136,213165,1,0,0:0:0:0:
398,315,213336,2,0,P|395:261|415:198,1,110.50000210762,8|0,0:0|0:0,0:0:0:0:
231,61,213677,2,0,B|259:16|259:16|286:145,1,165.75000316143,0|0,1:2|0:0,0:0:0:0:
264,203,214018,1,4,0:0:0:0:
442,74,214188,1,0,0:0:0:0:
111,157,214358,69,0,1:2:0:0:
336,239,214529,1,0,0:0:0:0:
144,384,214699,2,0,P|144:329|117:274,1,110.50000210762,8|0,0:0|0:0,0:0:0:0:
212,86,215040,2,0,B|234:44|234:44|260:190,1,165.75000316143,0|0,1:2|0:0,0:0:0:0:
313,217,215381,1,12,0:0:0:0:
115,155,215552,1,0,0:0:0:0:
424,129,215722,5,0,1:2:0:0:
173,214,215893,1,0,0:0:0:0:
429,236,216063,1,12,0:0:0:0:
174,92,216234,1,0,0:0:0:0:
328,359,216404,2,0,P|327:295|356:239,1,110.50000210762,0|0,1:2|0:0,0:0:0:0:
184,75,216745,2,0,P|185:139|156:195,1,110.50000210762,12|0,0:0|0:0,0:0:0:0:
512,105,217086,70,0,B|424:112|424:112|394:139|394:139|290:148,1,221.000004215241,0|12,1:2|0:0,0:0:0:0:
301,147,217597,1,0,0:0:0:0:
475,204,217768,2,0,L|491:320,1,110.50000210762,0|0,1:2|0:0,0:0:0:0:
197,274,218108,1,8,0:0:0:0:
229,252,218193,1,8,0:0:0:0:
267,247,218278,1,8,0:0:0:0:
305,257,218363,1,8,0:0:0:0:
335,281,218449,6,0,B|280:318|280:318|308:152,1,221.000004215241,0|12,1:2|0:0,0:0:0:0:
305,165,218961,1,0,0:0:0:0:
114,293,219131,1,0,1:2:0:0:
200,199,219302,1,0,0:0:0:0:
45,128,219472,2,0,P|44:71|68:17,1,110.50000210762,12|0,0:0|0:0,0:0:0:0:
246,24,219813,69,0,1:2:0:0:
151,111,219983,1,0,0:0:0:0:
315,169,220154,1,12,0:0:0:0:
200,310,220324,5,0,0:0:0:0:
251,93,220495,1,0,1:2:0:0:
370,325,220665,1,0,0:0:0:0:
364,80,220836,69,12,0:0:0:0:
273,349,221006,1,0,0:0:0:0:
458,194,221177,5,0,1:2:0:0:
208,245,221347,1,0,0:0:0:0:
423,290,221518,1,12,0:0:0:0:
210,149,221688,1,0,0:0:0:0:
357,352,221858,69,0,1:2:0:0:
264,66,222028,1,0,0:0:0:0:
223,334,222199,1,12,0:0:0:0:
392,83,222369,1,0,0:0:0:0:
140,261,222540,5,0,1:2:0:0:
444,197,222710,1,8,0:0:0:0:
144,131,222881,1,12,0:0:0:0:
417,307,223051,1,0,0:0:0:0:
307,42,223222,1,0,1:2:0:0:
288,206,223393,69,8,0:0:0:0:
265,174,223478,1,8,0:0:0:0:
230,159,223563,1,8,0:0:0:0:
192,165,223648,1,8,0:0:0:0:
153,167,223733,1,8,0:0:0:0:
119,150,223818,1,8,0:0:0:0:
98,117,223904,5,4,0:0:0:0:
125,330,224074,1,0,0:0:0:0:
314,154,224245,2,0,P|256:156|209:142,1,104,8|0,0:0|0:0,0:0:0:0:
475,40,224586,2,0,B|431:21|431:21|451:146,1,156,0|0,1:2|0:0,0:0:0:0:
490,197,224927,1,12,0:0:0:0:
237,54,225097,1,0,0:0:0:0:
369,303,225268,69,0,1:2:0:0:
352,65,225438,1,0,0:0:0:0:
176,248,225608,2,0,P|229:245|278:265,1,104,12|0,0:0|0:0,0:0:0:0:
85,64,225949,2,0,B|116:34|116:34|111:169,1,156,0|0,1:2|0:0,0:0:0:0:
63,211,226290,1,12,0:0:0:0:
344,115,226461,1,0,0:0:0:0:
212,333,226631,5,0,1:2:0:0:
226,50,226802,1,0,0:0:0:0:
350,322,226972,1,12,0:0:0:0:
105,94,227143,1,0,0:0:0:0:
416,200,227313,2,0,P|364:202|316:230,1,104,0|0,1:2|0:0,0:0:0:0:
74,186,227654,2,0,P|126:184|174:156,1,104,12|0,0:0|0:0,0:0:0:0:
237,24,227995,70,0,B|230:103|230:103|251:137|251:137|242:233,1,208,0|12,1:2|0:0,0:0:0:0:
243,225,228506,1,0,0:0:0:0:
321,76,228677,2,0,P|381:76|426:106,1,104,8|0,0:0|0:0,0:0:0:0:
117,344,229018,1,8,0:0:0:0:
114,305,229103,1,8,0:0:0:0:
111,266,229188,1,8,0:0:0:0:
108,227,229273,1,8,0:0:0:0:
105,188,229358,6,0,B|171:146|211:178|211:183|253:227|335:180,1,221.000004215241,4|8,0:0|0:0,0:0:0:0:
315,189,229870,1,0,0:0:0:0:
163,268,230040,1,0,1:2:0:0:
273,98,230211,1,0,0:0:0:0:
358,290,230381,2,0,L|475:317,1,110.50000210762,12|0,0:0|0:0,0:0:0:0:
243,350,230722,69,0,1:2:0:0:
328,193,230893,1,0,0:0:0:0:
138,144,231063,2,0,P|130:89|139:29,1,110.50000210762,12|0,0:0|0:0,0:0:0:0:
310,42,231404,1,0,0:0:0:0:
209,250,231574,1,8,0:0:0:0:
209,250,231660,1,8,0:0:0:0:
209,250,231745,1,8,0:0:0:0:
438,261,231915,1,0,1:2:0:0:
231,88,232086,5,4,0:0:0:0:
304,340,232256,1,0,0:0:0:0:
323,97,232427,1,12,0:0:0:0:
196,326,232597,1,0,0:0:0:0:
397,164,232768,69,4,0:0:0:0:
120,243,232938,1,0,0:0:0:0:
378,273,233108,1,12,0:0:0:0:
126,132,233278,1,0,0:0:0:0:
289,367,233449,21,12,0:0:0:0:
194,33,233619,1,4,0:0:0:0:
158,355,233790,1,12,0:0:0:0:
326,51,233960,1,4,0:0:0:0:
61,203,234131,69,8,0:0:0:0:
92,181,234216,1,8,0:0:0:0:
131,177,234301,1,8,0:0:0:0:
166,192,234386,1,8,0:0:0:0:
189,223,234472,1,8,0:0:0:0:
220,245,234557,1,8,0:0:0:0:
259,249,234642,1,8,0:0:0:0:
294,234,234727,1,8,0:0:0:0:
317,203,234813,70,0,B|321:92|218:50|218:50|142:132|204:229|204:229|128:146|25:189|25:189|30:301|160:330,1,780.00002975464
270,259,238904,70,0,B|233:229|181:223|151:243|151:243|168:276|211:278,2,195.00000743866,2|2|2,0:0|0:0|0:0,0:0:0:0:
326,206,240949,5,2,0:0:0:0:
301,136,241631,1,2,0:0:0:0:
228,138,242313,1,2,0:0:0:0:
122,142,244358,54,0,B|179:180|193:244|193:244|220:183|297:157,1,260,2|2,0:0|0:0,0:0:0:0:
276,152,247400,5,2,0:0:0:0:
223,132,247854,1,2,0:0:0:0:
154,165,248344,1,2,0:0:0:0:
90,120,248895,1,2,0:0:0:0:
34,134,249695,1,2,0:0:0:0:
