osu file format v14

[General]
AudioFilename: audio.mp3
AudioLeadIn: 0
PreviewTime: 163563
Countdown: 0
SampleSet: Soft
StackLeniency: 0.7
Mode: 3
LetterboxInBreaks: 0
SpecialStyle: 0
WidescreenStoryboard: 0

[Editor]
DistanceSpacing: 2
BeatDivisor: 4
GridSize: 8
TimelineZoom: 3.099998

[Metadata]
Title:confusion
TitleUnicode:confusion
Artist:nowisee
ArtistUnicode:nowisee
Creator:Sherly
Version:HD
Source:
Tags:掌の戦争 kuo kyoka
BeatmapID:1872636
BeatmapSetID:896303

[Difficulty]
HPDrainRate:7.5
CircleSize:4
OverallDifficulty:7.5
ApproachRate:5
SliderMultiplier:1.4
SliderTickRate:1

[Events]
//Background and Video events
0,0,"BG-min.jpg",0,0
Video,0,"bga.mp4"
//Break Periods
//Storyboard Layer 0 (Background)
//Storyboard Layer 1 (Fail)
//Storyboard Layer 2 (Pass)
//Storyboard Layer 3 (Foreground)
//Storyboard Layer 4 (Overlay)
//Storyboard Sound Samples

[TimingPoints]
268,340.909090909091,4,2,1,40,1,0
60268,-100,4,2,1,40,0,1
70836,-100,4,2,1,40,0,0
71177,-100,4,2,1,40,0,1
82086,-100,4,2,1,40,0,0
131177,-100,4,2,1,40,0,1
141745,-100,4,2,1,40,0,0
142086,-100,4,2,1,40,0,1
152995,-100,4,2,1,40,0,0
191177,-100,4,2,1,40,0,1
201745,-100,4,2,1,40,0,0
202086,-100,4,2,1,40,0,1
212654,-100,4,2,1,40,0,0
212995,-100,4,2,1,40,0,1
223563,-100,4,2,1,40,0,0
223904,-100,4,2,1,40,0,1
234813,-100,4,2,1,40,0,0
245722,419.58041958042,4,2,1,40,1,0
245722,-81.3008130081301,4,2,1,40,0,0
247400,454.545454545455,4,2,1,40,1,0
247400,-75.187969924812,4,2,1,40,0,0
247854,490.79754601227,4,2,1,40,1,0
247854,-69.4444444444444,4,2,1,40,0,0
248344,545.454545454546,4,2,1,40,1,0
248344,-62.5,4,2,1,40,0,0
248895,800,4,2,1,40,1,0
248895,-42.5531914893617,4,2,1,40,0,0

[HitObjects]
64,192,268,5,0,0:0:0:0:
448,192,608,1,0,0:0:0:0:
192,192,949,1,0,0:0:0:0:
320,192,1290,1,0,0:0:0:0:
448,192,1631,1,0,0:0:0:0:
192,192,1972,1,0,0:0:0:0:
320,192,2313,1,0,0:0:0:0:
64,192,2654,1,0,0:0:0:0:
192,192,4358,1,0,0:0:0:0:
448,192,4358,1,0,0:0:0:0:
64,192,5040,1,0,0:0:0:0:
320,192,5040,1,0,0:0:0:0:
64,192,5722,1,0,0:0:0:0:
448,192,5722,1,0,0:0:0:0:
320,192,6063,1,0,0:0:0:0:
192,192,6404,1,0,0:0:0:0:
64,192,6745,1,0,0:0:0:0:
320,192,7086,1,0,0:0:0:0:
192,192,7427,1,0,0:0:0:0:
448,192,7768,1,0,0:0:0:0:
64,192,8108,1,0,0:0:0:0:
192,192,9813,1,0,0:0:0:0:
448,192,9813,128,0,10495:0:0:0:0:
64,192,10495,128,0,11177:0:0:0:0:
320,192,10495,1,0,0:0:0:0:
320,192,10836,1,0,0:0:0:0:
448,192,10836,128,0,11177:0:0:0:0:
192,192,11177,1,0,0:0:0:0:
320,192,11177,1,0,0:0:0:0:
64,192,11347,1,0,0:0:0:0:
192,192,11518,1,0,0:0:0:0:
448,192,11518,1,0,0:0:0:0:
320,192,11688,1,0,0:0:0:0:
64,192,11858,1,0,0:0:0:0:
448,192,11944,1,0,0:0:0:0:
192,192,12029,1,0,0:0:0:0:
320,192,12114,1,0,0:0:0:0:
64,192,12199,1,0,0:0:0:0:
192,192,12370,1,0,0:0:0:0:
320,192,12370,1,0,0:0:0:0:
448,192,12540,1,0,0:0:0:0:
192,192,12711,1,0,0:0:0:0:
64,192,12881,1,0,0:0:0:0:
320,192,12881,1,0,0:0:0:0:
448,192,13052,1,0,0:0:0:0:
192,192,13222,1,0,0:0:0:0:
320,192,13307,1,0,0:0:0:0:
64,192,13393,1,0,0:0:0:0:
192,192,13478,1,0,0:0:0:0:
448,192,13563,1,0,0:0:0:0:
64,192,13733,1,0,0:0:0:0:
192,192,13733,1,0,0:0:0:0:
320,192,13904,1,0,0:0:0:0:
192,192,14074,1,0,0:0:0:0:
64,192,14245,1,0,0:0:0:0:
448,192,14245,1,0,0:0:0:0:
320,192,14415,1,0,0:0:0:0:
192,192,14586,1,0,0:0:0:0:
448,192,14671,1,0,0:0:0:0:
64,192,14756,1,0,0:0:0:0:
320,192,14841,1,0,0:0:0:0:
192,192,14927,1,0,0:0:0:0:
64,192,15097,1,0,0:0:0:0:
320,192,15097,1,0,0:0:0:0:
192,192,15268,1,0,0:0:0:0:
448,192,15268,1,0,0:0:0:0:
64,192,15268,1,0,0:0:0:0:
192,192,15438,1,0,0:0:0:0:
64,192,15608,1,0,0:0:0:0:
448,192,15608,1,0,0:0:0:0:
320,192,15779,1,0,0:0:0:0:
192,192,15864,1,0,0:0:0:0:
448,192,15949,1,0,0:0:0:0:
320,192,15949,1,0,0:0:0:0:
64,192,15949,1,0,0:0:0:0:
64,192,16120,1,0,0:0:0:0:
192,192,16290,1,0,0:0:0:0:
448,192,16290,1,0,0:0:0:0:
320,192,16461,1,0,0:0:0:0:
64,192,16631,1,0,0:0:0:0:
448,192,16631,1,0,0:0:0:0:
192,192,16631,1,0,0:0:0:0:
320,192,16802,1,0,0:0:0:0:
448,192,16972,1,0,0:0:0:0:
64,192,16972,1,0,0:0:0:0:
192,192,17143,1,0,0:0:0:0:
448,192,17313,1,0,0:0:0:0:
192,192,17398,1,0,0:0:0:0:
320,192,17483,1,0,0:0:0:0:
64,192,17569,1,0,0:0:0:0:
192,192,17654,1,0,0:0:0:0:
64,192,17824,1,0,0:0:0:0:
320,192,17824,1,0,0:0:0:0:
448,192,17995,1,0,0:0:0:0:
192,192,18165,1,0,0:0:0:0:
320,192,18336,1,0,0:0:0:0:
448,192,18336,1,0,0:0:0:0:
64,192,18506,1,0,0:0:0:0:
192,192,18677,1,0,0:0:0:0:
320,192,18762,1,0,0:0:0:0:
448,192,18847,1,0,0:0:0:0:
192,192,18932,1,0,0:0:0:0:
64,192,19018,1,0,0:0:0:0:
192,192,19188,1,0,0:0:0:0:
320,192,19188,1,0,0:0:0:0:
448,192,19358,1,0,0:0:0:0:
320,192,19529,1,0,0:0:0:0:
64,192,19699,1,0,0:0:0:0:
192,192,19699,1,0,0:0:0:0:
448,192,19870,1,0,0:0:0:0:
64,192,20040,1,0,0:0:0:0:
320,192,20125,1,0,0:0:0:0:
192,192,20211,1,0,0:0:0:0:
448,192,20296,1,0,0:0:0:0:
64,192,20381,1,0,0:0:0:0:
192,192,20552,1,0,0:0:0:0:
448,192,20552,1,0,0:0:0:0:
64,192,20722,1,0,0:0:0:0:
320,192,20722,1,0,0:0:0:0:
448,192,20722,1,0,0:0:0:0:
64,192,20893,1,0,0:0:0:0:
192,192,21063,1,0,0:0:0:0:
320,192,21063,1,0,0:0:0:0:
448,192,21233,1,0,0:0:0:0:
320,192,21319,1,0,0:0:0:0:
64,192,21404,1,0,0:0:0:0:
192,192,21404,1,0,0:0:0:0:
192,192,21574,1,0,0:0:0:0:
448,192,21745,1,0,0:0:0:0:
320,192,21830,1,0,0:0:0:0:
192,192,21915,1,0,0:0:0:0:
64,192,22000,1,0,0:0:0:0:
448,192,22086,1,0,0:0:0:0:
192,192,22086,1,0,0:0:0:0:
320,192,22086,128,0,24302:0:0:0:0:
64,192,22256,1,0,0:0:0:0:
448,192,22427,1,0,0:0:0:0:
64,192,22597,1,0,0:0:0:0:
448,192,22768,1,0,0:0:0:0:
64,192,22938,1,0,0:0:0:0:
448,192,23108,1,0,0:0:0:0:
64,192,23279,1,0,0:0:0:0:
448,192,23449,1,0,0:0:0:0:
64,192,23620,1,0,0:0:0:0:
448,192,23790,1,0,0:0:0:0:
64,192,23961,1,0,0:0:0:0:
448,192,24131,1,0,0:0:0:0:
192,192,24302,1,0,0:0:0:0:
448,192,24472,1,0,0:0:0:0:
64,192,24643,1,0,0:0:0:0:
320,192,24813,1,0,0:0:0:0:
192,192,24983,1,0,0:0:0:0:
320,192,25154,1,0,0:0:0:0:
192,192,25324,1,0,0:0:0:0:
320,192,25495,1,0,0:0:0:0:
192,192,25665,1,0,0:0:0:0:
320,192,25836,1,0,0:0:0:0:
192,192,26006,1,0,0:0:0:0:
448,192,26177,1,0,0:0:0:0:
64,192,26347,1,0,0:0:0:0:
448,192,26518,1,0,0:0:0:0:
192,192,26688,1,0,0:0:0:0:
64,192,26858,1,0,0:0:0:0:
448,192,26858,1,0,0:0:0:0:
192,192,27029,1,0,0:0:0:0:
448,192,27199,1,0,0:0:0:0:
192,192,27370,1,0,0:0:0:0:
64,192,27540,1,0,0:0:0:0:
320,192,27540,1,0,0:0:0:0:
192,192,27711,1,0,0:0:0:0:
448,192,27881,1,0,0:0:0:0:
192,192,28052,1,0,0:0:0:0:
448,192,28222,1,0,0:0:0:0:
192,192,28393,1,0,0:0:0:0:
448,192,28563,1,0,0:0:0:0:
192,192,28733,1,0,0:0:0:0:
320,192,28904,1,0,0:0:0:0:
448,192,28904,1,0,0:0:0:0:
64,192,29074,1,0,0:0:0:0:
448,192,29245,1,0,0:0:0:0:
64,192,29415,1,0,0:0:0:0:
448,192,29586,1,0,0:0:0:0:
64,192,29756,1,0,0:0:0:0:
448,192,29927,1,0,0:0:0:0:
64,192,30097,1,0,0:0:0:0:
320,192,30268,1,0,0:0:0:0:
448,192,30268,1,0,0:0:0:0:
192,192,30438,1,0,0:0:0:0:
320,192,30608,1,0,0:0:0:0:
192,192,30779,1,0,0:0:0:0:
320,192,30949,1,0,0:0:0:0:
192,192,31120,1,0,0:0:0:0:
320,192,31290,1,0,0:0:0:0:
192,192,31461,1,0,0:0:0:0:
64,192,31631,1,0,0:0:0:0:
448,192,31631,1,0,0:0:0:0:
320,192,31972,1,0,0:0:0:0:
64,192,32143,1,0,0:0:0:0:
192,192,32143,1,0,0:0:0:0:
448,192,32313,1,0,0:0:0:0:
320,192,32313,1,0,0:0:0:0:
64,192,32483,1,0,0:0:0:0:
192,192,32483,1,0,0:0:0:0:
320,192,32654,1,0,0:0:0:0:
192,192,32824,1,0,0:0:0:0:
64,192,32824,1,0,0:0:0:0:
64,192,32995,1,0,0:0:0:0:
320,192,32995,1,0,0:0:0:0:
448,192,32995,1,0,0:0:0:0:
320,192,33165,1,0,0:0:0:0:
64,192,33336,1,0,0:0:0:0:
192,192,33336,1,0,0:0:0:0:
448,192,33506,1,0,0:0:0:0:
64,192,33677,1,0,0:0:0:0:
320,192,33762,1,0,0:0:0:0:
64,192,33847,1,0,0:0:0:0:
448,192,33932,1,0,0:0:0:0:
192,192,34018,1,0,0:0:0:0:
320,192,34188,1,0,0:0:0:0:
64,192,34188,1,0,0:0:0:0:
448,192,34358,1,0,0:0:0:0:
320,192,34529,1,0,0:0:0:0:
64,192,34529,1,0,0:0:0:0:
192,192,34699,1,0,0:0:0:0:
448,192,34699,1,0,0:0:0:0:
64,192,34870,1,0,0:0:0:0:
320,192,34955,1,0,0:0:0:0:
192,192,35040,1,0,0:0:0:0:
448,192,35125,1,0,0:0:0:0:
320,192,35211,1,0,0:0:0:0:
192,192,35296,1,0,0:0:0:0:
64,192,35381,1,0,0:0:0:0:
192,192,35552,1,0,0:0:0:0:
320,192,35552,1,0,0:0:0:0:
64,192,35722,1,0,0:0:0:0:
448,192,35722,1,0,0:0:0:0:
320,192,35893,1,0,0:0:0:0:
64,192,36063,1,0,0:0:0:0:
192,192,36063,1,0,0:0:0:0:
448,192,36233,1,0,0:0:0:0:
320,192,36319,1,0,0:0:0:0:
192,192,36404,1,0,0:0:0:0:
448,192,36489,1,0,0:0:0:0:
192,192,36574,1,0,0:0:0:0:
320,192,36660,1,0,0:0:0:0:
64,192,36745,1,0,0:0:0:0:
192,192,36915,1,0,0:0:0:0:
448,192,36915,1,0,0:0:0:0:
320,192,37086,1,0,0:0:0:0:
320,192,37256,1,0,0:0:0:0:
64,192,37427,1,0,0:0:0:0:
448,192,37427,1,0,0:0:0:0:
320,192,37597,1,0,0:0:0:0:
192,192,37768,1,0,0:0:0:0:
448,192,37853,1,0,0:0:0:0:
64,192,37938,1,0,0:0:0:0:
320,192,38023,1,0,0:0:0:0:
192,192,38108,1,0,0:0:0:0:
64,192,38279,1,0,0:0:0:0:
320,192,38279,1,0,0:0:0:0:
448,192,38449,1,0,0:0:0:0:
192,192,38449,1,0,0:0:0:0:
320,192,38620,1,0,0:0:0:0:
64,192,38790,1,0,0:0:0:0:
448,192,38790,1,0,0:0:0:0:
320,192,38961,1,0,0:0:0:0:
192,192,39131,1,0,0:0:0:0:
448,192,39216,1,0,0:0:0:0:
192,192,39302,1,0,0:0:0:0:
320,192,39387,1,0,0:0:0:0:
64,192,39472,1,0,0:0:0:0:
320,192,39643,1,0,0:0:0:0:
192,192,39643,1,0,0:0:0:0:
448,192,39813,1,0,0:0:0:0:
64,192,39983,1,0,0:0:0:0:
192,192,40154,1,0,0:0:0:0:
448,192,40154,1,0,0:0:0:0:
320,192,40324,1,0,0:0:0:0:
64,192,40495,1,0,0:0:0:0:
320,192,40580,1,0,0:0:0:0:
448,192,40665,1,0,0:0:0:0:
192,192,40750,1,0,0:0:0:0:
64,192,40836,1,0,0:0:0:0:
192,192,41006,1,0,0:0:0:0:
320,192,41006,1,0,0:0:0:0:
64,192,41177,1,0,0:0:0:0:
448,192,41177,1,0,0:0:0:0:
192,192,41347,1,0,0:0:0:0:
64,192,41518,1,0,0:0:0:0:
320,192,41518,1,0,0:0:0:0:
448,192,41688,1,0,0:0:0:0:
192,192,41858,1,0,0:0:0:0:
320,192,41944,1,0,0:0:0:0:
192,192,42029,1,0,0:0:0:0:
448,192,42114,1,0,0:0:0:0:
64,192,42199,1,0,0:0:0:0:
192,192,42370,1,0,0:0:0:0:
320,192,42370,1,0,0:0:0:0:
448,192,42540,1,0,0:0:0:0:
192,192,42711,1,0,0:0:0:0:
64,192,42881,1,0,0:0:0:0:
320,192,42881,1,0,0:0:0:0:
448,192,43052,1,0,0:0:0:0:
64,192,43222,1,0,0:0:0:0:
192,192,43307,1,0,0:0:0:0:
320,192,43393,1,0,0:0:0:0:
64,192,43563,1,0,0:0:0:0:
320,192,43733,1,0,0:0:0:0:
192,192,43733,1,0,0:0:0:0:
64,192,43904,1,0,0:0:0:0:
320,192,43904,1,0,0:0:0:0:
448,192,43904,128,0,44245:0:0:0:0:
64,192,44245,1,0,0:0:0:0:
192,192,44245,1,0,0:0:0:0:
448,192,44415,1,0,0:0:0:0:
192,192,44415,1,0,0:0:0:0:
64,192,44415,128,0,44756:0:0:0:0:
320,192,44756,1,0,0:0:0:0:
64,192,44927,1,0,0:0:0:0:
448,192,44927,128,0,45268:0:0:0:0:
192,192,45097,1,0,0:0:0:0:
320,192,45268,1,0,0:0:0:0:
64,192,45438,1,0,0:0:0:0:
192,192,45608,1,0,0:0:0:0:
448,192,45608,1,0,0:0:0:0:
320,192,45949,1,0,0:0:0:0:
64,192,46120,1,0,0:0:0:0:
192,192,46205,1,0,0:0:0:0:
320,192,46290,1,0,0:0:0:0:
64,192,46461,1,0,0:0:0:0:
448,192,46461,1,0,0:0:0:0:
320,192,46546,1,0,0:0:0:0:
192,192,46631,1,0,0:0:0:0:
192,192,46802,1,0,0:0:0:0:
64,192,46972,1,0,0:0:0:0:
320,192,46972,1,0,0:0:0:0:
448,192,47313,1,0,0:0:0:0:
448,192,47483,1,0,0:0:0:0:
192,192,47654,1,0,0:0:0:0:
64,192,47824,1,0,0:0:0:0:
320,192,47824,1,0,0:0:0:0:
448,192,47995,1,0,0:0:0:0:
192,192,48165,1,0,0:0:0:0:
64,192,48336,1,0,0:0:0:0:
448,192,48336,1,0,0:0:0:0:
192,192,48506,1,0,0:0:0:0:
320,192,48591,1,0,0:0:0:0:
448,192,48677,1,0,0:0:0:0:
192,192,48762,1,0,0:0:0:0:
64,192,48847,1,0,0:0:0:0:
320,192,49018,1,0,0:0:0:0:
64,192,49188,1,0,0:0:0:0:
448,192,49188,1,0,0:0:0:0:
448,192,49358,1,0,0:0:0:0:
192,192,49358,1,0,0:0:0:0:
64,192,49358,128,0,49699:0:0:0:0:
448,192,49699,1,0,0:0:0:0:
320,192,49699,1,0,0:0:0:0:
320,192,49870,1,0,0:0:0:0:
64,192,49870,1,0,0:0:0:0:
448,192,49870,128,0,50211:0:0:0:0:
192,192,50211,1,0,0:0:0:0:
448,192,50381,1,0,0:0:0:0:
64,192,50381,128,0,50722:0:0:0:0:
320,192,50552,1,0,0:0:0:0:
192,192,50722,1,0,0:0:0:0:
448,192,50893,1,0,0:0:0:0:
320,192,51063,1,0,0:0:0:0:
64,192,51063,1,0,0:0:0:0:
64,192,51404,1,0,0:0:0:0:
192,192,51489,1,0,0:0:0:0:
320,192,51574,1,0,0:0:0:0:
192,192,51745,1,0,0:0:0:0:
64,192,51915,1,0,0:0:0:0:
448,192,51915,1,0,0:0:0:0:
320,192,52086,1,0,0:0:0:0:
448,192,52086,128,0,52768:0:0:0:0:
64,192,52427,1,0,0:0:0:0:
192,192,52597,1,0,0:0:0:0:
64,192,52768,1,0,0:0:0:0:
320,192,52768,1,0,0:0:0:0:
192,192,52938,1,0,0:0:0:0:
448,192,53108,1,0,0:0:0:0:
64,192,53279,1,0,0:0:0:0:
320,192,53449,1,0,0:0:0:0:
192,192,53790,1,0,0:0:0:0:
448,192,53790,1,0,0:0:0:0:
64,192,54131,1,0,0:0:0:0:
320,192,54216,1,0,0:0:0:0:
64,192,54302,1,0,0:0:0:0:
448,192,54387,1,0,0:0:0:0:
192,192,54472,1,0,0:0:0:0:
448,192,54557,1,0,0:0:0:0:
64,192,54643,1,0,0:0:0:0:
192,192,54728,1,0,0:0:0:0:
448,192,54813,1,0,0:0:0:0:
320,192,54813,1,0,0:0:0:0:
320,192,55154,1,0,0:0:0:0:
192,192,55324,1,0,0:0:0:0:
448,192,55495,1,0,0:0:0:0:
448,192,55665,1,0,0:0:0:0:
320,192,55836,1,0,0:0:0:0:
192,192,56006,1,0,0:0:0:0:
64,192,56177,1,0,0:0:0:0:
192,192,56518,1,0,0:0:0:0:
448,192,56858,1,0,0:0:0:0:
448,192,57029,1,0,0:0:0:0:
320,192,57199,1,0,0:0:0:0:
64,192,57370,1,0,0:0:0:0:
320,192,57540,1,0,0:0:0:0:
448,192,57540,1,0,0:0:0:0:
320,192,57711,1,0,0:0:0:0:
448,192,57711,1,0,0:0:0:0:
192,192,57881,1,0,0:0:0:0:
64,192,57881,1,0,0:0:0:0:
64,192,58052,1,0,0:0:0:0:
192,192,58052,1,0,0:0:0:0:
320,192,58222,1,0,0:0:0:0:
448,192,58222,1,0,0:0:0:0:
64,192,58393,1,0,0:0:0:0:
320,192,58393,1,0,0:0:0:0:
64,192,58563,1,0,0:0:0:0:
192,192,58563,1,0,0:0:0:0:
192,192,58733,1,0,0:0:0:0:
448,192,58733,1,0,0:0:0:0:
320,192,58904,1,0,0:0:0:0:
64,192,58989,1,0,0:0:0:0:
320,192,59074,1,0,0:0:0:0:
64,192,59160,1,0,0:0:0:0:
448,192,59245,1,0,0:0:0:0:
192,192,59330,1,0,0:0:0:0:
320,192,59415,1,0,0:0:0:0:
64,192,59500,1,0,0:0:0:0:
448,192,59586,128,0,60268:0:0:0:0:
320,192,59927,128,0,60268:0:0:0:0:
64,192,60268,1,0,0:0:0:0:
192,192,60268,1,0,0:0:0:0:
64,192,60438,1,0,0:0:0:0:
64,192,60608,1,0,0:0:0:0:
448,192,60608,1,0,0:0:0:0:
192,192,60779,1,0,0:0:0:0:
448,192,60949,1,0,0:0:0:0:
320,192,60949,1,0,0:0:0:0:
64,192,61120,1,0,0:0:0:0:
448,192,61290,1,0,0:0:0:0:
192,192,61290,1,0,0:0:0:0:
192,192,61461,1,0,0:0:0:0:
320,192,61631,1,0,0:0:0:0:
64,192,61631,1,0,0:0:0:0:
448,192,61802,1,0,0:0:0:0:
192,192,61972,1,0,0:0:0:0:
320,192,61972,1,0,0:0:0:0:
192,192,62143,1,0,0:0:0:0:
64,192,62313,1,0,0:0:0:0:
448,192,62313,1,0,0:0:0:0:
320,192,62483,1,0,0:0:0:0:
64,192,62654,1,0,0:0:0:0:
192,192,62654,1,0,0:0:0:0:
448,192,62824,1,0,0:0:0:0:
320,192,62995,1,0,0:0:0:0:
64,192,62995,1,0,0:0:0:0:
64,192,63165,1,0,0:0:0:0:
64,192,63336,1,0,0:0:0:0:
448,192,63336,1,0,0:0:0:0:
320,192,63506,1,0,0:0:0:0:
192,192,63677,1,0,0:0:0:0:
448,192,63677,1,0,0:0:0:0:
64,192,63847,1,0,0:0:0:0:
192,192,64018,1,0,0:0:0:0:
320,192,64018,1,0,0:0:0:0:
320,192,64188,1,0,0:0:0:0:
64,192,64358,1,0,0:0:0:0:
448,192,64358,1,0,0:0:0:0:
192,192,64529,1,0,0:0:0:0:
448,192,64699,1,0,0:0:0:0:
320,192,64699,1,0,0:0:0:0:
448,192,64870,1,0,0:0:0:0:
320,192,65040,1,0,0:0:0:0:
64,192,65040,1,0,0:0:0:0:
192,192,65211,1,0,0:0:0:0:
64,192,65381,1,0,0:0:0:0:
448,192,65381,1,0,0:0:0:0:
320,192,65552,1,0,0:0:0:0:
448,192,65722,1,0,0:0:0:0:
64,192,65722,1,0,0:0:0:0:
64,192,65893,1,0,0:0:0:0:
320,192,66063,1,0,0:0:0:0:
64,192,66063,1,0,0:0:0:0:
192,192,66233,1,0,0:0:0:0:
64,192,66404,1,0,0:0:0:0:
448,192,66404,1,0,0:0:0:0:
448,192,66574,1,0,0:0:0:0:
320,192,66745,1,0,0:0:0:0:
192,192,66745,1,0,0:0:0:0:
320,192,66915,1,0,0:0:0:0:
448,192,67086,1,0,0:0:0:0:
64,192,67086,1,0,0:0:0:0:
192,192,67256,1,0,0:0:0:0:
448,192,67427,1,0,0:0:0:0:
64,192,67427,1,0,0:0:0:0:
448,192,67597,1,0,0:0:0:0:
192,192,67768,1,0,0:0:0:0:
320,192,67768,1,0,0:0:0:0:
64,192,67938,1,0,0:0:0:0:
320,192,68108,1,0,0:0:0:0:
448,192,68108,1,0,0:0:0:0:
192,192,68279,1,0,0:0:0:0:
448,192,68449,1,0,0:0:0:0:
64,192,68449,1,0,0:0:0:0:
64,192,68620,1,0,0:0:0:0:
64,192,68790,1,0,0:0:0:0:
320,192,68790,1,0,0:0:0:0:
192,192,68961,1,0,0:0:0:0:
320,192,69131,1,0,0:0:0:0:
448,192,69131,1,0,0:0:0:0:
64,192,69302,1,0,0:0:0:0:
448,192,69472,1,0,0:0:0:0:
192,192,69472,1,0,0:0:0:0:
192,192,69643,1,0,0:0:0:0:
320,192,69813,1,0,0:0:0:0:
192,192,69983,1,0,0:0:0:0:
448,192,69983,1,0,0:0:0:0:
448,192,70154,1,0,0:0:0:0:
192,192,70154,1,0,0:0:0:0:
192,192,70324,1,0,0:0:0:0:
448,192,70324,1,0,0:0:0:0:
320,192,70495,1,0,0:0:0:0:
192,192,70580,1,0,0:0:0:0:
448,192,70665,1,0,0:0:0:0:
64,192,70750,1,0,0:0:0:0:
192,192,70836,1,0,0:0:0:0:
320,192,70921,1,0,0:0:0:0:
448,192,71006,1,0,0:0:0:0:
192,192,71091,1,0,0:0:0:0:
64,192,71177,1,0,0:0:0:0:
448,192,71177,1,0,0:0:0:0:
320,192,71177,1,0,0:0:0:0:
192,192,71347,1,0,0:0:0:0:
448,192,71518,1,0,0:0:0:0:
64,192,71518,128,0,72199:0:0:0:0:
320,192,71688,1,0,0:0:0:0:
192,192,71858,128,0,72199:0:0:0:0:
448,192,72199,1,0,0:0:0:0:
320,192,72199,1,0,0:0:0:0:
64,192,72370,1,0,0:0:0:0:
192,192,72540,1,0,0:0:0:0:
448,192,72540,1,0,0:0:0:0:
320,192,72711,1,0,0:0:0:0:
64,192,72881,1,0,0:0:0:0:
448,192,72881,128,0,73563:0:0:0:0:
192,192,73052,1,0,0:0:0:0:
320,192,73222,128,0,73563:0:0:0:0:
192,192,73563,1,0,0:0:0:0:
64,192,73563,1,0,0:0:0:0:
320,192,73733,1,0,0:0:0:0:
64,192,73904,1,0,0:0:0:0:
448,192,73904,1,0,0:0:0:0:
64,192,74074,1,0,0:0:0:0:
320,192,74245,1,0,0:0:0:0:
448,192,74245,1,0,0:0:0:0:
192,192,74415,1,0,0:0:0:0:
448,192,74586,128,0,74756:0:0:0:0:
64,192,74586,1,0,0:0:0:0:
192,192,74756,1,0,0:0:0:0:
64,192,74927,1,0,0:0:0:0:
320,192,74927,128,0,75097:0:0:0:0:
448,192,75097,1,0,0:0:0:0:
320,192,75268,1,0,0:0:0:0:
64,192,75268,128,0,75608:0:0:0:0:
192,192,75608,1,0,0:0:0:0:
448,192,75608,128,0,75949:0:0:0:0:
320,192,75779,128,0,75949:0:0:0:0:
64,192,75949,1,0,0:0:0:0:
192,192,76120,1,0,0:0:0:0:
448,192,76290,1,0,0:0:0:0:
64,192,76375,1,0,0:0:0:0:
320,192,76461,1,0,0:0:0:0:
192,192,76546,1,0,0:0:0:0:
64,192,76631,1,0,0:0:0:0:
320,192,76631,1,0,0:0:0:0:
448,192,76631,1,0,0:0:0:0:
192,192,76802,1,0,0:0:0:0:
448,192,76972,1,0,0:0:0:0:
64,192,76972,1,0,0:0:0:0:
320,192,77143,1,0,0:0:0:0:
192,192,77313,1,0,0:0:0:0:
64,192,77313,1,0,0:0:0:0:
320,192,77483,1,0,0:0:0:0:
64,192,77654,1,0,0:0:0:0:
448,192,77654,1,0,0:0:0:0:
192,192,77824,1,0,0:0:0:0:
320,192,77995,1,0,0:0:0:0:
448,192,77995,1,0,0:0:0:0:
64,192,78165,1,0,0:0:0:0:
448,192,78336,1,0,0:0:0:0:
192,192,78336,1,0,0:0:0:0:
320,192,78506,1,0,0:0:0:0:
64,192,78677,1,0,0:0:0:0:
192,192,78677,1,0,0:0:0:0:
448,192,78847,1,0,0:0:0:0:
192,192,79018,1,0,0:0:0:0:
448,192,79018,1,0,0:0:0:0:
64,192,79188,1,0,0:0:0:0:
320,192,79358,1,0,0:0:0:0:
192,192,79358,1,0,0:0:0:0:
448,192,79529,1,0,0:0:0:0:
64,192,79699,1,0,0:0:0:0:
192,192,79699,1,0,0:0:0:0:
320,192,79870,1,0,0:0:0:0:
64,192,80040,1,0,0:0:0:0:
448,192,80040,1,0,0:0:0:0:
192,192,80211,1,0,0:0:0:0:
320,192,80381,1,0,0:0:0:0:
448,192,80381,1,0,0:0:0:0:
64,192,80552,1,0,0:0:0:0:
192,192,80722,1,0,0:0:0:0:
448,192,80722,1,0,0:0:0:0:
320,192,80893,1,0,0:0:0:0:
64,192,81063,1,0,0:0:0:0:
192,192,81063,1,0,0:0:0:0:
448,192,81233,1,0,0:0:0:0:
192,192,81404,1,0,0:0:0:0:
64,192,81489,1,0,0:0:0:0:
320,192,81574,1,0,0:0:0:0:
448,192,81660,1,0,0:0:0:0:
192,192,81745,1,0,0:0:0:0:
320,192,81830,1,0,0:0:0:0:
64,192,81915,1,0,0:0:0:0:
192,192,82000,1,0,0:0:0:0:
320,192,82086,1,0,0:0:0:0:
448,192,82086,1,0,0:0:0:0:
64,192,82086,128,0,82427:0:0:0:0:
320,192,82427,1,0,0:0:0:0:
448,192,82427,1,0,0:0:0:0:
192,192,82597,1,0,0:0:0:0:
448,192,82768,1,0,0:0:0:0:
64,192,82853,1,0,0:0:0:0:
448,192,82938,1,0,0:0:0:0:
192,192,83023,1,0,0:0:0:0:
320,192,83108,1,0,0:0:0:0:
64,192,83279,1,0,0:0:0:0:
448,192,83279,1,0,0:0:0:0:
192,192,83449,1,0,0:0:0:0:
320,192,83620,1,0,0:0:0:0:
64,192,83790,1,0,0:0:0:0:
448,192,83790,1,0,0:0:0:0:
192,192,83961,1,0,0:0:0:0:
64,192,84131,1,0,0:0:0:0:
192,192,84216,1,0,0:0:0:0:
320,192,84302,1,0,0:0:0:0:
64,192,84472,1,0,0:0:0:0:
192,192,84643,1,0,0:0:0:0:
448,192,84643,1,0,0:0:0:0:
64,192,84813,1,0,0:0:0:0:
320,192,84813,128,0,85154:0:0:0:0:
64,192,85154,1,0,0:0:0:0:
448,192,85154,1,0,0:0:0:0:
192,192,85324,1,0,0:0:0:0:
320,192,85495,1,0,0:0:0:0:
64,192,85580,1,0,0:0:0:0:
320,192,85665,1,0,0:0:0:0:
192,192,85750,1,0,0:0:0:0:
64,192,85836,1,0,0:0:0:0:
192,192,86006,1,0,0:0:0:0:
448,192,86006,1,0,0:0:0:0:
320,192,86177,1,0,0:0:0:0:
64,192,86347,1,0,0:0:0:0:
448,192,86347,1,0,0:0:0:0:
192,192,86518,1,0,0:0:0:0:
320,192,86518,1,0,0:0:0:0:
448,192,86688,1,0,0:0:0:0:
192,192,86773,1,0,0:0:0:0:
64,192,86858,1,0,0:0:0:0:
448,192,86944,1,0,0:0:0:0:
320,192,87029,1,0,0:0:0:0:
192,192,87114,1,0,0:0:0:0:
64,192,87199,1,0,0:0:0:0:
192,192,87370,1,0,0:0:0:0:
320,192,87370,1,0,0:0:0:0:
64,192,87540,1,0,0:0:0:0:
320,192,87540,1,0,0:0:0:0:
448,192,87540,128,0,87881:0:0:0:0:
64,192,87881,1,0,0:0:0:0:
192,192,87881,1,0,0:0:0:0:
320,192,88052,1,0,0:0:0:0:
64,192,88222,1,0,0:0:0:0:
448,192,88307,1,0,0:0:0:0:
64,192,88393,1,0,0:0:0:0:
320,192,88563,1,0,0:0:0:0:
448,192,88733,1,0,0:0:0:0:
192,192,88733,1,0,0:0:0:0:
320,192,88904,1,0,0:0:0:0:
64,192,89074,1,0,0:0:0:0:
448,192,89074,1,0,0:0:0:0:
192,192,89245,1,0,0:0:0:0:
320,192,89245,1,0,0:0:0:0:
448,192,89415,1,0,0:0:0:0:
192,192,89586,1,0,0:0:0:0:
320,192,89671,1,0,0:0:0:0:
448,192,89756,1,0,0:0:0:0:
64,192,89927,1,0,0:0:0:0:
192,192,90097,1,0,0:0:0:0:
448,192,90097,1,0,0:0:0:0:
320,192,90268,1,0,0:0:0:0:
64,192,90438,1,0,0:0:0:0:
192,192,90608,1,0,0:0:0:0:
320,192,90608,1,0,0:0:0:0:
448,192,90779,1,0,0:0:0:0:
192,192,90949,1,0,0:0:0:0:
320,192,91035,1,0,0:0:0:0:
64,192,91120,1,0,0:0:0:0:
448,192,91205,1,0,0:0:0:0:
192,192,91290,1,0,0:0:0:0:
64,192,91461,1,0,0:0:0:0:
320,192,91461,1,0,0:0:0:0:
448,192,91631,1,0,0:0:0:0:
320,192,91802,1,0,0:0:0:0:
64,192,91972,1,0,0:0:0:0:
448,192,91972,1,0,0:0:0:0:
192,192,92143,1,0,0:0:0:0:
320,192,92313,1,0,0:0:0:0:
448,192,92398,1,0,0:0:0:0:
64,192,92483,1,0,0:0:0:0:
192,192,92654,1,0,0:0:0:0:
320,192,92824,1,0,0:0:0:0:
448,192,92824,1,0,0:0:0:0:
64,192,92995,1,0,0:0:0:0:
192,192,92995,1,0,0:0:0:0:
448,192,92995,1,0,0:0:0:0:
64,192,93165,1,0,0:0:0:0:
320,192,93336,1,0,0:0:0:0:
64,192,93506,1,0,0:0:0:0:
64,192,94188,1,0,0:0:0:0:
64,192,94529,1,0,0:0:0:0:
320,192,94699,1,0,0:0:0:0:
64,192,94870,1,0,0:0:0:0:
64,192,95211,1,0,0:0:0:0:
320,192,95381,1,0,0:0:0:0:
448,192,95722,1,0,0:0:0:0:
448,192,95893,1,0,0:0:0:0:
192,192,96063,1,0,0:0:0:0:
448,192,96233,1,0,0:0:0:0:
192,192,97086,1,0,0:0:0:0:
448,192,97086,1,0,0:0:0:0:
192,192,97341,1,0,0:0:0:0:
320,192,97341,1,0,0:0:0:0:
64,192,97597,1,0,0:0:0:0:
320,192,97597,1,0,0:0:0:0:
192,192,97768,1,0,0:0:0:0:
448,192,97768,128,0,98108:0:0:0:0:
192,192,98108,1,0,0:0:0:0:
64,192,98108,128,0,98449:0:0:0:0:
320,192,98449,1,0,0:0:0:0:
320,192,98620,1,0,0:0:0:0:
192,192,98790,1,0,0:0:0:0:
320,192,98961,1,0,0:0:0:0:
192,192,99813,1,0,0:0:0:0:
192,192,99983,1,0,0:0:0:0:
320,192,100154,1,0,0:0:0:0:
192,192,100324,1,0,0:0:0:0:
448,192,101177,1,0,0:0:0:0:
448,192,101347,1,0,0:0:0:0:
192,192,101518,1,0,0:0:0:0:
448,192,101688,1,0,0:0:0:0:
320,192,102029,1,0,0:0:0:0:
192,192,102199,1,0,0:0:0:0:
448,192,102711,1,0,0:0:0:0:
192,192,102881,1,0,0:0:0:0:
448,192,103052,1,0,0:0:0:0:
64,192,103222,1,0,0:0:0:0:
448,192,103393,1,0,0:0:0:0:
192,192,103563,1,0,0:0:0:0:
64,192,103904,1,0,0:0:0:0:
320,192,103904,1,0,0:0:0:0:
448,192,103904,1,0,0:0:0:0:
192,192,104074,1,0,0:0:0:0:
64,192,104245,1,0,0:0:0:0:
448,192,104245,1,0,0:0:0:0:
320,192,104415,1,0,0:0:0:0:
64,192,104586,1,0,0:0:0:0:
320,192,104671,1,0,0:0:0:0:
64,192,104756,1,0,0:0:0:0:
320,192,104841,1,0,0:0:0:0:
192,192,104927,1,0,0:0:0:0:
64,192,105097,1,0,0:0:0:0:
448,192,105097,1,0,0:0:0:0:
320,192,105268,1,0,0:0:0:0:
192,192,105438,1,0,0:0:0:0:
64,192,105608,1,0,0:0:0:0:
448,192,105608,1,0,0:0:0:0:
320,192,105779,1,0,0:0:0:0:
192,192,105864,1,0,0:0:0:0:
320,192,105949,1,0,0:0:0:0:
64,192,106035,1,0,0:0:0:0:
192,192,106120,1,0,0:0:0:0:
320,192,106205,1,0,0:0:0:0:
448,192,106290,1,0,0:0:0:0:
192,192,106461,1,0,0:0:0:0:
320,192,106461,1,0,0:0:0:0:
64,192,106631,1,0,0:0:0:0:
448,192,106631,1,0,0:0:0:0:
320,192,106716,1,0,0:0:0:0:
192,192,106802,1,0,0:0:0:0:
320,192,106972,1,0,0:0:0:0:
448,192,106972,1,0,0:0:0:0:
64,192,107143,1,0,0:0:0:0:
448,192,107313,1,0,0:0:0:0:
320,192,107398,1,0,0:0:0:0:
448,192,107483,1,0,0:0:0:0:
192,192,107569,1,0,0:0:0:0:
320,192,107654,1,0,0:0:0:0:
64,192,107824,1,0,0:0:0:0:
448,192,107824,1,0,0:0:0:0:
192,192,107995,1,0,0:0:0:0:
192,192,108165,1,0,0:0:0:0:
64,192,108336,1,0,0:0:0:0:
448,192,108336,1,0,0:0:0:0:
320,192,108506,1,0,0:0:0:0:
192,192,108677,1,0,0:0:0:0:
64,192,108762,1,0,0:0:0:0:
320,192,108847,1,0,0:0:0:0:
192,192,108932,1,0,0:0:0:0:
448,192,109018,1,0,0:0:0:0:
64,192,109188,1,0,0:0:0:0:
320,192,109188,1,0,0:0:0:0:
192,192,109358,1,0,0:0:0:0:
448,192,109358,1,0,0:0:0:0:
320,192,109529,1,0,0:0:0:0:
64,192,109699,1,0,0:0:0:0:
192,192,109699,1,0,0:0:0:0:
448,192,109870,1,0,0:0:0:0:
320,192,110040,1,0,0:0:0:0:
64,192,110125,1,0,0:0:0:0:
320,192,110211,1,0,0:0:0:0:
192,192,110296,1,0,0:0:0:0:
448,192,110381,1,0,0:0:0:0:
320,192,110552,1,0,0:0:0:0:
192,192,110552,1,0,0:0:0:0:
64,192,110722,1,0,0:0:0:0:
320,192,110893,1,0,0:0:0:0:
448,192,110893,1,0,0:0:0:0:
192,192,111063,1,0,0:0:0:0:
64,192,111063,1,0,0:0:0:0:
448,192,111233,1,0,0:0:0:0:
64,192,111319,1,0,0:0:0:0:
320,192,111404,1,0,0:0:0:0:
192,192,111489,1,0,0:0:0:0:
448,192,111574,1,0,0:0:0:0:
192,192,111745,1,0,0:0:0:0:
64,192,111915,1,0,0:0:0:0:
448,192,111915,1,0,0:0:0:0:
192,192,112086,1,0,0:0:0:0:
320,192,112086,1,0,0:0:0:0:
448,192,112256,1,0,0:0:0:0:
64,192,112427,1,0,0:0:0:0:
320,192,112427,1,0,0:0:0:0:
192,192,112597,1,0,0:0:0:0:
448,192,112768,1,0,0:0:0:0:
64,192,112853,1,0,0:0:0:0:
448,192,112938,1,0,0:0:0:0:
64,192,113023,1,0,0:0:0:0:
320,192,113108,1,0,0:0:0:0:
192,192,113279,1,0,0:0:0:0:
448,192,113279,1,0,0:0:0:0:
64,192,113449,1,0,0:0:0:0:
448,192,113620,1,0,0:0:0:0:
192,192,113790,1,0,0:0:0:0:
320,192,113790,1,0,0:0:0:0:
64,192,113961,1,0,0:0:0:0:
448,192,114131,1,0,0:0:0:0:
320,192,114216,1,0,0:0:0:0:
192,192,114302,1,0,0:0:0:0:
64,192,114387,1,0,0:0:0:0:
448,192,114472,1,0,0:0:0:0:
320,192,114643,1,0,0:0:0:0:
192,192,114643,1,0,0:0:0:0:
64,192,114813,1,0,0:0:0:0:
320,192,114813,1,0,0:0:0:0:
448,192,114813,128,0,115154:0:0:0:0:
64,192,115154,1,0,0:0:0:0:
192,192,115324,1,0,0:0:0:0:
448,192,115324,1,0,0:0:0:0:
64,192,115324,128,0,115665:0:0:0:0:
320,192,115495,1,0,0:0:0:0:
448,192,115665,1,0,0:0:0:0:
64,192,115836,1,0,0:0:0:0:
320,192,115836,1,0,0:0:0:0:
448,192,115836,128,0,116177:0:0:0:0:
192,192,116177,128,0,116858:0:0:0:0:
320,192,116518,1,0,0:0:0:0:
64,192,116688,1,0,0:0:0:0:
320,192,116858,128,0,117540:0:0:0:0:
64,192,117029,1,0,0:0:0:0:
192,192,117199,1,0,0:0:0:0:
448,192,117370,1,0,0:0:0:0:
64,192,117540,1,0,0:0:0:0:
320,192,117881,1,0,0:0:0:0:
64,192,118052,1,0,0:0:0:0:
448,192,118222,1,0,0:0:0:0:
192,192,118222,1,0,0:0:0:0:
320,192,118563,1,0,0:0:0:0:
448,192,118904,128,0,119586:0:0:0:0:
64,192,119074,1,0,0:0:0:0:
192,192,119245,1,0,0:0:0:0:
320,192,119415,1,0,0:0:0:0:
192,192,119586,1,0,0:0:0:0:
64,192,119586,128,0,120268:0:0:0:0:
448,192,119756,1,0,0:0:0:0:
320,192,119927,1,0,0:0:0:0:
192,192,120097,1,0,0:0:0:0:
192,192,120268,1,0,0:0:0:0:
320,192,120268,1,0,0:0:0:0:
448,192,120268,128,0,120608:0:0:0:0:
64,192,120608,1,0,0:0:0:0:
448,192,120779,1,0,0:0:0:0:
192,192,120779,1,0,0:0:0:0:
64,192,120779,128,0,121120:0:0:0:0:
320,192,120949,1,0,0:0:0:0:
192,192,120949,1,0,0:0:0:0:
448,192,121120,1,0,0:0:0:0:
64,192,121290,1,0,0:0:0:0:
320,192,121290,1,0,0:0:0:0:
448,192,121290,128,0,121631:0:0:0:0:
192,192,121631,128,0,122995:0:0:0:0:
448,192,121802,1,0,0:0:0:0:
64,192,121972,1,0,0:0:0:0:
320,192,122143,1,0,0:0:0:0:
448,192,122313,1,0,0:0:0:0:
448,192,122654,1,0,0:0:0:0:
320,192,122824,1,0,0:0:0:0:
448,192,122995,1,0,0:0:0:0:
64,192,122995,1,0,0:0:0:0:
320,192,123336,1,0,0:0:0:0:
192,192,123506,1,0,0:0:0:0:
448,192,123677,128,0,124358:0:0:0:0:
64,192,123677,1,0,0:0:0:0:
192,192,124018,1,0,0:0:0:0:
320,192,124188,1,0,0:0:0:0:
64,192,124358,128,0,125040:0:0:0:0:
448,192,124699,1,0,0:0:0:0:
320,192,125040,1,0,0:0:0:0:
192,192,125125,1,0,0:0:0:0:
320,192,125211,1,0,0:0:0:0:
192,192,125296,1,0,0:0:0:0:
448,192,125381,1,0,0:0:0:0:
320,192,125466,1,0,0:0:0:0:
192,192,125552,1,0,0:0:0:0:
64,192,125637,1,0,0:0:0:0:
448,192,125722,1,0,0:0:0:0:
192,192,125722,1,0,0:0:0:0:
320,192,125722,1,0,0:0:0:0:
448,192,126063,1,0,0:0:0:0:
64,192,126233,1,0,0:0:0:0:
192,192,126404,1,0,0:0:0:0:
320,192,126574,1,0,0:0:0:0:
448,192,126745,1,0,0:0:0:0:
64,192,126915,1,0,0:0:0:0:
320,192,127086,1,0,0:0:0:0:
320,192,127427,1,0,0:0:0:0:
192,192,127768,1,0,0:0:0:0:
320,192,127938,1,0,0:0:0:0:
448,192,128108,1,0,0:0:0:0:
192,192,128279,1,0,0:0:0:0:
192,192,128449,1,0,0:0:0:0:
320,192,128535,1,0,0:0:0:0:
64,192,128620,1,0,0:0:0:0:
448,192,128705,1,0,0:0:0:0:
64,192,128790,128,0,128961:0:0:0:0:
320,192,128961,1,0,0:0:0:0:
192,192,129046,1,0,0:0:0:0:
64,192,129131,1,0,0:0:0:0:
448,192,129216,1,0,0:0:0:0:
320,192,129302,1,0,0:0:0:0:
64,192,129387,1,0,0:0:0:0:
448,192,129472,1,0,0:0:0:0:
192,192,129557,1,0,0:0:0:0:
320,192,129643,1,0,0:0:0:0:
64,192,129813,1,0,0:0:0:0:
448,192,129898,1,0,0:0:0:0:
64,192,129983,1,0,0:0:0:0:
448,192,130069,1,0,0:0:0:0:
192,192,130154,1,0,0:0:0:0:
320,192,130239,1,0,0:0:0:0:
192,192,130324,1,0,0:0:0:0:
320,192,130410,1,0,0:0:0:0:
64,192,130495,128,0,131177:0:0:0:0:
192,192,130836,128,0,131177:0:0:0:0:
448,192,130836,1,0,0:0:0:0:
448,192,131177,1,0,0:0:0:0:
320,192,131177,1,0,0:0:0:0:
320,192,131347,1,0,0:0:0:0:
320,192,131518,1,0,0:0:0:0:
192,192,131518,1,0,0:0:0:0:
64,192,131688,1,0,0:0:0:0:
448,192,131688,128,0,132199:0:0:0:0:
192,192,131858,1,0,0:0:0:0:
64,192,132199,1,0,0:0:0:0:
320,192,132199,1,0,0:0:0:0:
192,192,132370,128,0,132881:0:0:0:0:
448,192,132540,1,0,0:0:0:0:
448,192,132881,1,0,0:0:0:0:
64,192,133052,1,0,0:0:0:0:
320,192,133052,128,0,133563:0:0:0:0:
192,192,133222,1,0,0:0:0:0:
64,192,133563,1,0,0:0:0:0:
192,192,133648,1,0,0:0:0:0:
320,192,133733,1,0,0:0:0:0:
448,192,133819,1,0,0:0:0:0:
64,192,133904,1,0,0:0:0:0:
64,192,134074,1,0,0:0:0:0:
64,192,134245,1,0,0:0:0:0:
192,192,134245,1,0,0:0:0:0:
320,192,134415,1,0,0:0:0:0:
448,192,134415,128,0,134927:0:0:0:0:
192,192,134586,1,0,0:0:0:0:
64,192,134927,1,0,0:0:0:0:
320,192,134927,1,0,0:0:0:0:
192,192,135097,128,0,135608:0:0:0:0:
320,192,135268,1,0,0:0:0:0:
64,192,135438,1,0,0:0:0:0:
448,192,135438,1,0,0:0:0:0:
64,192,135608,1,0,0:0:0:0:
448,192,135608,1,0,0:0:0:0:
320,192,135779,128,0,136120:0:0:0:0:
64,192,135949,1,0,0:0:0:0:
448,192,135949,1,0,0:0:0:0:
192,192,136120,1,0,0:0:0:0:
64,192,136205,1,0,0:0:0:0:
448,192,136290,1,0,0:0:0:0:
320,192,136375,1,0,0:0:0:0:
192,192,136461,1,0,0:0:0:0:
64,192,136546,1,0,0:0:0:0:
448,192,136631,1,0,0:0:0:0:
448,192,136802,1,0,0:0:0:0:
320,192,136972,1,0,0:0:0:0:
448,192,136972,1,0,0:0:0:0:
64,192,137143,1,0,0:0:0:0:
192,192,137143,128,0,137654:0:0:0:0:
320,192,137313,1,0,0:0:0:0:
320,192,137654,1,0,0:0:0:0:
448,192,137654,1,0,0:0:0:0:
64,192,137824,128,0,138336:0:0:0:0:
320,192,137995,1,0,0:0:0:0:
192,192,138336,1,0,0:0:0:0:
448,192,138336,1,0,0:0:0:0:
64,192,138506,1,0,0:0:0:0:
320,192,138506,128,0,139018:0:0:0:0:
192,192,138677,1,0,0:0:0:0:
64,192,139018,1,0,0:0:0:0:
192,192,139103,1,0,0:0:0:0:
320,192,139188,1,0,0:0:0:0:
448,192,139273,1,0,0:0:0:0:
192,192,139358,1,0,0:0:0:0:
64,192,139358,128,0,139699:0:0:0:0:
448,192,139699,1,0,0:0:0:0:
64,192,139870,1,0,0:0:0:0:
320,192,139870,1,0,0:0:0:0:
448,192,140040,1,0,0:0:0:0:
192,192,140040,128,0,140381:0:0:0:0:
448,192,140381,1,0,0:0:0:0:
64,192,140381,1,0,0:0:0:0:
192,192,140552,1,0,0:0:0:0:
320,192,140722,1,0,0:0:0:0:
64,192,140893,1,0,0:0:0:0:
192,192,140893,1,0,0:0:0:0:
192,192,141063,1,0,0:0:0:0:
64,192,141063,1,0,0:0:0:0:
192,192,141233,1,0,0:0:0:0:
64,192,141233,1,0,0:0:0:0:
64,192,141404,1,0,0:0:0:0:
192,192,141404,1,0,0:0:0:0:
448,192,141489,1,0,0:0:0:0:
320,192,141574,1,0,0:0:0:0:
64,192,141660,1,0,0:0:0:0:
448,192,141745,1,0,0:0:0:0:
192,192,141830,1,0,0:0:0:0:
320,192,141915,1,0,0:0:0:0:
64,192,142000,1,0,0:0:0:0:
192,192,142086,1,0,0:0:0:0:
448,192,142086,1,0,0:0:0:0:
320,192,142086,1,0,0:0:0:0:
320,192,142256,1,0,0:0:0:0:
64,192,142427,1,0,0:0:0:0:
448,192,142427,128,0,143108:0:0:0:0:
192,192,142597,1,0,0:0:0:0:
320,192,142768,128,0,143108:0:0:0:0:
64,192,143108,1,0,0:0:0:0:
192,192,143108,1,0,0:0:0:0:
448,192,143279,1,0,0:0:0:0:
320,192,143449,1,0,0:0:0:0:
64,192,143449,1,0,0:0:0:0:
192,192,143620,1,0,0:0:0:0:
448,192,143790,1,0,0:0:0:0:
64,192,143790,128,0,144472:0:0:0:0:
320,192,143961,1,0,0:0:0:0:
192,192,144131,128,0,144472:0:0:0:0:
320,192,144472,1,0,0:0:0:0:
448,192,144472,1,0,0:0:0:0:
192,192,144643,1,0,0:0:0:0:
448,192,144813,1,0,0:0:0:0:
64,192,144813,1,0,0:0:0:0:
448,192,144983,1,0,0:0:0:0:
192,192,145154,1,0,0:0:0:0:
64,192,145154,1,0,0:0:0:0:
320,192,145324,1,0,0:0:0:0:
64,192,145495,128,0,145665:0:0:0:0:
448,192,145495,1,0,0:0:0:0:
320,192,145665,1,0,0:0:0:0:
448,192,145836,1,0,0:0:0:0:
192,192,145836,128,0,146006:0:0:0:0:
64,192,146006,1,0,0:0:0:0:
192,192,146177,1,0,0:0:0:0:
448,192,146177,128,0,146518:0:0:0:0:
320,192,146518,1,0,0:0:0:0:
64,192,146518,128,0,146858:0:0:0:0:
192,192,146688,128,0,146858:0:0:0:0:
448,192,146858,1,0,0:0:0:0:
320,192,147029,1,0,0:0:0:0:
64,192,147199,1,0,0:0:0:0:
448,192,147285,1,0,0:0:0:0:
192,192,147370,1,0,0:0:0:0:
320,192,147455,1,0,0:0:0:0:
448,192,147540,1,0,0:0:0:0:
192,192,147540,1,0,0:0:0:0:
64,192,147540,1,0,0:0:0:0:
320,192,147711,1,0,0:0:0:0:
64,192,147881,1,0,0:0:0:0:
448,192,147881,1,0,0:0:0:0:
192,192,148052,1,0,0:0:0:0:
320,192,148222,1,0,0:0:0:0:
448,192,148222,1,0,0:0:0:0:
192,192,148393,1,0,0:0:0:0:
448,192,148563,1,0,0:0:0:0:
64,192,148563,1,0,0:0:0:0:
320,192,148733,1,0,0:0:0:0:
192,192,148904,1,0,0:0:0:0:
64,192,148904,1,0,0:0:0:0:
448,192,149074,1,0,0:0:0:0:
64,192,149245,1,0,0:0:0:0:
320,192,149245,1,0,0:0:0:0:
192,192,149415,1,0,0:0:0:0:
448,192,149586,1,0,0:0:0:0:
320,192,149586,1,0,0:0:0:0:
64,192,149756,1,0,0:0:0:0:
320,192,149927,1,0,0:0:0:0:
192,192,149927,1,0,0:0:0:0:
448,192,150097,1,0,0:0:0:0:
64,192,150268,1,0,0:0:0:0:
320,192,150268,1,0,0:0:0:0:
192,192,150438,1,0,0:0:0:0:
448,192,150608,1,0,0:0:0:0:
320,192,150608,1,0,0:0:0:0:
192,192,150779,1,0,0:0:0:0:
448,192,150949,1,0,0:0:0:0:
64,192,150949,1,0,0:0:0:0:
320,192,151120,1,0,0:0:0:0:
192,192,151290,1,0,0:0:0:0:
64,192,151290,1,0,0:0:0:0:
448,192,151461,1,0,0:0:0:0:
320,192,151631,1,0,0:0:0:0:
64,192,151631,1,0,0:0:0:0:
192,192,151802,1,0,0:0:0:0:
448,192,151972,1,0,0:0:0:0:
320,192,151972,1,0,0:0:0:0:
64,192,152143,1,0,0:0:0:0:
320,192,152313,1,0,0:0:0:0:
448,192,152398,1,0,0:0:0:0:
192,192,152483,1,0,0:0:0:0:
64,192,152569,1,0,0:0:0:0:
320,192,152654,1,0,0:0:0:0:
192,192,152739,1,0,0:0:0:0:
448,192,152824,1,0,0:0:0:0:
320,192,152910,1,0,0:0:0:0:
448,192,152995,1,0,0:0:0:0:
192,192,152995,128,0,153336:0:0:0:0:
64,192,152995,128,0,153336:0:0:0:0:
192,192,153506,128,0,153677:0:0:0:0:
64,192,153506,128,0,153677:0:0:0:0:
64,192,154018,128,0,155040:0:0:0:0:
192,192,154018,128,0,154699:0:0:0:0:
448,192,154018,1,0,0:0:0:0:
448,192,154699,1,0,0:0:0:0:
320,192,155040,1,0,0:0:0:0:
448,192,155040,1,0,0:0:0:0:
192,192,155296,1,0,0:0:0:0:
320,192,155381,128,0,155552:0:0:0:0:
64,192,155722,1,0,0:0:0:0:
448,192,155722,128,0,156063:0:0:0:0:
320,192,155722,128,0,156063:0:0:0:0:
192,192,156233,1,0,0:0:0:0:
448,192,156233,128,0,156404:0:0:0:0:
64,192,156745,1,0,0:0:0:0:
448,192,156745,128,0,157768:0:0:0:0:
320,192,156745,128,0,157427:0:0:0:0:
192,192,157427,1,0,0:0:0:0:
192,192,157768,1,0,0:0:0:0:
64,192,157768,128,0,158108:0:0:0:0:
448,192,158108,128,0,158449:0:0:0:0:
320,192,158449,1,0,0:0:0:0:
192,192,158449,128,0,158620:0:0:0:0:
64,192,158449,128,0,158620:0:0:0:0:
320,192,158961,1,0,0:0:0:0:
64,192,158961,128,0,159131:0:0:0:0:
64,192,159472,128,0,160495:0:0:0:0:
320,192,159472,1,0,0:0:0:0:
192,192,159472,128,0,160154:0:0:0:0:
448,192,160154,1,0,0:0:0:0:
320,192,160495,1,0,0:0:0:0:
192,192,160495,1,0,0:0:0:0:
448,192,161177,128,0,161518:0:0:0:0:
320,192,161177,128,0,161518:0:0:0:0:
192,192,161177,1,0,0:0:0:0:
192,192,161688,1,0,0:0:0:0:
448,192,161688,128,0,161858:0:0:0:0:
192,192,162199,1,0,0:0:0:0:
448,192,162199,128,0,163222:0:0:0:0:
320,192,162199,128,0,162881:0:0:0:0:
64,192,162881,1,0,0:0:0:0:
192,192,163222,1,0,0:0:0:0:
64,192,163222,1,0,0:0:0:0:
320,192,163393,1,0,0:0:0:0:
64,192,163733,1,0,0:0:0:0:
192,192,163819,1,0,0:0:0:0:
320,192,163904,1,0,0:0:0:0:
448,192,163904,1,0,0:0:0:0:
64,192,163904,1,0,0:0:0:0:
192,192,164245,1,0,0:0:0:0:
320,192,164415,1,0,0:0:0:0:
64,192,164586,1,0,0:0:0:0:
448,192,164586,1,0,0:0:0:0:
192,192,164756,1,0,0:0:0:0:
320,192,164927,1,0,0:0:0:0:
448,192,165097,1,0,0:0:0:0:
192,192,165268,1,0,0:0:0:0:
320,192,165438,1,0,0:0:0:0:
192,192,165608,1,0,0:0:0:0:
64,192,165779,1,0,0:0:0:0:
320,192,165949,1,0,0:0:0:0:
448,192,165949,1,0,0:0:0:0:
320,192,166290,1,0,0:0:0:0:
448,192,166631,1,0,0:0:0:0:
320,192,166802,1,0,0:0:0:0:
192,192,166972,1,0,0:0:0:0:
64,192,167143,1,0,0:0:0:0:
320,192,167313,1,0,0:0:0:0:
448,192,167313,128,0,167995:0:0:0:0:
64,192,167995,1,0,0:0:0:0:
320,192,168336,1,0,0:0:0:0:
192,192,168506,1,0,0:0:0:0:
64,192,168677,1,0,0:0:0:0:
448,192,168677,1,0,0:0:0:0:
320,192,169018,1,0,0:0:0:0:
64,192,169358,1,0,0:0:0:0:
448,192,169699,1,0,0:0:0:0:
64,192,170040,1,0,0:0:0:0:
448,192,170040,1,0,0:0:0:0:
192,192,170381,1,0,0:0:0:0:
64,192,170722,1,0,0:0:0:0:
192,192,170893,1,0,0:0:0:0:
320,192,171063,1,0,0:0:0:0:
448,192,171233,1,0,0:0:0:0:
64,192,171404,1,0,0:0:0:0:
192,192,171404,1,0,0:0:0:0:
320,192,171745,1,0,0:0:0:0:
192,192,171915,1,0,0:0:0:0:
448,192,172086,1,0,0:0:0:0:
320,192,172427,1,0,0:0:0:0:
192,192,172768,1,0,0:0:0:0:
448,192,172768,1,0,0:0:0:0:
64,192,173108,1,0,0:0:0:0:
448,192,173449,1,0,0:0:0:0:
320,192,173790,1,0,0:0:0:0:
192,192,173961,1,0,0:0:0:0:
64,192,174131,1,0,0:0:0:0:
448,192,174131,128,0,174813:0:0:0:0:
320,192,174472,128,0,174813:0:0:0:0:
64,192,174813,1,0,0:0:0:0:
192,192,174813,1,0,0:0:0:0:
64,192,174983,1,0,0:0:0:0:
448,192,175154,1,0,0:0:0:0:
448,192,175324,1,0,0:0:0:0:
64,192,175495,1,0,0:0:0:0:
192,192,175495,1,0,0:0:0:0:
64,192,175665,1,0,0:0:0:0:
448,192,175836,1,0,0:0:0:0:
448,192,176006,1,0,0:0:0:0:
192,192,176177,1,0,0:0:0:0:
192,192,176347,1,0,0:0:0:0:
448,192,176518,1,0,0:0:0:0:
448,192,176688,1,0,0:0:0:0:
192,192,176858,1,0,0:0:0:0:
64,192,176858,1,0,0:0:0:0:
192,192,177029,1,0,0:0:0:0:
448,192,177199,1,0,0:0:0:0:
448,192,177370,1,0,0:0:0:0:
64,192,177540,1,0,0:0:0:0:
64,192,177711,1,0,0:0:0:0:
320,192,177881,1,0,0:0:0:0:
320,192,178052,1,0,0:0:0:0:
192,192,178222,1,0,0:0:0:0:
64,192,178222,1,0,0:0:0:0:
192,192,178393,1,0,0:0:0:0:
448,192,178563,1,0,0:0:0:0:
448,192,178733,1,0,0:0:0:0:
320,192,178904,1,0,0:0:0:0:
320,192,179074,1,0,0:0:0:0:
64,192,179245,1,0,0:0:0:0:
64,192,179415,1,0,0:0:0:0:
448,192,179586,1,0,0:0:0:0:
192,192,179586,1,0,0:0:0:0:
448,192,179756,1,0,0:0:0:0:
64,192,179927,1,0,0:0:0:0:
64,192,180097,1,0,0:0:0:0:
448,192,180268,1,0,0:0:0:0:
192,192,180268,1,0,0:0:0:0:
320,192,180438,1,0,0:0:0:0:
192,192,180608,1,0,0:0:0:0:
448,192,180608,1,0,0:0:0:0:
320,192,180779,1,0,0:0:0:0:
192,192,180949,1,0,0:0:0:0:
448,192,180949,1,0,0:0:0:0:
320,192,181120,1,0,0:0:0:0:
192,192,181290,1,0,0:0:0:0:
448,192,181290,1,0,0:0:0:0:
320,192,181461,1,0,0:0:0:0:
64,192,181631,1,0,0:0:0:0:
320,192,181631,1,0,0:0:0:0:
192,192,181802,1,0,0:0:0:0:
64,192,181972,1,0,0:0:0:0:
320,192,181972,1,0,0:0:0:0:
192,192,182143,1,0,0:0:0:0:
64,192,182313,1,0,0:0:0:0:
320,192,182313,1,0,0:0:0:0:
192,192,182483,1,0,0:0:0:0:
64,192,182654,1,0,0:0:0:0:
320,192,182654,1,0,0:0:0:0:
192,192,182824,1,0,0:0:0:0:
64,192,182995,1,0,0:0:0:0:
192,192,182995,1,0,0:0:0:0:
64,192,183165,1,0,0:0:0:0:
192,192,183165,1,0,0:0:0:0:
320,192,183336,1,0,0:0:0:0:
448,192,183336,1,0,0:0:0:0:
320,192,183506,1,0,0:0:0:0:
448,192,183506,1,0,0:0:0:0:
64,192,183677,1,0,0:0:0:0:
320,192,183677,1,0,0:0:0:0:
64,192,183847,1,0,0:0:0:0:
192,192,183847,1,0,0:0:0:0:
192,192,184018,1,0,0:0:0:0:
448,192,184018,1,0,0:0:0:0:
320,192,184188,1,0,0:0:0:0:
448,192,184188,1,0,0:0:0:0:
192,192,184358,1,0,0:0:0:0:
64,192,184358,1,0,0:0:0:0:
64,192,184529,1,0,0:0:0:0:
192,192,184529,1,0,0:0:0:0:
320,192,184699,1,0,0:0:0:0:
448,192,184699,1,0,0:0:0:0:
448,192,184870,1,0,0:0:0:0:
320,192,184870,1,0,0:0:0:0:
64,192,185040,1,0,0:0:0:0:
320,192,185040,1,0,0:0:0:0:
192,192,185211,1,0,0:0:0:0:
448,192,185211,1,0,0:0:0:0:
320,192,185381,1,0,0:0:0:0:
64,192,185466,1,0,0:0:0:0:
192,192,185552,1,0,0:0:0:0:
320,192,185637,1,0,0:0:0:0:
448,192,185722,1,0,0:0:0:0:
192,192,185722,1,0,0:0:0:0:
64,192,185722,128,0,189813:0:0:0:0:
448,192,186063,1,0,0:0:0:0:
320,192,186233,1,0,0:0:0:0:
192,192,186404,1,0,0:0:0:0:
448,192,186574,1,0,0:0:0:0:
320,192,186745,1,0,0:0:0:0:
192,192,186915,1,0,0:0:0:0:
448,192,187086,1,0,0:0:0:0:
448,192,187427,1,0,0:0:0:0:
448,192,187768,1,0,0:0:0:0:
192,192,187938,1,0,0:0:0:0:
448,192,188108,1,0,0:0:0:0:
320,192,188279,1,0,0:0:0:0:
448,192,188449,1,0,0:0:0:0:
192,192,188449,128,0,189813:0:0:0:0:
448,192,188790,1,0,0:0:0:0:
320,192,189131,1,0,0:0:0:0:
448,192,189472,1,0,0:0:0:0:
320,192,189813,128,0,190495:0:0:0:0:
448,192,189813,128,0,190495:0:0:0:0:
64,192,190495,1,0,0:0:0:0:
192,192,190495,1,0,0:0:0:0:
64,192,191177,1,0,0:0:0:0:
192,192,191177,1,0,0:0:0:0:
448,192,191177,1,0,0:0:0:0:
320,192,191177,1,0,0:0:0:0:
320,192,191347,1,0,0:0:0:0:
64,192,191518,1,0,0:0:0:0:
448,192,191518,1,0,0:0:0:0:
192,192,191688,1,0,0:0:0:0:
64,192,191858,1,0,0:0:0:0:
448,192,191858,1,0,0:0:0:0:
320,192,192029,1,0,0:0:0:0:
192,192,192199,1,0,0:0:0:0:
64,192,192370,1,0,0:0:0:0:
320,192,192370,1,0,0:0:0:0:
192,192,192540,1,0,0:0:0:0:
448,192,192711,1,0,0:0:0:0:
64,192,192881,1,0,0:0:0:0:
320,192,193052,1,0,0:0:0:0:
448,192,193052,1,0,0:0:0:0:
64,192,193222,1,0,0:0:0:0:
448,192,193393,1,0,0:0:0:0:
320,192,193563,1,0,0:0:0:0:
64,192,193648,1,0,0:0:0:0:
192,192,193733,1,0,0:0:0:0:
320,192,193819,1,0,0:0:0:0:
64,192,193904,1,0,0:0:0:0:
448,192,193904,1,0,0:0:0:0:
192,192,194074,1,0,0:0:0:0:
320,192,194245,1,0,0:0:0:0:
448,192,194245,1,0,0:0:0:0:
64,192,194415,1,0,0:0:0:0:
448,192,194586,1,0,0:0:0:0:
320,192,194756,1,0,0:0:0:0:
64,192,194927,1,0,0:0:0:0:
320,192,195097,1,0,0:0:0:0:
448,192,195097,1,0,0:0:0:0:
64,192,195268,1,0,0:0:0:0:
320,192,195438,1,0,0:0:0:0:
448,192,195608,1,0,0:0:0:0:
192,192,195779,1,0,0:0:0:0:
320,192,195779,1,0,0:0:0:0:
448,192,195949,1,0,0:0:0:0:
192,192,196120,1,0,0:0:0:0:
64,192,196120,1,0,0:0:0:0:
64,192,196290,1,0,0:0:0:0:
192,192,196290,1,0,0:0:0:0:
192,192,196461,1,0,0:0:0:0:
64,192,196461,1,0,0:0:0:0:
320,192,196631,1,0,0:0:0:0:
448,192,196631,1,0,0:0:0:0:
192,192,196802,1,0,0:0:0:0:
64,192,196972,1,0,0:0:0:0:
448,192,196972,1,0,0:0:0:0:
320,192,197143,1,0,0:0:0:0:
64,192,197313,1,0,0:0:0:0:
448,192,197313,1,0,0:0:0:0:
192,192,197483,1,0,0:0:0:0:
448,192,197654,1,0,0:0:0:0:
192,192,197824,1,0,0:0:0:0:
320,192,197824,1,0,0:0:0:0:
448,192,197995,1,0,0:0:0:0:
64,192,198165,1,0,0:0:0:0:
192,192,198336,1,0,0:0:0:0:
320,192,198336,1,0,0:0:0:0:
64,192,198506,1,0,0:0:0:0:
448,192,198506,1,0,0:0:0:0:
192,192,198677,1,0,0:0:0:0:
448,192,198847,1,0,0:0:0:0:
64,192,199018,1,0,0:0:0:0:
192,192,199103,1,0,0:0:0:0:
448,192,199188,1,0,0:0:0:0:
320,192,199273,1,0,0:0:0:0:
192,192,199358,1,0,0:0:0:0:
64,192,199358,1,0,0:0:0:0:
320,192,199529,1,0,0:0:0:0:
64,192,199699,1,0,0:0:0:0:
192,192,199699,1,0,0:0:0:0:
320,192,199870,1,0,0:0:0:0:
448,192,199870,1,0,0:0:0:0:
64,192,200040,1,0,0:0:0:0:
192,192,200211,1,0,0:0:0:0:
320,192,200381,1,0,0:0:0:0:
448,192,200381,1,0,0:0:0:0:
64,192,200552,1,0,0:0:0:0:
192,192,200722,1,0,0:0:0:0:
64,192,200893,1,0,0:0:0:0:
320,192,200893,1,0,0:0:0:0:
64,192,201063,1,0,0:0:0:0:
320,192,201063,1,0,0:0:0:0:
64,192,201233,1,0,0:0:0:0:
320,192,201233,1,0,0:0:0:0:
192,192,201404,1,0,0:0:0:0:
320,192,201489,1,0,0:0:0:0:
448,192,201574,1,0,0:0:0:0:
192,192,201660,1,0,0:0:0:0:
320,192,201745,1,0,0:0:0:0:
64,192,201830,1,0,0:0:0:0:
192,192,201915,1,0,0:0:0:0:
320,192,202000,1,0,0:0:0:0:
64,192,202086,1,0,0:0:0:0:
192,192,202086,1,0,0:0:0:0:
448,192,202086,1,0,0:0:0:0:
192,192,202256,1,0,0:0:0:0:
64,192,202427,1,0,0:0:0:0:
320,192,202427,1,0,0:0:0:0:
448,192,202427,1,0,0:0:0:0:
64,192,202597,1,0,0:0:0:0:
320,192,202768,1,0,0:0:0:0:
448,192,202768,1,0,0:0:0:0:
192,192,202768,1,0,0:0:0:0:
448,192,202938,1,0,0:0:0:0:
64,192,203108,1,0,0:0:0:0:
320,192,203108,1,0,0:0:0:0:
192,192,203108,1,0,0:0:0:0:
192,192,203279,1,0,0:0:0:0:
448,192,203449,1,0,0:0:0:0:
64,192,203449,1,0,0:0:0:0:
320,192,203449,1,0,0:0:0:0:
320,192,203620,1,0,0:0:0:0:
64,192,203790,1,0,0:0:0:0:
192,192,203790,1,0,0:0:0:0:
448,192,203790,1,0,0:0:0:0:
448,192,203961,1,0,0:0:0:0:
64,192,204131,1,0,0:0:0:0:
192,192,204131,1,0,0:0:0:0:
320,192,204131,1,0,0:0:0:0:
192,192,204302,1,0,0:0:0:0:
64,192,204472,1,0,0:0:0:0:
448,192,204472,1,0,0:0:0:0:
320,192,204472,1,0,0:0:0:0:
64,192,204643,1,0,0:0:0:0:
192,192,204813,1,0,0:0:0:0:
448,192,204813,1,0,0:0:0:0:
320,192,204813,1,0,0:0:0:0:
448,192,204983,1,0,0:0:0:0:
192,192,205154,1,0,0:0:0:0:
64,192,205154,1,0,0:0:0:0:
320,192,205154,1,0,0:0:0:0:
320,192,205324,1,0,0:0:0:0:
192,192,205495,1,0,0:0:0:0:
448,192,205495,1,0,0:0:0:0:
64,192,205495,1,0,0:0:0:0:
192,192,205665,1,0,0:0:0:0:
320,192,205836,1,0,0:0:0:0:
448,192,205836,1,0,0:0:0:0:
64,192,205836,1,0,0:0:0:0:
64,192,206006,1,0,0:0:0:0:
320,192,206177,1,0,0:0:0:0:
192,192,206177,1,0,0:0:0:0:
448,192,206177,1,0,0:0:0:0:
448,192,206347,1,0,0:0:0:0:
64,192,206518,1,0,0:0:0:0:
192,192,206518,1,0,0:0:0:0:
320,192,206518,1,0,0:0:0:0:
192,192,206688,1,0,0:0:0:0:
64,192,206858,1,0,0:0:0:0:
320,192,206858,1,0,0:0:0:0:
448,192,206858,1,0,0:0:0:0:
320,192,207029,1,0,0:0:0:0:
448,192,207199,1,0,0:0:0:0:
192,192,207285,1,0,0:0:0:0:
64,192,207370,1,0,0:0:0:0:
320,192,207455,1,0,0:0:0:0:
192,192,207540,1,0,0:0:0:0:
64,192,207540,1,0,0:0:0:0:
448,192,207540,128,0,208052:0:0:0:0:
64,192,207711,1,0,0:0:0:0:
192,192,207881,1,0,0:0:0:0:
320,192,207881,1,0,0:0:0:0:
64,192,208052,1,0,0:0:0:0:
320,192,208222,1,0,0:0:0:0:
448,192,208222,128,0,208733:0:0:0:0:
192,192,208393,1,0,0:0:0:0:
320,192,208563,1,0,0:0:0:0:
64,192,208563,1,0,0:0:0:0:
192,192,208733,1,0,0:0:0:0:
320,192,208904,1,0,0:0:0:0:
448,192,208904,128,0,209415:0:0:0:0:
64,192,209074,1,0,0:0:0:0:
192,192,209245,1,0,0:0:0:0:
320,192,209245,1,0,0:0:0:0:
192,192,209415,1,0,0:0:0:0:
64,192,209586,1,0,0:0:0:0:
448,192,209586,128,0,209927:0:0:0:0:
320,192,209756,1,0,0:0:0:0:
192,192,209927,1,0,0:0:0:0:
64,192,209927,1,0,0:0:0:0:
320,192,210097,1,0,0:0:0:0:
64,192,210268,1,0,0:0:0:0:
448,192,210268,128,0,211631:0:0:0:0:
192,192,210438,1,0,0:0:0:0:
64,192,210608,1,0,0:0:0:0:
320,192,210608,1,0,0:0:0:0:
64,192,210779,1,0,0:0:0:0:
320,192,210949,1,0,0:0:0:0:
192,192,210949,1,0,0:0:0:0:
64,192,211120,1,0,0:0:0:0:
192,192,211290,1,0,0:0:0:0:
320,192,211290,1,0,0:0:0:0:
192,192,211461,1,0,0:0:0:0:
64,192,211631,1,0,0:0:0:0:
320,192,211631,1,0,0:0:0:0:
448,192,211802,1,0,0:0:0:0:
320,192,211802,1,0,0:0:0:0:
320,192,211972,1,0,0:0:0:0:
448,192,211972,1,0,0:0:0:0:
448,192,212143,1,0,0:0:0:0:
320,192,212143,1,0,0:0:0:0:
64,192,212313,1,0,0:0:0:0:
192,192,212398,1,0,0:0:0:0:
320,192,212483,1,0,0:0:0:0:
448,192,212483,1,0,0:0:0:0:
64,192,212654,1,0,0:0:0:0:
192,192,212654,1,0,0:0:0:0:
448,192,212654,1,0,0:0:0:0:
320,192,212824,1,0,0:0:0:0:
448,192,212824,1,0,0:0:0:0:
64,192,212824,1,0,0:0:0:0:
64,192,212995,1,0,0:0:0:0:
192,192,212995,1,0,0:0:0:0:
448,192,212995,1,0,0:0:0:0:
320,192,213165,1,0,0:0:0:0:
448,192,213336,1,0,0:0:0:0:
64,192,213336,128,0,214018:0:0:0:0:
320,192,213506,1,0,0:0:0:0:
192,192,213677,128,0,214018:0:0:0:0:
320,192,214018,1,0,0:0:0:0:
448,192,214018,1,0,0:0:0:0:
192,192,214188,1,0,0:0:0:0:
448,192,214358,1,0,0:0:0:0:
64,192,214358,1,0,0:0:0:0:
320,192,214529,1,0,0:0:0:0:
64,192,214699,1,0,0:0:0:0:
448,192,214699,128,0,215381:0:0:0:0:
192,192,214870,1,0,0:0:0:0:
320,192,215040,128,0,215381:0:0:0:0:
64,192,215381,1,0,0:0:0:0:
192,192,215381,1,0,0:0:0:0:
320,192,215552,1,0,0:0:0:0:
64,192,215722,1,0,0:0:0:0:
448,192,215722,1,0,0:0:0:0:
192,192,215893,1,0,0:0:0:0:
320,192,216063,1,0,0:0:0:0:
448,192,216063,1,0,0:0:0:0:
64,192,216233,1,0,0:0:0:0:
192,192,216404,1,0,0:0:0:0:
320,192,216404,128,0,216574:0:0:0:0:
448,192,216574,1,0,0:0:0:0:
320,192,216745,1,0,0:0:0:0:
192,192,216745,128,0,216915:0:0:0:0:
64,192,216915,1,0,0:0:0:0:
320,192,217086,1,0,0:0:0:0:
448,192,217086,128,0,217427:0:0:0:0:
192,192,217256,1,0,0:0:0:0:
64,192,217427,128,0,217768:0:0:0:0:
320,192,217427,1,0,0:0:0:0:
192,192,217597,128,0,217768:0:0:0:0:
448,192,217768,1,0,0:0:0:0:
64,192,217938,1,0,0:0:0:0:
320,192,217938,1,0,0:0:0:0:
448,192,218108,1,0,0:0:0:0:
192,192,218194,1,0,0:0:0:0:
64,192,218279,1,0,0:0:0:0:
192,192,218364,1,0,0:0:0:0:
448,192,218449,1,0,0:0:0:0:
64,192,218620,1,0,0:0:0:0:
192,192,218790,1,0,0:0:0:0:
448,192,218790,1,0,0:0:0:0:
320,192,218961,1,0,0:0:0:0:
192,192,219131,1,0,0:0:0:0:
64,192,219131,1,0,0:0:0:0:
320,192,219302,1,0,0:0:0:0:
448,192,219472,1,0,0:0:0:0:
64,192,219472,1,0,0:0:0:0:
192,192,219643,1,0,0:0:0:0:
320,192,219813,1,0,0:0:0:0:
448,192,219813,1,0,0:0:0:0:
64,192,219983,1,0,0:0:0:0:
448,192,220154,1,0,0:0:0:0:
192,192,220154,1,0,0:0:0:0:
320,192,220324,1,0,0:0:0:0:
64,192,220495,1,0,0:0:0:0:
448,192,220495,1,0,0:0:0:0:
192,192,220665,1,0,0:0:0:0:
448,192,220836,1,0,0:0:0:0:
320,192,220836,1,0,0:0:0:0:
64,192,221006,1,0,0:0:0:0:
192,192,221177,1,0,0:0:0:0:
448,192,221177,1,0,0:0:0:0:
320,192,221347,1,0,0:0:0:0:
192,192,221518,1,0,0:0:0:0:
64,192,221518,1,0,0:0:0:0:
448,192,221688,1,0,0:0:0:0:
192,192,221858,1,0,0:0:0:0:
320,192,221858,128,0,222029:0:0:0:0:
64,192,222029,1,0,0:0:0:0:
448,192,222199,1,0,0:0:0:0:
192,192,222199,128,0,222540:0:0:0:0:
320,192,222370,128,0,222540:0:0:0:0:
64,192,222540,1,0,0:0:0:0:
448,192,222711,1,0,0:0:0:0:
320,192,222711,1,0,0:0:0:0:
64,192,222881,1,0,0:0:0:0:
320,192,222881,1,0,0:0:0:0:
448,192,222881,1,0,0:0:0:0:
192,192,223052,1,0,0:0:0:0:
448,192,223222,1,0,0:0:0:0:
192,192,223393,1,0,0:0:0:0:
320,192,223478,1,0,0:0:0:0:
64,192,223563,1,0,0:0:0:0:
448,192,223648,1,0,0:0:0:0:
320,192,223733,1,0,0:0:0:0:
192,192,223819,1,0,0:0:0:0:
64,192,223904,1,0,0:0:0:0:
320,192,223904,1,0,0:0:0:0:
448,192,223904,1,0,0:0:0:0:
320,192,224074,1,0,0:0:0:0:
64,192,224245,1,0,0:0:0:0:
448,192,224245,128,0,224927:0:0:0:0:
192,192,224415,1,0,0:0:0:0:
320,192,224586,128,0,224927:0:0:0:0:
64,192,224927,1,0,0:0:0:0:
192,192,224927,1,0,0:0:0:0:
448,192,225097,1,0,0:0:0:0:
320,192,225268,1,0,0:0:0:0:
64,192,225268,1,0,0:0:0:0:
192,192,225438,1,0,0:0:0:0:
448,192,225608,1,0,0:0:0:0:
64,192,225608,128,0,226290:0:0:0:0:
320,192,225779,1,0,0:0:0:0:
192,192,225949,128,0,226290:0:0:0:0:
320,192,226290,1,0,0:0:0:0:
448,192,226290,1,0,0:0:0:0:
192,192,226461,1,0,0:0:0:0:
448,192,226631,1,0,0:0:0:0:
64,192,226631,1,0,0:0:0:0:
448,192,226802,1,0,0:0:0:0:
192,192,226972,1,0,0:0:0:0:
64,192,226972,1,0,0:0:0:0:
320,192,227143,1,0,0:0:0:0:
64,192,227313,128,0,227483:0:0:0:0:
448,192,227313,1,0,0:0:0:0:
320,192,227483,1,0,0:0:0:0:
448,192,227654,1,0,0:0:0:0:
192,192,227654,128,0,227824:0:0:0:0:
64,192,227824,1,0,0:0:0:0:
192,192,227995,1,0,0:0:0:0:
448,192,227995,128,0,228336:0:0:0:0:
320,192,228336,1,0,0:0:0:0:
64,192,228336,128,0,228677:0:0:0:0:
192,192,228506,128,0,228677:0:0:0:0:
448,192,228677,1,0,0:0:0:0:
320,192,228677,1,0,0:0:0:0:
192,192,228847,1,0,0:0:0:0:
64,192,229018,1,0,0:0:0:0:
448,192,229103,1,0,0:0:0:0:
192,192,229188,1,0,0:0:0:0:
320,192,229273,1,0,0:0:0:0:
448,192,229358,1,0,0:0:0:0:
192,192,229358,1,0,0:0:0:0:
64,192,229358,1,0,0:0:0:0:
320,192,229529,1,0,0:0:0:0:
64,192,229699,1,0,0:0:0:0:
448,192,229699,1,0,0:0:0:0:
192,192,229870,1,0,0:0:0:0:
320,192,230040,1,0,0:0:0:0:
448,192,230040,1,0,0:0:0:0:
192,192,230211,1,0,0:0:0:0:
448,192,230381,1,0,0:0:0:0:
64,192,230381,1,0,0:0:0:0:
320,192,230552,1,0,0:0:0:0:
192,192,230722,1,0,0:0:0:0:
64,192,230722,1,0,0:0:0:0:
448,192,230893,1,0,0:0:0:0:
64,192,231063,1,0,0:0:0:0:
320,192,231063,1,0,0:0:0:0:
192,192,231233,1,0,0:0:0:0:
448,192,231404,1,0,0:0:0:0:
320,192,231404,1,0,0:0:0:0:
64,192,231574,1,0,0:0:0:0:
192,192,231574,1,0,0:0:0:0:
320,192,231660,1,0,0:0:0:0:
64,192,231745,1,0,0:0:0:0:
192,192,231745,1,0,0:0:0:0:
448,192,231915,1,0,0:0:0:0:
64,192,232086,1,0,0:0:0:0:
320,192,232086,1,0,0:0:0:0:
192,192,232086,1,0,0:0:0:0:
64,192,232256,1,0,0:0:0:0:
448,192,232427,1,0,0:0:0:0:
320,192,232427,1,0,0:0:0:0:
448,192,232597,1,0,0:0:0:0:
320,192,232768,1,0,0:0:0:0:
192,192,232768,1,0,0:0:0:0:
192,192,232938,1,0,0:0:0:0:
320,192,233108,1,0,0:0:0:0:
64,192,233108,1,0,0:0:0:0:
320,192,233279,1,0,0:0:0:0:
448,192,233449,1,0,0:0:0:0:
64,192,233449,1,0,0:0:0:0:
192,192,233449,1,0,0:0:0:0:
192,192,233620,1,0,0:0:0:0:
448,192,233790,1,0,0:0:0:0:
320,192,233790,1,0,0:0:0:0:
320,192,233961,1,0,0:0:0:0:
64,192,234131,1,0,0:0:0:0:
320,192,234216,1,0,0:0:0:0:
192,192,234302,1,0,0:0:0:0:
448,192,234387,1,0,0:0:0:0:
64,192,234472,1,0,0:0:0:0:
320,192,234557,1,0,0:0:0:0:
192,192,234643,1,0,0:0:0:0:
448,192,234728,1,0,0:0:0:0:
320,192,234813,1,0,0:0:0:0:
64,192,234813,128,0,237540:0:0:0:0:
192,192,235154,1,0,0:0:0:0:
448,192,235495,1,0,0:0:0:0:
320,192,235836,1,0,0:0:0:0:
448,192,236177,1,0,0:0:0:0:
192,192,236518,1,0,0:0:0:0:
320,192,236858,1,0,0:0:0:0:
448,192,237199,1,0,0:0:0:0:
64,192,238904,1,0,0:0:0:0:
320,192,238904,1,0,0:0:0:0:
192,192,239586,1,0,0:0:0:0:
448,192,239586,1,0,0:0:0:0:
64,192,240268,1,0,0:0:0:0:
448,192,240268,1,0,0:0:0:0:
320,192,240608,1,0,0:0:0:0:
320,192,240949,1,0,0:0:0:0:
192,192,241290,1,0,0:0:0:0:
192,192,241631,1,0,0:0:0:0:
64,192,241972,1,0,0:0:0:0:
64,192,242313,1,0,0:0:0:0:
448,192,242654,1,0,0:0:0:0:
192,192,244358,1,0,0:0:0:0:
448,192,244358,1,0,0:0:0:0:
64,192,245040,1,0,0:0:0:0:
320,192,245040,1,0,0:0:0:0:
64,192,245722,1,0,0:0:0:0:
448,192,245722,1,0,0:0:0:0:
448,192,247400,1,0,0:0:0:0:
320,192,247854,1,0,0:0:0:0:
192,192,248344,1,0,0:0:0:0:
64,192,248895,1,0,0:0:0:0:
448,192,249695,1,0,0:0:0:0:
