osu file format v14

[General]
AudioFilename: audio.mp3
AudioLeadIn: 0
PreviewTime: 81620
Countdown: 0
SampleSet: Soft
StackLeniency: 0.7
Mode: 0
LetterboxInBreaks: 0
WidescreenStoryboard: 1

[Editor]
Bookmarks: 10882,33041,54859,65768,71564,79404,93041,103950
DistanceSpacing: 1.4
BeatDivisor: 4
GridSize: 32
TimelineZoom: 3.099999

[Metadata]
Title:confusion (Cut Ver.)
TitleUnicode:confusion (Cut Ver.)
Artist:nowisee
ArtistUnicode:nowisee
Creator:bite you death
Version:bite your wafer's Lost Insane
Source:
Tags:byd wafer onegai hootowlstar soraka honne blastthekidd onegai
BeatmapID:3369371
BeatmapSetID:722004

[Difficulty]
HPDrainRate:5.3
CircleSize:3.8
OverallDifficulty:8.6
ApproachRate:8.8
SliderMultiplier:1.7
SliderTickRate:2

[Events]
//Background and Video events
0,0,"BG.jpg",0,0
//Break Periods
//Storyboard Layer 0 (Background)
//Storyboard Layer 1 (Fail)
//Storyboard Layer 2 (Pass)
//Storyboard Layer 3 (Foreground)
//Storyboard Layer 4 (Overlay)
//Storyboard Sound Samples

[TimingPoints]
314,340.909090909091,4,2,2,70,1,0
10882,-200,4,2,2,70,0,0
11223,-100,4,2,2,80,0,0
12927,-83.3333333333333,4,2,2,80,0,0
13353,-100,4,2,2,80,0,0
15314,-83.3333333333333,4,2,2,80,0,0
15825,-100,4,2,2,80,0,0
16677,-71.4285714285714,4,2,2,80,0,0
17189,-100,4,2,2,80,0,0
18382,-83.3333333333333,4,2,2,80,0,0
20768,-62.5,4,2,2,80,0,0
21109,-133.333333333333,4,2,2,80,0,0
21450,-66.6666666666667,4,2,2,80,0,0
22132,-133.333333333333,4,2,2,70,0,0
31677,-117.647058823529,4,2,2,70,0,0
33041,-100,4,2,2,70,0,0
34745,-75.187969924812,4,2,2,70,0,0
35086,-100,4,2,2,70,0,0
38495,-83.3333333333333,4,2,2,70,0,0
38836,-111.111111111111,4,2,2,70,0,0
39177,-100,4,2,2,70,0,0
43268,-75.187969924812,4,2,2,70,0,0
43950,-100,4,2,2,70,0,0
44973,-75.187969924812,4,2,2,70,0,0
45314,-100,4,2,2,70,0,0
50427,-75.187969924812,4,2,2,70,0,0
50768,-100,4,2,2,70,0,0
51961,-149.253731343284,4,2,2,70,0,0
54859,-200,4,2,2,40,0,0
57586,-133.333333333333,4,2,2,50,0,0
57927,-100,4,2,2,50,0,0
58268,-83.3333333333333,4,2,2,60,0,0
58609,-71.4285714285714,4,2,2,60,0,0
58950,-71.4285714285714,4,2,2,70,0,0
59632,-200,4,2,2,80,0,0
60314,-66.6666666666667,4,2,2,90,0,0
60825,-76.9230769230769,4,2,2,90,0,0
63041,-66.6666666666667,4,2,2,90,0,0
63552,-76.9230769230769,4,2,2,90,0,0
65768,-66.6666666666667,4,2,2,90,0,0
70029,-50,4,2,2,50,0,0
70200,-50,4,2,2,60,0,0
70370,-50,4,2,2,70,0,0
70541,-76.9230769230769,4,2,2,80,0,0
76677,-76.9230769230769,4,2,2,100,0,0
77018,-166.666666666667,4,2,2,100,0,0
77359,-76.9230769230769,4,2,2,100,0,0
77700,-166.666666666667,4,2,2,100,0,0
78041,-76.9230769230769,4,2,2,100,0,0
78382,-166.666666666667,4,2,2,100,0,0
78723,-76.9230769230769,4,2,2,100,0,0
79064,-166.666666666667,4,2,2,100,0,0
79404,-76.9230769230769,4,2,2,100,0,0
81620,-55.5555555555556,4,2,2,90,0,0
81748,-55.5555555555556,4,2,2,5,0,0
81791,-71.4285714285714,4,2,2,90,0,0
81919,-71.4285714285714,4,2,2,5,0,0
81961,-100,4,2,2,90,0,0
82089,-100,4,2,2,5,0,0
82132,-66.6666666666667,4,2,2,100,0,1
82814,-50,4,2,2,100,0,1
83154,-76.9230769230769,4,2,2,100,0,1
83495,-66.6666666666667,4,2,2,100,0,1
84177,-50,4,2,2,100,0,1
84518,-76.9230769230769,4,2,2,100,0,1
85541,-100,4,2,2,100,0,1
85882,-66.6666666666667,4,2,2,100,0,1
86223,-75.187969924812,4,2,2,100,0,1
87927,-50,4,2,2,100,0,1
88098,-75.187969924812,4,2,2,100,0,1
90995,-100,4,2,2,100,0,1
91336,-66.6666666666667,4,2,2,100,0,1
92189,-50,4,2,2,100,0,1
93041,-66.6666666666667,4,2,2,100,0,1
93723,-50,4,2,2,100,0,1
94063,-76.9230769230769,4,2,2,100,0,1
94404,-66.6666666666667,4,2,2,100,0,1
95086,-50,4,2,2,100,0,1
95427,-76.9230769230769,4,2,2,100,0,1
96450,-100,4,2,2,100,0,1
96791,-66.6666666666667,4,2,2,100,0,1
97132,-75.187969924812,4,2,2,100,0,1
98836,-50,4,2,2,100,0,1
99007,-75.187969924812,4,2,2,100,0,1
101223,-50,4,2,2,100,0,1
101564,-66.6666666666667,4,2,2,100,0,1
103950,-66.6666666666667,4,2,2,100,0,0

[Colours]
Combo1 : 217,217,255
Combo2 : 113,255,113
SliderBorder : 205,230,235
SliderTrackOverride : 0,0,20

[HitObjects]
79,42,10882,6,0,P|42:56|33:92,1,74.375,8|0,0:0|0:0,0:0:0:0:
36,93,11223,6,0,P|101:107|147:165,1,127.5,4|0,3:2|0:0,0:0:0:0:
220,167,11564,2,0,P|236:128|199:79,1,85,8|0,0:0|0:0,0:0:0:0:
58,171,11904,5,2,0:3:0:0:
219,90,12075,1,0,3:0:0:0:
145,22,12245,1,0,0:0:0:0:
226,175,12416,6,0,B|276:161|315:189|295:202|320:237|383:220,1,170,8|0,0:0|3:0,0:0:0:0:
238,251,12927,2,0,B|300:246|333:197|305:191|319:141|398:134,1,203.999993774414,8|2,0:0|0:3,0:0:0:0:
390,135,13353,1,2,0:3:0:0:
390,135,13439,1,0,3:0:0:0:
442,58,13609,1,0,0:0:0:0:
484,253,13779,6,0,L|476:207,1,42.5,8|0,0:0|0:0,0:0:0:0:
465,205,13950,2,0,L|481:297,1,85,0|0,3:0|0:0,0:0:0:0:
306,315,14291,6,0,B|261:302|217:328|240:343|209:379|149:359,1,170,8|2,0:0|0:3,0:0:0:0:
97,308,14717,1,2,0:3:0:0:
97,308,14802,1,0,3:0:0:0:
205,192,14973,1,0,0:0:0:0:
31,97,15143,2,0,B|27:108|27:108|50:157,1,42.5,8|0,0:0|0:0,0:0:0:0:
2,217,15314,6,0,B|-3:190|-3:190|117:119|117:119|149:138,1,203.999993774414,4|8,3:2|0:0,0:0:0:0:
108,307,15910,1,8,0:0:0:0:
99,313,15995,6,0,B|54:319|54:319|26:272,1,85,4|0,3:2|0:0,0:0:0:0:
210,196,16336,1,8,0:0:0:0:
292,252,16507,1,0,0:0:0:0:
291,263,16592,1,0,0:0:0:0:
286,268,16677,6,0,P|238:229|329:92,1,237.999992736817,4|8,3:2|0:0,0:0:0:0:
442,159,17189,1,0,0:0:0:0:
442,159,17274,1,0,0:0:0:0:
442,159,17359,1,2,0:3:0:0:
330,11,17529,1,0,3:0:0:0:
427,45,17700,1,0,0:0:0:0:
299,181,17870,6,0,B|255:169|212:197|236:211|207:248|146:232,1,170,8|0,0:0|3:0,0:0:0:0:
303,261,18382,2,0,B|246:260|204:213|237:204|214:149|135:150,1,203.999993774414,8|2,0:0|0:3,0:0:0:0:
147,150,18808,1,2,0:3:0:0:
147,150,18893,1,0,3:0:0:0:
31,26,19064,6,0,B|18:31|18:31|42:109|42:109|6:136,1,101.999996887207,0|8,0:0|0:0,0:0:0:0:
0,254,19404,5,0,3:0:0:0:
83,310,19575,5,0,0:0:0:0:
207,252,19745,5,8,0:0:0:0:
343,222,19916,5,0,3:0:0:0:
456,313,20086,5,2,0:3:0:0:
343,222,20257,5,0,3:0:0:0:
207,252,20427,5,0,0:0:0:0:
366,309,20598,5,8,0:0:0:0:
235,362,20768,6,0,P|205:208|174:125,1,238,4|0,3:2|0:0,0:0:0:0:
110,48,21109,6,0,P|83:93|99:128,1,95.6250036478044,8|8,0:0|0:0,0:0:0:0:
256,279,21450,6,0,B|315:262|377:300|341:319|380:378|464:348,1,223.125008511544,4|0,3:2|0:0,0:0:0:0:
478,267,21791,1,8,0:0:0:0:
452,220,21876,1,8,0:0:0:0:
401,198,21961,1,8,0:0:0:0:
330,205,22047,1,8,0:0:0:0:
330,205,22132,6,0,P|289:162|332:93,1,127.500004863739,4|0,3:2|3:0,0:0:0:0:
309,103,22643,1,0,0:0:0:0:
201,36,22814,2,8,P|141:37|123:116,1,127.500004863739,0|0,3:0|3:0,0:0:0:0:
115,93,23325,1,0,0:0:0:0:
7,240,23495,5,0,3:0:0:0:
6,141,23666,6,0,B|91:150|35:182|146:191,1,127.500004863739,0|0,0:0|0:0,0:0:0:0:
278,34,24177,1,0,3:0:0:0:
282,44,24262,1,0,0:0:0:0:
289,50,24348,1,0,0:0:0:0:
292,57,24433,2,0,P|281:98|270:188,1,127.500004863739,0|0,0:0|0:0,0:0:0:0:
321,243,24859,6,0,B|366:239|385:285|371:277|371:306|445:314,3,127.500004863739,0|0|0|0,3:0|3:0|3:0|3:0,0:0:0:0:
162,298,26052,5,0,0:0:0:0:
196,366,26223,2,0,P|202:302|217:240,2,127.500004863739,0|0|0,0:0|3:0|3:0,0:0:0:0:
200,370,27245,6,0,P|186:323|167:291,1,63.7500024318696,0|0,3:0|0:0,0:0:0:0:
75,273,27586,6,0,P|35:249|51:172,1,127.500004863739,0|0,3:0|3:0,0:0:0:0:
103,121,28098,2,0,P|96:89|94:58,1,63.7500024318696,0|0,0:0|0:0,0:0:0:0:
15,15,28439,1,0,0:0:0:0:
15,15,28524,1,0,0:0:0:0:
15,15,28609,2,0,P|26:-1|20:-2,1,31.8750012159348,0|0,3:0|0:0,0:0:0:0:
176,155,28950,6,0,B|221:159|240:113|226:121|226:92|300:84,2,127.500004863739,0|0|0,3:0|3:0|0:0,0:0:0:0:
180,159,29973,2,0,P|214:170|246:183,1,63.7500024318696,0|0,3:0|0:0,0:0:0:0:
266,260,30314,6,0,P|275:204|356:167,1,127.500004863739,0|0,3:0|3:0,0:0:0:0:
334,23,30825,2,0,B|330:68|376:87|368:73|397:73|405:147,1,127.500004863739,0|0,0:0|0:0,0:0:0:0:
478,174,31336,2,0,P|485:143|501:115,1,63.7500024318696,0|0,3:0|0:0,0:0:0:0:
344,247,31677,6,0,B|300:238|276:282|296:271|280:323|220:318,1,144.500002756119,8|0,0:0|3:0,0:0:0:0:
96,192,32189,5,8,0:0:0:0:
230,318,32359,1,0,0:0:0:0:
68,347,32529,5,8,0:0:0:0:
156,366,32700,2,0,P|145:311|133:279,1,72.2500013780594,0|8,3:0|0:0,0:0:0:0:
208,135,33041,6,0,P|143:158|92:194,1,127.5,4|0,3:2|0:0,0:0:0:0:
14,182,33382,2,0,P|24:136|61:116,1,85,8|0,0:0|0:0,0:0:0:0:
198,252,33723,2,0,P|199:280|178:312,1,42.5,0|0,3:0|0:0,0:0:0:0:
156,366,33893,2,0,P|153:309|194:245,1,127.5,0|0,3:0|0:0,0:0:0:0:
275,216,34234,6,0,B|327:207|366:245|333:269|364:305|444:293,1,170,8|0,0:0|3:0,0:0:0:0:
443,205,34745,2,0,B|373:193|321:243|365:275|324:323|218:307,1,226.099990684967,8|2,0:0|0:3,0:0:0:0:
220,377,35171,1,2,0:3:0:0:
220,377,35257,2,0,P|188:360|186:305,1,85,0|0,3:0|0:0,0:0:0:0:
29,225,35598,5,8,0:0:0:0:
98,176,35768,2,0,P|78:253|57:354,2,170,0|8|0,3:0|0:0|3:0,0:0:0:0:
0,72,36620,6,0,P|59:84|94:35,1,127.5,0|0,3:0|0:0,0:0:0:0:
80,43,36961,2,0,P|110:83|161:92,1,85,8|0,0:0|0:0,0:0:0:0:
315,40,37302,1,0,3:0:0:0:
212,6,37473,2,0,P|233:66|252:126,1,127.5,8|0,0:0|0:0,0:0:0:0:
302,198,37814,5,2,0:3:0:0:
281,220,37899,1,2,0:3:0:0:
251,216,37984,1,0,3:0:0:0:
252,126,38154,1,0,3:0:0:0:
307,306,38325,1,8,0:0:0:0:
367,139,38495,6,0,P|424:93|515:81,1,152.999995330811,0|0,3:0|0:0,0:0:0:0:
501,79,38836,2,0,P|474:106|433:114,1,76.4999976654053,8|0,0:0|0:0,0:0:0:0:
242,2,39177,6,0,L|233:47,1,42.5,0|0,3:0|0:0,0:0:0:0:
284,108,39348,2,0,B|297:79|297:79|225:52|174:130,1,170,0|8,3:0|0:0,0:0:0:0:
26,68,40030,5,0,3:0:0:0:
89,20,40200,2,0,P|72:77|52:157,1,127.5,8|0,0:0|0:0,0:0:0:0:
46,152,40541,2,0,P|44:173|61:202,1,42.5,2|2,0:3|0:3,0:0:0:0:
171,248,40711,6,0,P|126:256|95:330,1,127.5,0|0,3:0|0:0,0:0:0:0:
101,339,41052,1,8,0:0:0:0:
242,305,41223,6,0,P|316:323|419:362,2,170,0|8|0,3:0|0:0|3:0,0:0:0:0:
350,247,42075,2,0,P|371:212|354:163,1,85,0|0,3:0|0:0,0:0:0:0:
251,24,42416,6,0,P|257:49|282:79,1,42.5,8|0,0:0|0:0,0:0:0:0:
345,73,42586,2,0,P|305:71|287:161,1,127.5,0|0,0:0|0:0,0:0:0:0:
224,205,42927,2,0,P|162:220|100:237,1,127.5,8|0,0:0|0:0,0:0:0:0:
44,181,43268,6,0,B|34:233|72:271|96:238|132:269|120:350,1,170,2|0,0:3|0:0,0:0:0:0:
54,378,43609,5,0,0:0:0:0:
101,237,43779,1,8,0:0:0:0:
54,378,43950,2,0,P|104:344|223:354,1,170,4|8,3:2|0:0,0:0:0:0:
188,165,44461,2,0,P|239:195|281:308,1,170,4|0,3:2|3:0,0:0:0:0:
437,196,44973,6,0,P|430:256|346:340,1,170,4|0,3:2|0:0,0:0:0:0:
360,335,45314,2,0,P|368:294|411:268,1,85,2|0,0:3|3:0,0:0:0:0:
466,118,45654,6,0,P|429:157|331:142,1,127.5,8|0,0:0|0:0,0:0:0:0:
316,105,45995,6,0,P|307:62|295:10,1,85,2|0,0:3|3:0,0:0:0:0:
297,21,46251,1,0,0:0:0:0:
297,21,46336,2,0,P|275:16|249:10,1,42.5,2|0,0:3|0:0,0:0:0:0:
206,74,46507,2,0,P|184:78|158:84,1,42.5,8|0,0:0|0:0,0:0:0:0:
0,46,46677,5,0,3:0:0:0:
0,46,46848,1,0,3:0:0:0:
93,22,47018,2,0,P|78:79|67:136,1,85,8|0,0:0|0:0,0:0:0:0:
51,122,47274,1,0,0:0:0:0:
54,149,47359,1,0,3:0:0:0:
156,231,47529,6,0,P|86:237|56:302,1,127.5,0|0,3:0|0:0,0:0:0:0:
56,281,47870,6,0,P|135:304|239:354,1,170,8|0,0:0|3:0,0:0:0:0:
425,328,48382,6,0,P|377:336|359:383,1,85,8|2,0:0|0:3,0:0:0:0:
323,360,48637,1,2,0:3:0:0:
295,336,48724,1,2,0:3:0:0:
287,300,48809,1,2,0:3:0:0:
302,266,48894,1,0,3:0:0:0:
417,111,49064,6,0,L|405:162,1,42.5
388,228,49235,1,8,0:0:0:0:
502,117,49404,6,0,B|451:131|409:96|440:70|406:37|327:56,1,170,4|8,3:2|0:0,0:0:0:0:
163,233,49916,2,0,B|213:247|255:212|224:186|258:153|337:172,1,170,4|0,3:2|3:0,0:0:0:0:
296,8,50427,6,0,P|322:94|363:249,1,226.099990684967,4|2,3:2|0:3,0:0:0:0:
417,111,50939,5,0,3:0:0:0:
362,311,51109,2,0,P|313:307|291:261,1,85,8|2,0:0|0:3,0:0:0:0:
257,288,51366,1,2,0:3:0:0:
231,314,51451,1,2,0:3:0:0:
226,350,51536,1,2,0:3:0:0:
244,383,51621,1,0,3:0:0:0:
244,383,51961,5,8,0:0:0:0:
0,332,52132,2,0,P|26:295|145:276,1,170.849991918412,2|0,3:2|3:0,0:0:0:0:
194,220,52814,6,0,P|206:206|195:222,1,56.9499973061372,8|0,0:0|3:0,0:0:0:0:
6,77,53325,5,0,3:0:0:0:
6,77,53495,2,0,P|24:135|41:195,1,113.899994612274,2|0,0:3|0:0,0:0:0:0:
239,64,54177,5,8,0:0:0:0:
239,64,54262,1,8,0:0:0:0:
278,50,54347,1,8,0:0:0:0:
315,70,54432,1,8,0:0:0:0:
326,109,54517,1,8,0:0:0:0:
317,153,54603,1,8,0:0:0:0:
345,188,54688,1,8,0:0:0:0:
388,188,54773,1,8,0:0:0:0:
388,188,54859,6,0,B|441:134|380:53|246:47|180:143|254:308|76:320|-5:292|15:122|102:88|175:152|178:166,1,595,2|0,3:2|0:0,0:0:0:0:
172,157,57586,6,0,P|110:178|95:197,1,63.7500024318696,0|8,3:0|0:0,0:0:0:0:
223,70,57927,6,0,P|161:49|146:30,1,85,0|8,3:0|0:0,0:0:0:0:
300,236,58268,6,0,P|225:261|207:284,1,101.999996887207,0|8,3:0|0:0,0:0:0:0:
390,61,58609,6,0,P|309:33|289:8,1,118.999996368408,0|8,3:0|0:0,0:0:0:0:
502,118,58950,5,8,0:0:0:0:
449,143,59035,1,8,0:0:0:0:
430,183,59120,1,8,0:0:0:0:
441,217,59206,1,8,0:0:0:0:
449,257,59291,5,8,0:0:0:0:
424,319,59376,1,8,0:0:0:0:
368,355,59461,1,8,0:0:0:0:
298,337,59546,1,8,0:0:0:0:
264,270,59632,6,0,B|247:191|247:191|256:274,1,159.375,8|0,0:3|0:0,0:0:0:0:
192,314,60314,6,0,P|149:305|138:257,1,63.7500024318696,6|0,3:2|0:0,0:0:0:0:
198,319,60484,2,0,P|173:282|92:208,1,127.500004863739,2|10,0:0|0:0,0:0:0:0:
2,367,60825,6,0,P|10:317|81:305,1,110.499994941712,2|8,0:0|0:0,0:0:0:0:
61,297,61166,1,0,0:0:0:0:
114,76,61336,6,0,P|122:126|193:138,1,110.499994941712,8|2,0:0|0:0,0:0:0:0:
301,24,61677,1,10,0:0:0:0:
292,19,61848,6,0,P|242:36|232:88,1,110.499994941712,0|8,0:0|0:0,0:0:0:0:
317,147,62189,1,2,0:0:0:0:
436,130,62359,6,0,P|418:80|366:70,1,110.499994941712,10|0,0:0|0:0,0:0:0:0:
226,206,62700,6,0,B|291:209|311:245|287:243|304:294|411:289,1,165.749992412568,8|0,0:0|0:0,0:0:0:0:
374,364,63041,6,0,P|417:355|428:307,1,63.7500024318696,6|0,3:2|0:0,0:0:0:0:
368,369,63211,2,0,P|393:332|474:258,1,127.500004863739,2|10,0:0|0:0,0:0:0:0:
317,147,63552,6,0,P|239:159|233:320,1,220.999989883423,2|0,0:0|0:0,0:0:0:0:
0,374,64064,2,0,P|49:355|54:291,1,110.499994941712,8|2,0:0|0:0,0:0:0:0:
180,369,64404,6,0,P|155:261|119:156,1,220.999989883423,10|8,0:0|0:0,0:0:0:0:
119,156,64916,1,2,0:0:0:0:
5,79,65086,6,0,P|22:29|74:19,1,110.499994941712,10|0,0:0|0:0,0:0:0:0:
208,143,65427,6,0,B|155:143|123:182|147:180|130:231|23:226,1,165.749992412568,8|8,0:0|0:0,0:0:0:0:
0,271,65768,6,0,P|29:301|75:293,1,63.7500024318696,6|0,3:2|0:0,0:0:0:0:
8,263,65938,2,0,P|52:266|144:315,1,127.500004863739,0|8,0:0|0:0,0:0:0:0:
21,162,66279,1,0,0:0:0:0:
160,370,66450,6,0,B|188:391|188:391|247:335|356:332,1,191.250007295609,10|0,0:0|0:0,0:0:0:0:
418,222,66791,2,0,B|411:168|286:154|276:253|372:262,1,191.250007295609,8|0,0:0|0:0,0:0:0:0:
410,307,67132,6,0,B|422:255|383:212|355:241|316:192|336:132,1,191.250007295609,10|0,0:0|0:0,0:0:0:0:
402,107,67473,2,0,B|421:88|446:78|446:78|401:60|368:34|368:34|388:83|382:114,1,191.250007295609,8|0,0:0|0:0,0:0:0:0:
332,146,67814,6,0,P|244:108|150:94,1,191.250007295609,10|0,0:0|0:0,0:0:0:0:
0,37,68154,2,0,B|29:56|45:97|45:97|59:30|109:-7,1,191.250007295609,8|0,0:0|0:0,0:0:0:0:
106,9,68495,6,0,P|87:33|56:41,1,63.7500024318696,10|0,0:0|0:0,0:0:0:0:
3,169,68666,1,0,0:0:0:0:
201,210,68836,6,0,P|171:202|150:178,1,63.7500024318696,10|0,0:0|0:0,0:0:0:0:
12,184,69007,1,0,0:0:0:0:
58,381,69177,6,0,P|51:351|65:322,1,63.7500024318696,10|0,0:0|0:0,0:0:0:0:
2,198,69348,1,0,0:0:0:0:
229,331,69518,6,0,P|253:312|285:313,1,63.7500024318696,10|0,0:0|0:0,0:0:0:0:
352,262,69689,2,0,P|378:276|392:305,1,63.7500024318696,2|0,0:0|0:0,0:0:0:0:
347,371,69859,5,8,0:0:0:0:
347,371,70029,2,0,P|332:299|272:191,2,170,8|8|8,3:0|3:0|3:0,0:0:0:0:
501,215,70541,5,8,0:0:0:0:
501,215,70626,1,8,0:0:0:0:
462,229,70711,1,8,0:0:0:0:
425,209,70796,1,8,0:0:0:0:
414,170,70881,1,8,0:0:0:0:
423,126,70967,1,8,0:0:0:0:
395,91,71052,1,8,0:0:0:0:
352,91,71137,1,8,0:0:0:0:
345,104,71223,6,0,P|286:103|245:56,1,110.499994941712,6|2,3:2|0:3,0:0:0:0:
94,0,71564,6,0,B|106:91|156:36|164:162,1,165.749992412568,8|0,0:0|0:0,0:0:0:0:
108,209,71904,6,0,P|57:224|8:257,1,110.499994941712,8|2,0:0|0:3,0:0:0:0:
162,145,72245,1,8,0:0:0:0:
262,235,72416,1,2,0:3:0:0:
112,213,72586,2,0,B|46:187|83:175|20:149,1,110.499994941712,8|2,0:0|0:3,0:0:0:0:
191,19,72927,5,8,0:0:0:0:
242,84,73098,1,2,0:3:0:0:
404,209,73268,6,0,P|455:224|504:257,1,110.499994941712,8|2,0:0|0:3,0:0:0:0:
386,107,73609,2,0,P|340:138|288:154,1,110.499994941712,8|2,0:0|0:3,0:0:0:0:
409,213,73950,2,0,B|343:238|380:250|317:276,1,110.499994941712,10|2,0:0|0:0,0:0:0:0:
122,218,74291,1,8,0:0:0:0:
320,275,74461,1,2,0:0:0:0:
209,384,74632,2,0,P|198:324|179:257,1,110.499994941712,8|2,0:0|0:3,0:0:0:0:
224,70,74972,5,8,0:0:0:0:
69,60,75143,1,2,0:3:0:0:
207,187,75314,2,0,P|218:127|237:60,1,110.499994941712,8|2,0:0|0:3,0:0:0:0:
85,242,75654,1,8,0:0:0:0:
289,158,75825,1,2,0:3:0:0:
122,132,75995,2,0,B|36:139|96:157|-5:162,1,110.499994941712,8|2,0:0|0:3,0:0:0:0:
222,3,76336,5,8,0:0:0:0:
276,1,76421,1,8,0:0:0:0:
319,34,76506,1,8,0:0:0:0:
331,86,76591,1,8,0:0:0:0:
336,92,76677,6,0,B|444:98|380:138|491:150,1,165.749992412568,6|0,3:2|0:0,0:0:0:0:
457,76,77018,6,0,P|425:95|415:133,1,76.4999976654053,8|0,0:0|0:0,0:0:0:0:
414,219,77359,6,0,B|306:225|370:265|259:277,1,165.749992412568,14|0,0:0|0:0,0:0:0:0:
293,203,77700,6,0,P|324:222|335:260,1,76.4999976654053,8|0,0:0|0:0,0:0:0:0:
172,364,78041,6,0,B|166:256|126:320|114:209,1,165.749992412568,14|0,0:0|0:0,0:0:0:0:
188,243,78382,6,0,P|168:274|131:285,1,76.4999976654053,8|0,0:0|0:0,0:0:0:0:
33,174,78723,6,0,B|39:66|79:130|91:19,1,165.749992412568,14|0,0:0|0:0,0:0:0:0:
17,53,79064,6,0,P|36:84|74:95,1,76.4999976654053,8|0,0:0|0:0,0:0:0:0:
167,62,79404,6,0,P|220:67|249:127,1,110.499994941712,6|2,3:2|0:3,0:0:0:0:
287,0,79745,5,8,0:0:0:0:
149,160,79916,2,0,B|183:151|183:151|210:66|288:-2,1,220.999989883423,2|2,0:0|0:3,0:0:0:0:
33,174,80427,5,8,0:0:0:0:
249,112,80598,2,0,B|301:116|331:160|331:160|366:153|376:107,1,165.749992412568,2|0,0:0|0:0,0:0:0:0:
366,107,80939,6,0,P|341:114|321:146,1,55.2499974708558,8|0,0:0|0:0,0:0:0:0:
265,254,81109,2,0,P|252:230|254:202,1,55.2499974708558,8|0,0:0|0:0,0:0:0:0:
454,141,81279,2,0,P|481:147|500:167,1,55.2499974708558,8|0,0:0|0:0,0:0:0:0:
420,369,81450,5,8,0:0:0:0:
420,369,81535,1,8,0:0:0:0:
420,369,81620,6,0,P|399:313|397:241,1,114.749996498108,2|0,3:1|0:0,0:0:0:0:
386,274,81791,6,0,P|389:318|405:359,1,89.2499972763062,2|0,3:1|0:0,0:0:0:0:
390,351,81961,6,0,P|379:320|377:289,1,63.75,2|0,3:1|0:0,0:0:0:0:
300,353,82132,5,4,3:3:0:0:
300,353,82302,1,2,0:0:0:0:
475,292,82473,6,0,P|380:304|299:353,1,191.250007295609,14|0,0:0|0:0,0:0:0:0:
143,297,82814,2,0,B|137:215|221:129|308:215|263:281|204:276,1,255.000009727478,2|0,3:2|0:0,0:0:0:0:
224,274,83154,2,0,B|207:258|207:258|228:166,1,110.499994941712,12|2,0:0|0:0,0:0:0:0:
262,22,83495,5,2,3:2:0:0:
262,22,83666,1,2,0:0:0:0:
106,104,83836,6,0,B|160:114|199:74|165:49|205:7|282:24,1,191.250007295609,14|0,0:0|0:0,0:0:0:0:
305,96,84177,6,0,P|189:65|34:26,1,255,2|0,3:2|0:0,0:0:0:0:
50,21,84518,2,0,P|6:42|10:122,1,110.499994941712,12|0,0:0|0:0,0:0:0:0:
144,272,84859,5,2,3:2:0:0:
106,104,85029,1,2,0:0:0:0:
147,283,85200,1,14,0:0:0:0:
25,186,85370,6,0,P|54:191|82:212,1,55.2499974708558,2|0,0:0|0:0,0:0:0:0:
123,361,85541,6,0,P|192:359|221:308,1,127.500004863739,2|0,3:2|0:0,0:0:0:0:
287,262,85882,2,0,B|318:272|357:277|357:277|377:319|377:319|414:324|466:343,1,191.250007295609,14|0,0:0|0:0,0:0:0:0:
334,384,86223,6,0,B|317:354|317:354|380:201|380:201|359:158,1,226.099990684967,2|14,3:2|0:0,0:0:0:0:
240,43,86734,6,0,B|226:61|226:61|246:128|246:128|274:133,1,113.049995342484,2|0,3:2|0:0,0:0:0:0:
339,63,87075,1,0,3:0:0:0:
232,226,87245,5,8,0:0:0:0:
183,215,87330,1,8,0:0:0:0:
133,204,87415,1,10,0:0:0:0:
83,193,87500,1,8,0:0:0:0:
35,212,87586,6,0,B|21:242|21:242|48:208|96:187,1,113.049995342484,0|0,3:0|0:0,0:0:0:0:
192,27,87927,6,0,P|206:36|197:99,1,85,14|0,0:0|0:0,0:0:0:0:
130,123,88098,2,0,P|240:65|353:67,1,226.099990684967,0|0,3:0|3:0,0:0:0:0:
477,155,88609,1,12,0:0:0:0:
406,11,88779,6,0,B|414:61|380:95|358:66|322:100|336:167,1,169.574993013726,0|0,3:0|0:0,0:0:0:0:
270,198,89120,2,0,P|249:162|256:142,1,56.5249976712419,0|0,3:0|0:0,0:0:0:0:
415,241,89291,6,0,P|350:247|322:301,1,113.049995342484,12|2,0:0|0:0,0:0:0:0:
136,287,89632,5,2,3:2:0:0:
360,358,89802,1,2,0:0:0:0:
243,377,89973,6,0,P|220:327|243:277,1,113.049995342484,14|2,0:0|0:0,0:0:0:0:
93,152,90314,2,0,P|111:204|131:273,1,113.049995342484,2|2,3:2|0:0,0:0:0:0:
212,164,90654,5,14,0:0:0:0:
20,233,90825,1,2,0:0:0:0:
168,57,90995,6,0,P|228:75|295:110,1,127.5,2|0,3:2|0:0,0:0:0:0:
300,93,91336,2,0,P|236:112|212:175,1,127.500004863739,14|0,0:0|0:0,0:0:0:0:
196,305,91677,1,2,3:2:0:0:
196,305,91847,6,0,P|191:271|177:227,1,63.7500024318696,10|0,0:0|0:0,0:0:0:0:
278,290,92018,2,0,P|269:259|265:227,1,63.7500024318696,14|0,0:0|0:0,0:0:0:0:
211,163,92189,5,2,0:0:0:0:
251,371,92359,1,2,3:2:0:0:
347,243,92529,5,8,0:0:0:0:
382,262,92614,1,8,0:0:0:0:
420,249,92699,1,10,0:0:0:0:
436,215,92784,1,8,0:0:0:0:
436,172,92870,1,8,0:0:0:0:
467,144,92955,1,8,0:0:0:0:
507,151,93040,5,4,3:3:0:0:
347,243,93211,1,0,0:0:0:0:
418,341,93382,6,0,P|406:246|361:162,1,191.250007295609,14|0,0:0|0:0,0:0:0:0:
254,118,93723,6,0,B|182:104|131:157|176:190|123:245|22:223,1,255,2|0,3:2|0:0,0:0:0:0:
46,228,94063,2,0,P|48:191|136:207,1,110.499994941712,12|0,0:0|0:0,0:0:0:0:
274,348,94404,5,2,3:2:0:0:
227,195,94575,1,2,0:0:0:0:
274,348,94745,6,0,B|220:358|181:318|215:293|175:251|98:268,1,191.250007295609,14|0,0:0|0:0,0:0:0:0:
88,348,95086,6,0,P|67:222|45:96,1,255,2|0,3:2|0:0,0:0:0:0:
45,96,95427,2,0,P|96:88|108:37,1,110.499994941712,14|0,0:0|0:0,0:0:0:0:
327,87,95768,5,2,3:2:0:0:
461,242,95938,1,2,0:0:0:0:
408,26,96109,1,14,0:0:0:0:
319,194,96279,1,2,0:0:0:0:
408,26,96450,6,0,B|474:17|474:17|506:79,1,127.5,2|0,3:2|0:0,0:0:0:0:
409,169,96791,6,0,B|330:155|330:155|322:146|322:146|220:127,1,191.250007295609,14|0,0:0|0:0,0:0:0:0:
186,58,97132,6,12,B|178:35|178:35|110:53|110:53|132:112|132:112|167:128,1,169.574993013726,2|0,3:2|0:0,0:0:0:0:
143,117,97473,2,0,L|123:191,1,56.5249976712419,14|0,0:0|0:0,0:0:0:0:
0,255,97643,6,0,B|22:230|22:230|123:260|123:260|129:291,1,169.574993013726,2|0,3:2|0:0,0:0:0:0:
67,343,97984,2,0,B|59:351|59:351|25:340|25:340|23:330,1,56.5249976712419,2|0,3:2|0:0,0:0:0:0:
204,257,98154,5,8,0:0:0:0:
253,246,98239,1,8,0:0:0:0:
303,235,98324,1,10,0:0:0:0:
353,224,98409,1,8,0:0:0:0:
401,243,98495,6,0,B|429:250|429:250|496:222|496:222|487:167|532:145,1,169.574993013726,0|0,3:0|0:0,0:0:0:0:
512,158,98836,6,0,P|527:120|502:88,1,85,14|0,0:0|0:0,0:0:0:0:
403,104,99007,2,0,P|433:223|461:338,1,226.099990684967,0|0,3:0|3:0,0:0:0:0:
512,158,99518,1,14,0:0:0:0:
396,278,99688,6,0,B|346:270|312:304|341:326|307:362|240:348,1,169.574993013726,0|0,3:0|0:0,0:0:0:0:
256,350,100029,2,0,P|215:320|244:240,1,113.049995342484,0|14,3:0|0:0,0:0:0:0:
3,232,100370,6,0,B|53:241|89:204|57:180|94:141|166:157,1,169.574993013726,0|0,3:0|0:0,0:0:0:0:
223,168,100711,5,10,0:0:0:0:
232,142,100796,1,8,0:0:0:0:
212,117,100882,2,0,P|196:57|192:-4,1,113.049995342484,14|0,0:0|0:0,0:0:0:0:
303,188,101223,5,14,0:0:0:0:
433,80,101393,1,2,3:2:0:0:
334,64,101564,1,14,0:0:0:0:
461,165,101734,1,2,3:2:0:0:
408,248,101904,5,14,0:0:0:0:
223,168,102075,1,2,3:2:0:0:
132,224,102245,1,14,0:0:0:0:
14,104,102416,1,2,3:2:0:0:
107,32,102586,5,14,0:0:0:0:
306,141,102757,1,2,3:2:0:0:
400,83,102927,1,14,0:0:0:0:
496,259,103098,1,2,3:2:0:0:
313,354,103268,5,8,0:0:0:0:
319,342,103353,1,8,0:0:0:0:
330,330,103438,1,8,0:0:0:0:
355,319,103524,1,8,0:0:0:0:
397,339,103609,5,8,0:0:0:0:
440,311,103694,1,8,0:0:0:0:
463,257,103779,1,8,0:0:0:0:
426,212,103864,1,8,0:0:0:0:
426,220,103950,5,4,3:0:0:0:
