osu file format v14

[General]
AudioFilename: audio.mp3
AudioLeadIn: 0
PreviewTime: 81620
Countdown: 0
SampleSet: Soft
StackLeniency: 0.2
Mode: 0
LetterboxInBreaks: 0
WidescreenStoryboard: 1

[Editor]
Bookmarks: 11238,22147,33056,43965,54874,60329
DistanceSpacing: 1.26
BeatDivisor: 4
GridSize: 4
TimelineZoom: 1.6

[Metadata]
Title:confusion (Cut Ver.)
TitleUnicode:confusion (Cut Ver.)
Artist:nowisee
ArtistUnicode:nowisee
Creator:bite you death
Version:HOS' Easy
Source:
Tags:byd wafer onegai hootowlstar soraka honne blastthekidd onegai
BeatmapID:1538253
BeatmapSetID:722004

[Difficulty]
HPDrainRate:2
CircleSize:2.5
OverallDifficulty:2
ApproachRate:3
SliderMultiplier:1
SliderTickRate:1

[Events]
//Background and Video events
0,0,"BG.jpg",0,0
//Break Periods
//Storyboard Layer 0 (Background)
//Storyboard Layer 1 (Fail)
//Storyboard Layer 2 (Pass)
//Storyboard Layer 3 (Foreground)
//Storyboard Layer 4 (Overlay)
//Storyboard Sound Samples

[TimingPoints]
314,340.909090909091,4,2,2,70,1,0
11223,-100,4,2,2,70,0,0
22132,-100,4,2,2,70,0,0
54859,-100,4,2,2,40,0,0
57586,-100,4,2,2,50,0,0
58268,-100,4,2,2,60,0,0
58950,-100,4,2,2,70,0,0
59632,-100,4,2,2,80,0,0
60314,-100,4,2,2,90,0,1
66109,-100,4,2,2,90,0,1
66450,-100,4,2,2,90,0,1
66791,-100,4,2,2,90,0,1
67132,-100,4,2,2,90,0,1
67473,-100,4,2,2,90,0,1
67814,-100,4,2,2,90,0,1
68154,-100,4,2,2,90,0,1
68495,-100,4,2,2,90,0,1
71223,-100,4,2,2,90,0,1
71564,-100,4,2,2,100,0,1
81620,-100,4,2,2,90,0,0
82132,-100,4,2,2,100,0,1
82814,-100,4,2,2,100,0,1
83154,-100,4,2,2,100,0,1
84177,-100,4,2,2,100,0,1
84518,-100,4,2,2,100,0,1
93723,-100,4,2,2,100,0,1
94064,-100,4,2,2,100,0,1
95086,-100,4,2,2,100,0,1
95427,-100,4,2,2,100,0,1
103950,-100,4,2,2,90,0,0

[Colours]
Combo1 : 0,56,113
Combo2 : 255,151,151
Combo3 : 255,209,187
Combo4 : 255,196,225
Combo5 : 220,186,186
Combo6 : 168,0,0
Combo7 : 112,112,112
SliderBorder : 205,230,235
SliderTrackOverride : 0,0,20

[HitObjects]
160,36,10882,5,8,1:2:0:0:
256,88,11223,6,0,P|248:140|220:188,1,100,4|8,3:2|0:0,0:0:0:0:
140,248,11904,2,0,P|76:200|4:220,2,150,2|8|8,1:3|0:0|0:0,0:0:0:0:
112,356,13268,6,0,L|272:344,2,150,2|8|8,1:3|0:0|0:0,0:0:0:0:
8,316,14632,2,0,P|16:264|44:220,1,100,2|0,1:3|3:0,0:0:0:0:
124,152,15314,2,0,P|168:208|296:176,1,200,4|4,3:2|3:2,0:0:0:0:
428,24,16677,6,0,L|448:124,1,100,4|8,3:2|0:0,0:0:0:0:
488,224,17359,2,0,P|456:296|456:368,2,150,2|8|8,1:3|0:0|0:0,0:0:0:0:
380,200,18723,2,0,L|224:216,2,150,2|8|8,1:3|0:0|0:0,0:0:0:0:
448,116,20086,2,0,P|436:64|416:12,1,100,2|0,1:3|0:0,0:0:0:0:
308,8,20768,2,0,B|252:44|252:44|120:16,1,200,4|4,3:2|3:2,0:0:0:0:
16,208,22132,6,0,L|120:196,1,100,0|0,3:0|3:0,0:0:0:0:
224,220,22814,2,0,P|252:304|180:376,2,200,0|0|0,3:0|3:0|0:0,0:0:0:0:
60,72,24859,6,0,P|132:64|176:48,1,100,2|0,3:2|3:0,0:0:0:0:
260,100,25541,2,0,P|308:32|416:68,2,200,0|0|2,3:0|0:0|3:2,0:0:0:0:
157,55,27245,1,0,3:0:0:0:
160,164,27586,6,0,L|8:148,2,150,2|0|0,3:2|0:0|3:0,0:0:0:0:
204,264,28950,2,0,P|164:308|76:304,2,150,2|0|0,3:2|0:0|3:0,0:0:0:0:
268,172,30314,6,0,B|244:124|244:124|268:8,2,150,2|0|0,3:2|0:0|3:0,0:0:0:0:
364,224,31677,2,0,B|420:152|500:188|500:188|508:268|420:292,1,300,8|8,3:2|0:0,0:0:0:0:
344,372,33041,6,0,P|288:344|244:340,1,100,6|8,3:2|0:0,0:0:0:0:
144,312,33723,2,0,P|96:360|0:340,2,150,2|8|8,3:3|0:0|0:0,0:0:0:0:
72,228,35086,2,0,P|56:184|48:112,1,100,2|0,1:3|3:0,0:0:0:0:
136,64,35768,6,0,B|176:92|176:92|232:80,1,100,2|8,3:2|0:0,0:0:0:0:
312,12,36450,2,0,L|464:20,2,150,2|8|8,1:3|0:0|0:0,0:0:0:0:
226,81,37814,2,0,B|252:128|252:128|244:184,1,100,2|0,1:2|3:0,0:0:0:0:
144,220,38495,6,0,P|76:180|12:208,2,150,2|0|0,3:2|0:0|3:0,0:0:0:0:
144,332,39859,2,0,P|83:371|15:347,2,150,2|0|0,3:2|0:0|3:0,0:0:0:0:
144,220,41223,5,2,3:2:0:0:
244,268,41564,2,0,B|308:256|308:256|364:280|364:280|440:264,1,200,8|0,0:0|3:0,0:0:0:0:
512,184,42586,2,0,L|492:80,1,100,2|8,3:2|0:0,0:0:0:0:
396,32,43268,2,0,B|360:60|360:60|300:48,1,100,2|0,1:3|3:0,0:0:0:0:
204,12,43950,6,0,L|44:28,1,150,4|4,3:2|3:2,0:0:0:0:
0,184,44973,2,0,B|60:204|108:164|108:164|124:212|164:228,1,200,4|8,3:2|0:0,0:0:0:0:
264,184,45995,2,0,B|300:156|300:156|356:168,1,100,2|0,1:3|3:0,0:0:0:0:
396,268,46677,6,0,L|384:384,2,100,0|8|2,3:0|0:0|1:3,0:0:0:0:
504,292,47700,2,0,B|476:168|476:168|520:100,1,200,0|8,3:0|0:0,0:0:0:0:
432,36,48723,2,0,L|328:44,1,100,2|0,1:3|3:0,0:0:0:0:
228,12,49404,6,0,B|176:44|176:44|88:20,1,150,4|4,3:2|3:2,0:0:0:0:
0,160,50427,2,0,P|94:152|136:237,1,200,4|8,3:2|0:0,0:0:0:0:
103,344,51450,2,0,P|156:345|215:316,1,100,2|0,1:3|3:0,0:0:0:0:
296,384,52132,6,0,B|295:333|351:305|351:305|412:312|432:356,1,200,6|10,3:2|0:0,0:0:0:0:
512,148,53495,2,0,P|484:108|468:56,1,100,2|8,3:2|0:0,0:0:0:0:
360,36,54177,2,0,B|324:68|324:68|272:60,1,100,8|8,0:0|0:0,0:0:0:0:
168,24,54859,6,0,L|12:36,2,150,2|0|2,0:0|0:0|1:3,0:0:0:0:
272,60,56223,2,0,P|360:88|408:0,1,200,0|2,0:0|1:3,0:0:0:0:
512,204,57586,6,0,L|500:312,1,100,8|8,0:0|0:0,0:0:0:0:
392,280,58268,2,0,L|404:388,1,100,8|8,0:0|0:0,0:0:0:0:
296,360,58950,2,0,B|236:348|236:348|172:376|172:376|96:364,1,200,0|2,3:0|3:2,0:0:0:0:
0,168,60314,6,0,B|7:96|110:82|110:82|141:181|83:215,1,300,6|8,3:2|0:0,0:0:0:0:
156,296,61677,2,0,P|256:367|264:243,1,300,8|8,0:2|0:0,0:0:0:0:
172,180,63041,6,0,B|223:137|219:43|219:43|262:127|327:138,1,300,2|8,3:2|0:0,0:0:0:0:
384,44,64404,2,0,B|428:32|428:32|484:60,1,100,8|8,0:0|0:0,0:0:0:0:
512,160,65086,2,0,L|500:260,1,100,8|8,0:0|0:0,0:0:0:0:
392,280,65768,6,0,P|424:332|428:380,1,100,10|8,3:2|0:0,0:0:0:0:
320,364,66450,2,0,B|216:324|216:404|112:364,2,200,10|10|10,3:2|3:2|3:2,0:0:0:0:
428,377,68154,1,8,0:0:0:0:
504,296,68495,6,0,B|472:240|472:240|504:108,1,200,10|8,0:2|0:0,0:0:0:0:
420,36,69518,2,0,B|352:32|352:32|300:64|300:64|229:60,1,200,10|8,0:0|0:0,0:0:0:0:
132,8,70541,2,0,P|120:52|136:116,1,100,8|8,0:0|0:0,0:0:0:0:
220,168,71223,6,0,B|168:180|168:180|112:152|112:152|80:176|12:180|12:180|56:204|70:232,1,300,6|8,3:0|0:0,0:0:0:0:
40,336,72586,2,0,B|108:320|108:320|164:340|164:340|224:304|224:304|276:308|312:352,1,300,8|8,0:0|0:0,0:0:0:0:
416,376,73950,6,0,B|426:318|400:269|400:269|449:231|451:179|451:179|416:146|397:88,1,300,8|8,0:0|0:0,0:0:0:0:
508,68,75314,2,0,L|300:84,1,200,8|8,0:0|0:0,0:0:0:0:
224,12,76336,1,8,3:2:0:0:
128,68,76677,6,0,P|152:108|156:168,1,100,12|8,3:2|0:0,0:0:0:0:
56,200,77359,2,0,P|0:272|32:368,2,200,8|8|8,0:0|0:0|0:0,0:0:0:0:
157,160,79064,1,8,0:0:0:0:
232,240,79404,6,0,B|308:228|308:228|356:252|356:252|448:236,1,200,8|8,0:0|0:0,0:0:0:0:
504,164,80427,2,0,L|479:13,2,150,8|8|8,0:0|0:0|0:0,0:0:0:0:
424,240,81791,1,4,3:2:0:0:
504,316,82132,5,6,3:0:0:0:
400,348,82473,2,0,B|304:297|304:398|208:348,1,200,4|4,3:2|3:2,0:0:0:0:
108,308,83495,1,2,3:0:0:0:
12,364,83836,2,0,B|-8:276|-8:276|-4:208|36:172,1,200,4|4,3:2|3:2,0:0:0:0:
96,88,84859,5,2,3:0:0:0:
164,176,85200,2,0,P|240:200|308:112,1,200,4|4,3:2|3:2,0:0:0:0:
380,32,86223,2,0,P|456:32|508:80,2,150,2|0|4,3:0|0:0|3:2,0:0:0:0:
308,116,87586,5,6,3:0:0:0:
360,212,87927,2,0,B|424:232|476:192|476:192|484:240|512:272,1,200,4|4,3:2|3:2,0:0:0:0:
472,368,88950,2,0,L|372:360,1,100,2|4,3:0|3:2,0:0:0:0:
264,380,89632,2,0,B|248:332|248:332|264:264,1,100,2|4,3:0|3:2,0:0:0:0:
348,220,90314,5,2,3:0:0:0:
248,180,90654,2,0,B|216:180|180:164|180:164|132:188|132:188|96:168|48:172,1,200,4|4,3:2|3:2,0:0:0:0:
52,280,91677,2,0,L|-4:288,2,50,2|8|12,3:0|0:0|3:2,0:0:0:0:
136,348,92359,2,0,B|180:316|180:316|236:324,1,100,2|8,3:0|0:0,0:0:0:0:
324,372,93041,5,6,3:0:0:0:
424,324,93382,2,0,B|448:312|472:280|472:280|480:216|432:148,1,200,4|4,3:2|3:2,0:0:0:0:
512,72,94404,1,2,3:0:0:0:
404,48,94745,2,0,P|344:76|244:4,1,200,4|4,3:2|3:2,0:0:0:0:
144,48,95768,5,2,3:0:0:0:
184,152,96109,2,0,B|44:140|44:140|0:188,1,200,4|4,3:2|3:2,0:0:0:0:
80,264,97132,2,0,L|240:248,2,150,2|0|8,3:0|0:0|0:0,0:0:0:0:
8,348,98495,5,6,3:0:0:0:
112,376,98836,2,0,B|192:380|192:380|236:352|236:352|320:360,1,200,4|4,3:2|3:2,0:0:0:0:
412,380,99859,1,2,3:0:0:0:
508,324,100200,2,0,L|480:124,1,200,4|8,3:2|0:0,0:0:0:0:
432,28,101223,6,0,B|376:48|376:48|308:20|308:20|200:44|208:140,1,300,12|12,3:2|3:2,0:0:0:0:
312,172,102586,2,0,L|96:156,1,200,12|8,3:2|0:0,0:0:0:0:
8,188,103609,1,8,0:0:0:0:
32,80,103950,5,2,1:2:0:0:
256,192,104120,12,0,106677,1:0:0:0:
