osu file format v14

[General]
AudioFilename: audio.mp3
AudioLeadIn: 0
PreviewTime: 66369
Countdown: 0
SampleSet: Soft
StackLeniency: 0.7
Mode: 0
LetterboxInBreaks: 0
WidescreenStoryboard: 1

[Editor]
Bookmarks: 151677,237586
DistanceSpacing: 2
BeatDivisor: 4
GridSize: 32
TimelineZoom: 2.3

[Metadata]
Title:Koinu
TitleUnicode:孤犬
Artist:nowisee
ArtistUnicode:nowisee
Creator:-MikanMyMommy
Version:waji's Affection
Source:
Tags:Djulus nekroman4ik Cami wajinshu 掌の戦争<通常盤> pop japanese female 〜solitaire puppy〜
BeatmapID:2780547
BeatmapSetID:1049065

[Difficulty]
HPDrainRate:8.1
CircleSize:4.3
OverallDifficulty:8.3
ApproachRate:9.2
SliderMultiplier:1.8
SliderTickRate:1

[Events]
//Background and Video events
0,0,"bg.jpg",0,0
//Break Periods
//Storyboard Layer 0 (Background)
//Storyboard Layer 1 (Fail)
//Storyboard Layer 2 (Pass)
//Storyboard Layer 3 (Foreground)
//Storyboard Layer 4 (Overlay)
//Storyboard Sound Samples

[TimingPoints]
314,340.909090909091,4,2,1,40,1,0
314,-133.333333333333,4,2,1,40,0,0
10541,-125,4,2,1,40,0,0
22132,-117.647058823529,4,2,1,40,0,0
33041,-133.333333333333,4,2,1,45,0,0
43950,-181.818181818182,4,2,1,40,0,0
49404,-100,4,2,1,50,0,0
49660,-100,4,2,1,10,0,0
49745,-100,4,2,1,50,0,0
65768,-133.333333333333,4,2,1,55,0,0
66365,-133.333333333333,4,2,1,10,0,0
66450,-133.333333333333,4,2,1,55,0,0
67132,-100,4,2,1,60,0,0
67387,-100,4,2,1,10,0,0
67473,-100,4,2,1,60,0,0
82132,-90.9090909090909,4,2,1,62,0,0
83495,-100,4,2,1,65,0,0
99859,-133.333333333333,4,2,1,45,0,0
110768,-100,4,2,1,40,0,0
121507,-100,4,2,1,45,0,0
128751,-100,4,2,1,10,0,0
128836,-100,4,2,1,45,0,0
129859,-133.333333333333,4,2,1,50,0,0
132586,-333.333333333333,4,2,1,45,0,0
153382,-133.333333333333,4,2,1,45,0,0
154404,-555.555555555556,4,2,1,45,0,0
154490,-555.555555555556,4,2,1,5,0,0
159859,-100,4,2,1,50,0,0
160115,-100,4,2,1,10,0,0
160200,-100,4,2,1,50,0,0
176223,-153.846153846153,4,2,1,45,0,0
176734,-222.222222222221,4,2,1,45,0,0
177501,-100,4,2,1,10,0,0
177586,-222.222222222221,4,2,1,45,0,0
182359,-133.333333333333,4,2,1,45,0,0
193268,-133.333333333333,4,2,1,55,0,0
193950,-100,4,2,1,55,0,0
208950,-133.333333333333,4,2,1,58,0,0
210314,-100,4,2,1,60,0,0
211081,-100,4,2,1,10,0,0
211166,-100,4,2,1,60,0,0
211933,-100,4,2,1,10,0,0
212018,-100,4,2,1,60,0,0
215683,-100,4,2,1,5,0,0
215768,-100,4,2,1,60,0,0
217387,-100,4,2,1,10,0,0
217473,-100,4,2,1,60,0,0
221990,-100,4,2,1,10,0,0
222075,-100,4,2,1,60,0,0
222671,-100,4,2,1,10,0,0
222757,-100,4,2,1,60,0,0
225314,-100,4,2,1,62,0,0
226677,-100,4,2,1,65,0,0
235115,-100,4,2,1,10,0,0
235200,-100,4,2,1,65,0,0
248495,-133.333333333333,4,2,1,45,0,0
262132,-133.333333333333,4,2,1,5,0,0

[Colours]
Combo1 : 255,206,94
Combo2 : 87,175,247
Combo3 : 255,150,34
Combo4 : 167,129,239
SliderBorder : 255,255,255
SliderTrackOverride : 0,0,0

[HitObjects]
63,356,314,6,0,P|119:321|186:337,1,135.000005149842,2|0,0:0|0:0,0:0:0:0:
154,225,825,1,0,0:0:0:0:
154,225,995,2,0,L|21:249,1,135.000005149842,2|0,0:0|0:0,0:0:0:0:
9,118,1507,6,0,P|77:133|162:148,1,135.000005149842,2|0,0:0|0:0,0:0:0:0:
141,144,2018,1,0,0:0:0:0:
256,13,2189,2,0,B|298:46|294:97|294:97|239:132,1,135.000005149842,2|0,0:0|0:0,0:0:0:0:
325,189,2700,5,0,3:0:0:0:
325,189,2785,1,0,3:0:0:0:
325,189,2870,1,0,3:0:0:0:
325,189,2956,1,0,3:0:0:0:
325,189,3041,2,0,P|391:182|460:187,1,135.000005149842,2|0,0:0|0:0,0:0:0:0:
320,274,3552,1,0,0:0:0:0:
320,274,3723,2,0,P|226:292|166:273,1,135.000005149842,2|0,0:0|0:0,0:0:0:0:
106,352,4234,6,0,P|109:274|99:214,1,135.000005149842,2|0,0:0|0:0,0:0:0:0:
99,218,4745,1,0,0:0:0:0:
182,60,4916,2,0,P|176:140|183:213,1,135.000005149842,2|0,0:0|0:0,0:0:0:0:
42,140,5427,5,0,3:0:0:0:
42,140,5512,1,0,3:0:0:0:
42,140,5598,1,0,3:0:0:0:
42,140,5683,1,0,3:0:0:0:
42,140,5768,2,0,B|74:105|74:105|44:16,1,135.000005149842,2|0,0:0|0:0,0:0:0:0:
4,214,6279,5,0,0:0:0:0:
4,214,6450,2,0,P|59:181|147:196,1,135.000005149842,2|0,0:0|0:0,0:0:0:0:
151,292,6961,2,0,P|83:325|7:314,1,135.000005149842,2|0,0:0|0:0,0:0:0:0:
203,230,7473,1,0,0:0:0:0:
203,230,7643,2,0,L|359:261,1,135.000005149842,2|0,0:0|0:0,0:0:0:0:
430,348,8154,5,0,3:0:0:0:
430,348,8240,1,0,3:0:0:0:
430,348,8325,1,0,3:0:0:0:
430,348,8410,1,0,3:0:0:0:
430,348,8495,2,0,P|459:301|426:218,1,135.000005149842,2|0,0:0|0:0,0:0:0:0:
331,144,9007,1,0,0:0:0:0:
331,144,9177,2,0,P|341:215|351:280,1,135.000005149842,2|0,0:0|0:0,0:0:0:0:
420,131,9689,2,0,P|425:78|435:42,1,67.5000025749208,2|0,0:0|0:0,0:0:0:0:
233,255,10200,5,0,0:0:0:0:
275,340,10370,1,2,0:0:0:0:
167,368,10541,5,8,0:1:0:0:
167,368,10882,1,0,3:0:0:0:
135,361,10967,1,0,3:0:0:0:
110,339,11052,1,0,3:0:0:0:
99,308,11137,1,0,3:0:0:0:
105,275,11223,1,2,1:2:0:0:
105,275,11904,6,0,P|116:190|124:99,1,144,2|0,1:2|0:0,0:0:0:0:
217,227,12416,2,0,P|258:237|305:231,1,72,8|2,0:1|1:2,0:0:0:0:
408,170,12757,1,0,0:0:0:0:
265,139,12927,1,0,0:0:0:0:
412,33,13098,1,0,0:0:0:0:
214,39,13268,1,2,1:2:0:0:
214,39,13609,5,0,3:0:0:0:
181,43,13694,1,0,3:0:0:0:
155,62,13779,1,0,3:0:0:0:
146,95,13864,1,0,3:0:0:0:
149,127,13950,1,2,1:2:0:0:
149,127,14632,6,0,P|100:114|8:85,1,144,2|0,1:2|0:0,0:0:0:0:
129,279,15143,2,0,P|174:264|219:252,1,72,8|2,0:1|1:2,0:0:0:0:
399,247,15484,1,8,0:1:0:0:
273,330,15654,1,0,0:0:0:0:
382,360,15825,1,0,0:0:0:0:
318,177,15995,1,2,1:2:0:0:
318,177,16336,5,0,3:0:0:0:
321,144,16421,1,0,3:0:0:0:
325,111,16506,1,0,3:0:0:0:
331,79,16591,1,0,3:0:0:0:
337,47,16676,1,2,1:2:0:0:
337,47,17359,6,0,B|249:56|285:106|206:114,1,144,2|0,1:2|0:0,0:0:0:0:
102,222,17870,2,0,P|98:186|92:151,2,72,8|2|0,0:1|1:2|0:0,0:0:0:0:
134,320,18382,1,0,0:0:0:0:
202,206,18552,1,0,0:0:0:0:
386,319,18723,1,2,1:2:0:0:
386,319,19064,5,0,3:0:0:0:
406,294,19149,1,0,3:0:0:0:
434,278,19234,1,0,3:0:0:0:
466,275,19319,1,0,3:0:0:0:
497,283,19404,1,2,1:1:0:0:
497,283,19745,5,2,0:0:0:0:
420,140,19915,1,2,0:0:0:0:
492,84,20086,1,2,1:2:0:0:
416,232,20256,1,2,0:0:0:0:
320,172,20427,1,2,0:0:0:0:
360,344,20597,1,8,0:1:0:0:
276,260,20768,5,2,1:2:0:0:
360,88,20938,1,8,0:1:0:0:
284,160,21108,1,2,0:0:0:0:
420,240,21279,1,2,0:0:0:0:
276,344,21449,1,2,1:2:0:0:
360,384,21620,1,2,0:0:0:0:
191,307,21791,5,2,3:2:0:0:
164,300,21876,1,0,3:0:0:0:
138,288,21961,1,0,3:0:0:0:
111,277,22046,1,0,3:0:0:0:
86,268,22132,1,2,1:2:0:0:
86,268,22473,6,0,B|66:233|66:233|77:192,1,76.5000014591217,2|0,0:0|0:0,0:0:0:0:
240,301,22814,2,0,P|203:308|159:319,1,76.5000014591217,2|0,0:0|0:0,0:0:0:0:
89,376,23155,1,2,0:0:0:0:
246,290,23325,6,0,B|334:299|298:349|377:357,1,153.000002918243,2|0,0:0|0:0,0:0:0:0:
507,332,23836,2,0,L|514:280,3,38.2500007295609,2|2|2|2,0:0|0:0|0:0|0:0,0:0:0:0:
473,239,24177,2,0,L|464:183,3,38.2500007295609,2|2|2|2,0:0|0:0|0:0|0:0,0:0:0:0:
435,137,24518,5,0,3:2:0:0:
425,131,24603,1,0,3:2:0:0:
413,127,24689,1,0,3:2:0:0:
401,124,24774,1,0,3:2:0:0:
388,122,24859,6,0,P|397:166|404:206,1,76.5000014591217,2|0,3:2|0:0,0:0:0:0:
385,301,25200,2,0,P|330:282|235:267,1,153.000002918243,2|0,0:0|0:0,0:0:0:0:
193,189,25711,1,0,0:0:0:0:
198,83,25882,2,0,P|162:87|120:109,1,76.5000014591217,2|0,0:0|0:0,0:0:0:0:
0,182,26223,1,2,0:0:0:0:
0,182,26564,6,0,P|36:186|78:208,1,76.5000014591217,2|0,0:0|0:0,0:0:0:0:
237,268,26904,2,0,P|201:272|159:294,1,76.5000014591217,2|0,0:0|0:0,0:0:0:0:
36,332,27245,5,2,3:2:0:0:
36,332,27331,1,2,3:2:0:0:
36,332,27416,1,2,3:2:0:0:
36,332,27501,1,2,3:2:0:0:
36,332,27586,6,0,B|120:317|97:383|180:369,1,153.000002918243,2|0,1:2|0:0,0:0:0:0:
273,315,28098,2,0,P|285:278|295:229,1,76.5000014591217,2|0,0:0|0:0,0:0:0:0:
192,158,28439,1,0,3:0:0:0:
192,158,28524,1,0,3:0:0:0:
192,158,28609,2,0,P|180:121|170:72,1,76.5000014591217,0|0,3:0|0:0,0:0:0:0:
289,34,28950,6,0,L|347:41,3,38.2500007295609,2|0|0|0,0:0|0:0|0:0|0:0,0:0:0:0:
362,97,29291,2,0,L|420:90,3,38.2500007295609,2|0|0|0,0:0|0:0|0:0|0:0,0:0:0:0:
438,155,29632,2,0,L|496:162,3,38.2500007295609,2|0|2|2,0:0|0:0|0:0|0:0,0:0:0:0:
503,227,29973,5,2,3:2:0:0:
493,233,30058,1,2,3:2:0:0:
481,237,30144,1,2,3:2:0:0:
469,240,30229,1,2,3:2:0:0:
459,242,30314,6,0,P|419:248|378:260,1,76.5000014591217,2|0,3:2|0:0,0:0:0:0:
255,309,30654,2,0,P|318:322|402:356,2,153.000002918243,2|0|2,0:0|0:0|1:2,0:0:0:0:
197,137,32700,5,2,3:2:0:0:
207,169,32785,1,2,3:2:0:0:
212,202,32870,1,2,3:2:0:0:
211,236,32955,1,2,3:2:0:0:
201,267,33041,6,0,P|247:263|308:346,1,135.000005149842,2|0,1:2|3:0,0:0:0:0:
376,207,33552,1,0,0:0:0:0:
229,340,33723,2,0,L|70:321,1,135.000005149842,2|0,1:2|3:0,0:0:0:0:
5,201,34234,6,0,P|24:234|43:282,1,67.5000025749208,0|2,0:0|1:2,0:0:0:0:
100,166,34575,1,0,0:0:0:0:
61,72,34745,1,0,3:0:0:0:
61,72,34916,1,0,0:0:0:0:
201,168,35086,2,0,P|190:119|182:80,1,67.5000025749208,2|0,1:2|0:0,0:0:0:0:
268,232,35427,5,0,3:0:0:0:
286,204,35512,1,0,3:0:0:0:
315,186,35597,1,0,3:0:0:0:
348,182,35682,1,0,3:0:0:0:
382,190,35768,6,0,P|393:261|400:314,1,101.250003862381,2|0,1:2|0:0,0:0:0:0:
391,309,36109,1,0,3:0:0:0:
493,207,36279,1,0,0:0:0:0:
392,91,36450,2,0,P|335:96|285:160,1,135.000005149842,2|0,1:2|3:0,0:0:0:0:
263,288,36961,1,0,0:0:0:0:
152,365,37132,5,2,1:0:0:0:
112,236,37302,1,0,0:0:0:0:
60,322,37473,1,2,0:1:0:0:
60,322,37643,1,0,0:0:0:0:
199,210,37814,2,0,P|191:174|181:135,1,67.5000025749208,2|0,1:0|0:0,0:0:0:0:
382,190,38154,5,2,3:1:0:0:
349,199,38239,1,0,3:0:0:0:
328,225,38324,1,0,3:0:0:0:
316,256,38409,1,0,3:0:0:0:
318,291,38495,6,0,P|356:282|393:278,1,67.5000025749208,2|0,1:2|0:0,0:0:0:0:
233,369,38836,2,0,P|195:360|158:356,1,67.5000025749208,0|0,3:0|0:0,0:0:0:0:
30,209,39177,2,0,P|55:250|25:327,1,135.000005149842,2|0,1:2|3:0,0:0:0:0:
176,145,39689,6,0,P|136:164|86:175,1,67.5000025749208,0|2,0:0|1:2,0:0:0:0:
14,234,40030,1,0,0:0:0:0:
32,135,40200,1,0,3:0:0:0:
32,135,40370,1,0,0:0:0:0:
170,260,40541,2,0,P|189:293|204:334,1,67.5000025749208,2|0,1:2|0:0,0:0:0:0:
300,230,40882,5,0,3:0:0:0:
301,196,40967,1,0,3:0:0:0:
303,162,41052,1,0,3:0:0:0:
305,128,41137,1,0,3:0:0:0:
306,95,41223,6,0,B|358:76|396:108|396:108|417:94|413:65|412:65,1,135.000005149842,2|0,1:2|3:0,0:0:0:0:
237,30,41734,1,0,0:0:0:0:
237,30,41819,1,0,0:0:0:0:
237,30,41904,2,0,P|205:90|238:157,1,135.000005149842,2|0,1:2|3:0,0:0:0:0:
289,251,42416,6,0,P|256:256|210:260,1,67.5000025749208,8|0,0:1|1:0,0:0:0:0:
388,358,42757,1,0,0:0:0:0:
388,358,42927,2,0,P|355:353|309:349,1,67.5000025749208,0|0,3:0|0:0,0:0:0:0:
459,185,43268,1,2,1:2:0:0:
459,185,43609,5,0,3:0:0:0:
459,185,43694,1,0,3:0:0:0:
459,185,43779,1,0,3:0:0:0:
459,185,43865,1,0,3:0:0:0:
459,185,43950,6,0,P|464:161|465:137,1,49.25,2|0,0:0|0:0,0:0:0:0:
391,220,44291,2,0,P|410:205|426:186,1,49.25,2|0,0:0|0:0,0:0:0:0:
377,338,44632,6,0,P|400:330|421:318,1,49.25,2|0,0:0|0:0,0:0:0:0:
313,295,44973,2,0,P|335:304|359:308,1,49.25,2|0,0:0|0:0,0:0:0:0:
226,215,45314,6,0,P|250:209|274:209,1,49.25,2|0,0:0|0:0,0:0:0:0:
192,284,45654,2,0,P|206:264|225:248,1,49.5000015106202,2|0,0:0|0:0,0:0:0:0:
72,342,45995,6,0,P|96:347|120:347,1,49.5000015106202,2|0,0:0|0:0,0:0:0:0:
38,273,46336,2,0,P|52:292|71:308,1,49.5000015106202,2|0,0:0|0:0,0:0:0:0:
122,180,46677,5,4,1:3:0:0:
122,180,47018,1,4,1:3:0:0:
274,341,47359,1,4,1:3:0:0:
274,341,47700,1,4,1:3:0:0:
256,128,48041,5,4,1:3:0:0:
168,336,48211,1,4,1:3:0:0:
116,120,48382,5,4,1:3:0:0:
176,312,48552,1,4,1:3:0:0:
318,276,48723,5,4,1:3:0:0:
80,208,48893,1,4,1:3:0:0:
313,177,49064,5,4,1:3:0:0:
350,157,49149,1,4,1:3:0:0:
391,156,49234,1,4,1:3:0:0:
424,190,49320,1,4,1:3:0:0:
424,190,49404,6,0,L|412:324,1,135,4|0,1:0|0:0,0:0:0:0:
420,336,49745,1,10,0:0:0:0:
236,264,49916,1,8,0:0:0:0:
236,264,50001,1,8,0:0:0:0:
236,264,50086,2,0,P|210:213|210:166,1,90,2|0,3:0|1:0,0:0:0:0:
247,12,50427,1,0,3:0:0:0:
300,196,50598,1,8,0:0:0:0:
163,81,50768,5,2,1:2:0:0:
119,233,50939,1,0,1:0:0:0:
300,196,51109,1,8,0:0:0:0:
91,139,51279,1,8,0:0:0:0:
91,139,51365,1,8,0:0:0:0:
91,139,51450,1,2,3:0:0:0:
183,339,51620,1,0,1:0:0:0:
345,194,51791,5,0,1:0:0:0:
322,160,51876,1,0,1:0:0:0:
320,121,51961,1,0,1:0:0:0:
332,83,52046,1,0,1:0:0:0:
332,83,52132,6,0,L|342:-15,1,90,2|0,1:2|0:0,0:0:0:0:
512,139,52473,2,0,P|467:129|423:134,1,90,10|10,0:0|0:0,0:0:0:0:
345,194,52728,1,8,0:0:0:0:
347,203,52814,2,0,L|361:297,1,90,2|2,3:0|1:2,0:0:0:0:
257,364,53154,1,2,3:2:0:0:
41,258,53325,1,10,0:0:0:0:
132,363,53495,6,0,L|151:267,1,90,2|0,1:2|1:2,0:0:0:0:
41,114,53836,2,0,P|101:123|136:115,1,90,8|10,3:2|0:0,0:0:0:0:
233,149,54092,1,8,0:0:0:0:
235,158,54177,2,0,L|249:252,1,90,0|2,3:0|1:2,0:0:0:0:
218,63,54518,5,0,1:2:0:0:
258,66,54603,1,0,1:2:0:0:
295,79,54688,1,0,1:2:0:0:
328,110,54773,1,0,1:2:0:0:
328,110,54859,6,0,P|333:31|337:-15,1,90,6|0,1:2|0:0,0:0:0:0:
489,165,55200,2,0,P|426:153|380:203,1,135,8|8,0:0|0:0,0:0:0:0:
374,219,55541,1,2,3:0:0:0:
462,321,55711,1,0,1:0:0:0:
462,321,55882,2,0,L|449:225,1,90,0|8,3:0|0:0,0:0:0:0:
328,110,56223,5,2,1:2:0:0:
245,225,56393,1,0,1:2:0:0:
160,103,56564,2,0,B|105:90|105:90|79:107|79:107|19:93,1,135,8|8,3:2|0:0,0:0:0:0:
23,87,56904,2,0,L|36:183,1,90,2|0,3:0|1:2,0:0:0:0:
185,348,57245,5,0,1:2:0:0:
161,321,57330,1,0,1:2:0:0:
153,286,57415,1,0,1:2:0:0:
177,253,57500,1,0,1:2:0:0:
177,253,57586,6,0,L|291:263,1,90,2|0,1:2|0:0,0:0:0:0:
420,342,57927,2,0,P|407:246|398:186,1,135,10|8,0:0|0:0,0:0:0:0:
392,188,58268,1,2,3:0:0:0:
315,35,58439,1,0,1:0:0:0:
444,111,58609,1,0,3:0:0:0:
253,189,58779,1,8,0:0:0:0:
315,35,58950,6,0,P|245:44|210:37,1,90,2|0,1:2|1:0,0:0:0:0:
66,5,59291,2,0,L|77:103,1,90,8|8,0:0|0:0,0:0:0:0:
140,181,59546,1,8,0:0:0:0:
142,167,59632,2,0,L|150:77,1,90,2|0,3:0|1:0,0:0:0:0:
372,157,59973,1,0,1:0:0:0:
346,122,60058,1,0,1:0:0:0:
304,106,60143,1,0,1:0:0:0:
261,115,60228,1,0,1:0:0:0:
229,139,60314,5,4,1:0:0:0:
324,29,60484,1,0,0:0:0:0:
338,257,60655,1,8,0:0:0:0:
73,191,60825,5,2,0:0:0:0:
293,323,60996,1,8,0:2:0:0:
87,290,61166,5,0,1:0:0:0:
304,186,61337,1,8,0:2:0:0:
147,93,61507,1,0,1:0:0:0:
412,213,61677,5,10,3:2:0:0:
185,170,61848,1,0,1:0:0:0:
403,73,62018,1,10,3:2:0:0:
312,326,62189,5,0,1:0:0:0:
283,90,62359,1,10,3:2:0:0:
462,196,62529,5,0,1:0:0:0:
241,323,62700,1,10,3:2:0:0:
461,372,62870,1,0,1:0:0:0:
374,152,63041,5,10,1:2:0:0:
138,74,63212,1,8,1:2:0:0:
345,308,63382,1,10,1:2:0:0:
334,31,63553,5,8,1:2:0:0:
191,265,63723,1,10,1:2:0:0:
72,42,63894,5,8,1:2:0:0:
258,311,64064,1,10,1:2:0:0:
426,97,64234,5,8,1:2:0:0:
245,327,64405,1,10,1:2:0:0:
89,141,64575,5,8,1:2:0:0:
379,295,64746,1,10,1:2:0:0:
254,85,64916,5,8,1:2:0:0:
415,213,65086,5,10,1:2:0:0:
458,216,65171,1,8,1:2:0:0:
494,190,65257,1,8,1:2:0:0:
503,146,65342,1,8,1:2:0:0:
481,108,65427,5,8,1:2:0:0:
465,124,65512,1,8,1:2:0:0:
475,143,65598,1,8,1:2:0:0:
458,158,65683,1,8,1:2:0:0:
469,177,65768,6,0,B|352:157|400:108|254:78,1,236.250009012223,2|0,0:0|0:0,0:0:0:0:
178,65,66450,2,0,P|241:121|231:206,1,135,0|0,0:0|0:0,0:0:0:0:
4,383,67132,6,0,P|60:320|145:330,1,135,6|0,1:2|0:0,0:0:0:0:
123,329,67473,2,0,P|64:326|31:286,1,90,2|0,1:3|0:0,0:0:0:0:
235,185,67814,1,2,1:3:0:0:
101,89,67984,2,0,P|91:139|72:200,1,90,2|2,0:0|1:3,0:0:0:0:
296,96,68325,1,2,0:0:0:0:
194,36,68495,6,0,P|209:85|216:148,1,90,2|0,1:3|0:0,0:0:0:0:
440,173,68836,2,0,P|425:222|418:285,1,90,2|0,1:3|0:0,0:0:0:0:
195,267,69177,1,2,1:3:0:0:
66,352,69348,1,0,0:0:0:0:
7,180,69518,1,2,1:3:0:0:
119,239,69689,1,0,0:0:0:0:
16,271,69859,6,0,P|35:193|53:77,1,180,2|2,1:3|1:3,0:0:0:0:
197,194,70370,1,0,0:0:0:0:
268,47,70541,2,0,P|224:69|167:81,1,90,2|2,1:3|0:0,0:0:0:0:
341,255,70882,1,2,1:3:0:0:
229,198,71052,1,2,0:0:0:0:
380,33,71223,6,0,P|367:72|358:140,1,90,2|0,1:3|0:0,0:0:0:0:
488,250,71564,2,0,P|475:211|466:143,1,90,2|0,1:3|0:0,0:0:0:0:
344,275,71904,1,2,1:3:0:0:
450,356,72075,1,0,0:0:0:0:
296,185,72245,2,0,P|231:192|177:196,1,90,2|0,1:3|0:0,0:0:0:0:
344,275,72586,6,0,B|397:309|450:293|450:293|486:341|432:376,1,180,6|2,1:2|1:3,0:0:0:0:
344,139,73098,2,0,B|291:105|238:121|238:121|202:73|256:38,1,180,2|0,0:0|0:0,0:0:0:0:
96,201,73609,2,0,P|51:179|-2:170,1,90,2|2,1:3|0:0,0:0:0:0:
303,272,73950,2,0,P|358:229|456:250,1,135,2|0,1:3|0:0,0:0:0:0:
438,252,74291,5,2,1:3:0:0:
238,120,74461,1,2,0:0:0:0:
438,111,74632,1,2,1:3:0:0:
303,272,74802,1,0,0:0:0:0:
439,343,74973,1,2,1:3:0:0:
305,158,75143,1,0,0:0:0:0:
249,384,75314,6,0,P|230:295|207:206,1,180,2|2,1:3|1:3,0:0:0:0:
57,261,75825,1,2,0:0:0:0:
100,67,75995,1,2,1:3:0:0:
111,55,76081,1,0,0:0:0:0:
133,46,76166,2,0,P|180:68|241:79,1,90,2|2,0:0|1:3,0:0:0:0:
48,193,76507,1,2,0:0:0:0:
235,342,76677,6,0,P|187:347|125:374,1,90,2|0,1:0|0:0,0:0:0:0:
52,332,76933,1,0,0:0:0:0:
52,332,77018,2,0,P|77:327|108:311,1,45,2|0,1:0|0:0,0:0:0:0:
246,220,77189,2,0,P|220:216|192:200,1,45,0|0,0:0|0:0,0:0:0:0:
137,132,77359,6,0,P|131:161|120:188,1,45,2|0,1:0|0:0,0:0:0:0:
254,349,77529,2,0,P|246:325|243:294,1,45,0|0,0:0|0:0,0:0:0:0:
313,156,77700,1,2,1:0:0:0:
435,308,77870,1,0,0:0:0:0:
500,174,78041,6,0,B|397:170|423:225|337:239,1,180,4|2,1:0|1:3,0:0:0:0:
168,320,78552,2,0,P|204:326|254:351,1,90,0|2,0:0|1:3,0:0:0:0:
435,308,78893,1,0,0:0:0:0:
369,142,79064,2,0,P|327:150|283:173,1,90,2|2,1:3|0:0,0:0:0:0:
167,42,79404,6,0,B|116:47|67:8,1,90,2|0,1:3|0:0,0:0:0:0:
12,80,79745,1,2,1:3:0:0:
199,196,79916,2,0,B|247:196|299:162,1,90,0|2,0:0|1:3,0:0:0:0:
353,236,80257,1,0,0:0:0:0:
182,373,80427,2,0,P|172:317|148:273,1,90,2|0,1:3|0:0,0:0:0:0:
79,150,80768,5,8,1:2:0:0:
299,12,80939,1,8,0:2:0:0:
287,214,81109,5,8,1:2:0:0:
106,79,81279,1,8,0:2:0:0:
153,287,81450,5,8,1:2:0:0:
331,133,81620,1,8,0:2:0:0:
498,265,81791,5,8,1:2:0:0:
359,327,81961,1,8,0:2:0:0:
427,130,82132,6,0,P|416:158|410:188,1,49.5899993946533,8|8,1:2|0:0,0:0:0:0:
271,260,82302,2,0,P|280:237|286:213,1,49.5899993946533,8|8,0:0|0:0,0:0:0:0:
498,265,82473,6,0,P|472:271|449:286,1,49.5899993946533,8|8,1:2|0:0,0:0:0:0:
269,84,82643,2,0,P|290:96|326:105,1,49.5899993946533,8|8,0:0|0:0,0:0:0:0:
357,247,82814,2,0,P|301:247|232:307,1,148.50000453186,10|0,0:0|0:0,0:0:0:0:
169,265,83154,5,2,1:2:0:0:
165,243,83240,1,0,1:2:0:0:
165,218,83325,1,0,1:2:0:0:
168,204,83410,1,0,1:2:0:0:
168,204,83495,6,0,P|162:167|150:106,1,90,6|0,1:2|1:0,0:0:0:0:
271,260,83836,1,10,0:0:0:0:
130,323,84007,1,10,0:0:0:0:
312,364,84177,2,0,P|350:296|446:308,1,180,2|10,0:0|0:0,0:0:0:0:
184,207,84689,6,0,P|171:131|145:20,1,180,2|0,3:2|1:0,0:0:0:0:
272,208,85200,2,0,P|260:284|248:328,1,90,10|0,0:0|0:0,0:0:0:0:
60,184,85541,2,0,P|70:135|77:86,1,90,2|0,0:0|1:0,0:0:0:0:
175,300,85882,2,0,P|223:290|306:344,1,135,10|0,0:0|3:0,0:0:0:0:
308,355,86223,5,2,1:2:0:0:
445,292,86393,1,0,1:0:0:0:
301,204,86564,1,10,0:0:0:0:
460,109,86734,2,0,P|469:134|469:162,1,45,10|8,0:0|0:0,0:0:0:0:
412,215,86904,1,2,0:0:0:0:
326,83,87075,2,0,P|342:14|344:-14,1,90,0|8,1:0|0:0,0:0:0:0:
178,158,87416,6,0,P|192:218|198:340,1,180,2|0,3:2|1:0,0:0:0:0:
79,268,87927,2,0,B|25:285|-7:299,1,90,10|0,0:0|0:0,0:0:0:0:
178,158,88268,1,2,0:0:0:0:
266,226,88439,1,0,1:0:0:0:
48,167,88609,5,10,0:0:0:0:
45,138,88694,1,0,1:0:0:0:
45,119,88779,1,0,1:0:0:0:
57,88,88865,1,0,1:0:0:0:
57,88,88950,6,0,B|148:73|110:35|224:11,1,180,6|10,1:0|0:0,0:0:0:0:
460,205,89461,2,0,B|369:190|407:152|293:128,1,180,10|0,0:0|1:0,0:0:0:0:
188,254,89973,2,0,B|165:293|165:293|178:343,1,90,10|2,0:0|3:2,0:0:0:0:
299,129,90314,2,0,B|322:90|322:90|309:40,1,90,2|0,3:2|1:0,0:0:0:0:
268,306,90654,5,10,0:0:0:0:
295,208,90825,1,0,3:2:0:0:
188,254,90995,2,0,P|146:262|101:278,1,90,2|0,3:2|1:0,0:0:0:0:
380,104,91336,2,0,P|422:96|467:80,1,90,10|0,0:0|3:0,0:0:0:0:
295,208,91677,5,2,1:2:0:0:
101,277,91848,1,0,1:0:0:0:
169,86,92018,1,10,0:0:0:0:
14,172,92189,1,10,0:0:0:0:
14,172,92274,1,8,0:0:0:0:
14,172,92359,1,2,0:0:0:0:
87,366,92529,2,0,P|42:354|-32:344,1,90,0|8,1:0|0:0,0:0:0:0:
163,214,92870,6,0,P|205:202|244:73,1,180,2|0,3:2|1:0,0:0:0:0:
170,21,93382,2,0,P|155:74|139:114,1,90,10|0,0:0|0:0,0:0:0:0:
422,316,93723,2,0,P|413:258|406:173,1,135,2|0,0:0|0:0,0:0:0:0:
425,174,94064,2,0,P|433:136|446:81,1,90,10|0,0:0|1:0,0:0:0:0:
223,218,94404,5,6,1:2:0:0:
319,316,94575,1,0,1:0:0:0:
310,159,94745,1,10,0:0:0:0:
136,280,94916,2,0,B|116:243|125:191,1,90,2|2,1:2|0:0,0:0:0:0:
322,75,95257,1,0,1:0:0:0:
258,246,95427,1,8,0:0:0:0:
258,246,95512,1,0,0:0:0:0:
258,246,95598,6,0,B|344:260|318:315|421:311,1,180,2|0,3:2|1:0,0:0:0:0:
171,276,96109,5,10,0:0:0:0:
107,99,96279,1,2,0:0:0:0:
258,246,96450,5,2,0:0:0:0:
279,92,96620,1,0,1:2:0:0:
171,276,96791,5,10,0:0:0:0:
153,301,96876,1,0,1:0:0:0:
158,334,96961,1,0,1:0:0:0:
179,365,97046,1,0,1:0:0:0:
179,365,97132,6,0,P|84:347|-9:334,1,180,6|10,1:2|0:0,0:0:0:0:
26,180,97643,2,0,P|13:131|14:117,1,45,10|8,0:0|0:0,0:0:0:0:
186,87,97814,2,0,P|182:109|173:129,1,45,2|0,0:0|0:0,0:0:0:0:
119,200,97984,1,0,1:0:0:0:
38,366,98154,5,8,0:0:0:0:
42,336,98240,1,0,3:0:0:0:
44,295,98325,1,2,3:2:0:0:
47,266,98410,1,0,3:0:0:0:
47,266,98495,6,0,P|113:266|184:347,1,180,2|10,1:3|0:0,0:0:0:0:
416,136,99007,2,0,P|350:136|279:217,1,180,2|0,0:0|1:0,0:0:0:0:
491,214,99518,5,10,0:0:0:0:
495,169,99603,1,0,1:0:0:0:
496,124,99688,1,0,1:0:0:0:
497,83,99773,1,0,1:0:0:0:
497,83,99859,6,0,P|461:75|414:63,1,68,6|0,1:0|1:0,0:0:0:0:
213,72,100200,2,0,P|249:64|296:52,1,68,10|10,0:0|0:0,0:0:0:0:
305,48,100456,1,8,0:0:0:0:
305,48,100541,1,2,0:0:0:0:
380,246,100711,2,0,L|362:111,1,135.000005149842,0|10,1:0|0:2,0:0:0:0:
292,190,101223,6,0,L|301:269,1,67.5000025749208,2|2,3:2|1:2,0:0:0:0:
192,335,101564,2,0,P|154:328|117:334,1,67.5000025749208,10|0,0:0|3:2,0:0:0:0:
125,331,101819,1,8,0:2:0:0:
125,331,101904,1,2,1:2:0:0:
32,221,102075,1,0,1:0:0:0:
163,135,102245,2,0,P|155:179|150:214,1,67.5000025749208,10|0,0:0|0:0,0:0:0:0:
151,201,102501,1,0,0:0:0:0:
151,201,102586,5,2,1:2:0:0:
69,92,102757,1,0,1:0:0:0:
240,56,102927,2,0,P|307:49|346:42,1,101.250003862381,8|8,0:0|0:0,0:0:0:0:
358,43,103268,2,0,P|349:75|345:108,1,67.5000025749208,2|0,3:2|1:0,0:0:0:0:
421,200,103609,1,0,3:2:0:0:
273,223,103779,6,0,P|219:190|144:205,1,135.000005149842,10|0,0:0|1:0,0:0:0:0:
28,97,104291,2,0,L|50:13,1,68,10|2,0:2|0:0,0:0:0:0:
45,31,104546,1,8,0:0:0:0:
45,31,104632,1,2,1:2:0:0:
174,134,104802,1,0,1:2:0:0:
60,233,104973,2,0,P|67:206|76:181,3,33.7500012874604,8|0|0|0,0:0|0:0|3:0|3:0,0:0:0:0:
81,178,105314,5,0,1:0:0:0:
218,321,105484,1,0,1:0:0:0:
237,214,105654,1,8,0:0:0:0:
103,325,105825,1,8,0:0:0:0:
103,325,105910,1,8,0:0:0:0:
103,325,105995,1,0,3:2:0:0:
298,282,106166,2,0,B|382:288|340:342|436:344,1,135.000005149842,2|10,1:2|0:0,0:0:0:0:
497,245,106677,6,0,P|502:198|511:166,1,67.5000025749208,2|0,0:0|1:0,0:0:0:0:
324,72,107018,2,0,P|348:111|367:171,1,101.250003862381,10|8,0:0|0:0,0:0:0:0:
357,176,107359,2,0,P|396:168|446:159,1,67.5000025749208,0|0,1:0|1:0,0:0:0:0:
298,282,107700,2,0,P|242:271|201:266,1,67.5000025749208,8|0,3:2|0:0,0:0:0:0:
23,287,108041,5,2,1:2:0:0:
133,199,108211,1,0,1:2:0:0:
3,68,108382,1,10,0:2:0:0:
22,193,108552,1,2,0:0:0:0:
22,193,108637,1,8,0:0:0:0:
22,193,108723,1,10,0:0:0:0:
130,94,108893,2,0,P|173:91|214:93,1,67.5000025749208,2|2,1:2|0:0,0:0:0:0:
397,156,109234,1,10,0:0:0:0:
309,57,109404,5,2,0:0:0:0:
439,34,109575,1,2,1:2:0:0:
506,142,109745,1,10,0:0:0:0:
404,264,109916,5,2,1:2:0:0:
430,230,110001,1,8,0:0:0:0:
427,187,110086,1,2,1:2:0:0:
397,156,110171,1,0,1:2:0:0:
354,154,110256,1,2,1:2:0:0:
320,180,110342,1,0,1:2:0:0:
308,222,110427,5,8,0:2:0:0:
286,260,110512,1,8,0:0:0:0:
265,284,110598,1,8,0:0:0:0:
246,263,110683,1,8,0:0:0:0:
223,280,110768,5,4,0:3:0:0:
227,291,111109,1,8,0:0:0:0:
220,265,111791,5,8,0:0:0:0:
210,303,112473,1,8,0:0:0:0:
184,310,113154,1,8,0:0:0:0:
185,197,113495,5,0,1:0:0:0:
185,197,113666,1,0,1:0:0:0:
185,197,113836,1,8,0:0:0:0:
393,191,114519,5,8,0:0:0:0:
383,229,115201,1,8,0:0:0:0:
357,236,115882,1,8,0:0:0:0:
227,136,116223,5,0,1:0:0:0:
227,136,116394,1,0,1:0:0:0:
227,136,116564,1,8,0:0:0:0:
30,45,117245,5,8,0:0:0:0:
56,51,117927,1,8,0:0:0:0:
127,208,118268,5,0,0:0:0:0:
269,172,118439,1,0,1:0:0:0:
269,172,118609,2,0,P|326:167|369:163,1,90,8|0,0:0|0:0,0:0:0:0:
498,298,118950,5,4,1:2:0:0:
495,311,119035,1,0,0:0:0:0:
485,324,119120,2,0,L|497:374,3,45,0|0|0|0,0:0|0:0|1:2|0:0,0:0:0:0:
403,350,119461,5,0,0:0:0:0:
392,333,119546,1,0,0:0:0:0:
381,317,119632,1,0,1:2:0:0:
367,303,119717,1,0,0:0:0:0:
351,293,119802,1,0,0:0:0:0:
332,287,119887,1,0,0:0:0:0:
313,285,119973,1,0,1:2:0:0:
294,286,120058,1,0,0:0:0:0:
276,292,120143,1,0,0:0:0:0:
266,313,120228,6,0,P|239:329|212:335,1,45,0|0,0:0|1:2,0:0:0:0:
144,265,120399,2,0,P|128:238|122:211,1,45,0|0,0:0|0:0,0:0:0:0:
182,49,120569,5,0,0:0:0:0:
225,58,120654,1,0,1:2:0:0:
259,87,120740,1,0,0:0:0:0:
275,128,120825,5,0,0:0:0:0:
269,172,120910,1,0,0:0:0:0:
232,197,120995,1,0,1:2:0:0:
229,242,121081,1,0,0:0:0:0:
251,279,121166,6,0,P|278:285|307:297,1,45,8|0,0:2|0:0,0:0:0:0:
468,148,121336,2,0,P|441:154|412:166,1,45,8|0,0:2|0:0,0:0:0:0:
269,172,121507,2,0,P|296:178|325:190,1,45,8|0,0:2|0:0,0:0:0:0:
464,259,121677,6,0,B|376:237|394:313|295:292,1,180,6|10,1:2|0:0,0:0:0:0:
448,360,122189,1,0,0:0:0:0:
344,196,122359,1,2,1:2:0:0:
168,372,122529,1,0,1:2:0:0:
100,226,122700,2,0,L|114:282,1,45,10|0,0:0|0:0,0:0:0:0:
168,372,122870,6,0,P|81:308|21:333,1,180,2|0,1:2|1:0,0:0:0:0:
192,220,123382,1,8,0:0:0:0:
116,68,123552,5,2,0:0:0:0:
328,172,123723,1,2,0:0:0:0:
120,288,123893,1,0,1:2:0:0:
368,344,124064,5,10,0:0:0:0:
231,175,124234,1,0,0:0:0:0:
472,214,124404,6,0,P|419:220|366:246,1,90,2|0,1:2|0:0,0:0:0:0:
203,83,124745,2,0,P|270:84|325:193,1,180,10|2,0:0|1:2,0:0:0:0:
66,112,125257,1,0,1:2:0:0:
0,316,125427,2,0,P|29:308|64:290,1,45,10|0,0:0|0:0,0:0:0:0:
195,201,125598,6,0,B|103:161|113:230|19:195,1,180,2|0,1:2|1:0,0:0:0:0:
194,60,126109,1,8,0:0:0:0:
382,183,126279,2,0,L|369:242,1,45,2|0,0:0|0:0,0:0:0:0:
350,364,126450,2,0,P|276:310|193:330,1,180,2|10,0:0|0:0,0:0:0:0:
83,362,126961,2,0,P|71:337|63:310,1,45,2|0,0:0|0:0,0:0:0:0:
0,231,127132,6,0,P|7:204|19:179,1,45,6|0,1:2|0:0,0:0:0:0:
75,106,127302,1,0,1:2:0:0:
187,154,127473,1,10,0:0:0:0:
299,98,127643,1,0,0:0:0:0:
85,231,127814,5,2,1:2:0:0:
274,287,127984,1,0,1:2:0:0:
187,154,128154,1,10,0:0:0:0:
395,158,128325,1,2,1:2:0:0:
274,287,128495,6,0,P|207:291|123:326,1,135,0|0,1:0|0:0,0:0:0:0:
118,325,128836,1,8,0:0:0:0:
371,350,129007,2,0,P|394:299|394:246,1,90,2|2,1:2|0:0,0:0:0:0:
234,159,129348,1,0,1:2:0:0:
355,27,129518,2,0,P|341:86|332:131,1,90,10|0,0:0|0:0,0:0:0:0:
164,212,129859,6,0,P|154:164|144:65,1,135.000005149842,6|0,1:0|0:0,0:0:0:0:
310,189,130541,2,0,P|303:256|290:322,1,135.000005149842,6|0,1:0|0:0,0:0:0:0:
431,78,131223,5,6,1:0:0:0:
446,100,131564,1,0,1:0:0:0:
447,85,131904,1,8,1:2:0:0:
328,164,132075,5,8,0:0:0:0:
427,321,132245,1,8,0:0:0:0:
275,368,132416,1,8,0:0:0:0:
275,368,132501,1,8,0:0:0:0:
275,368,132586,6,0,B|216:335|158:359|158:359|129:319|152:262,1,215.999993408203,4|8,1:0|0:0,0:0:0:0:
500,174,135314,6,0,B|407:170|430:219|353:232,1,161.999995056153,2|0,1:3|0:0,0:0:0:0:
232,75,136677,6,0,P|290:66|344:144,1,161.999995056153,10|0,0:0|0:0,0:0:0:0:
251,254,138041,6,0,B|208:189|264:155|264:155|274:183|287:198,1,161.999995056153,6|0,1:2|1:0,0:0:0:0:
382,284,139404,6,0,P|356:278|330:274,2,53.9999983520508,8|0|0,0:0|1:0|3:0,0:0:0:0:
490,353,140257,1,0,1:0:0:0:
490,353,140342,1,0,1:0:0:0:
490,353,140427,2,0,P|495:332|497:322,1,26.9999991760254,0|0,1:0|0:0,0:0:0:0:
457,240,140768,6,0,P|450:218|511:98,1,161.999995056153,0|2,1:0|0:0,0:0:0:0:
323,69,142132,6,0,P|283:79|239:94,1,80.9999975280763,8|0,0:0|0:0,0:0:0:0:
166,126,142814,5,0,3:0:0:0:
133,112,142984,1,0,0:0:0:0:
105,81,143154,1,0,0:0:0:0:
110,30,143325,1,0,0:0:0:0:
178,51,143495,6,0,B|304:45|273:112|378:129,2,215.999993408203,4|8|2,1:0|0:0|1:3,0:0:0:0:
38,156,147586,6,0,P|32:127|25:40,1,107.999996704102,10|0,0:0|3:0,0:0:0:0:
157,152,148609,2,0,L|146:184,1,26.9999991760254,0|0,0:0|0:0,0:0:0:0:
117,268,148950,6,0,P|123:240|276:227,1,215.999993408203,6|10,1:2|0:0,0:0:0:0:
274,224,151677,6,0,P|271:201|254:140,1,80.9999975280763,4|0,1:2|0:0,0:0:0:0:
364,39,152359,2,0,P|343:49|283:70,1,80.9999975280763,4|0,1:2|0:0,0:0:0:0:
132,54,153041,5,4,1:2:0:0:
214,78,153211,1,0,0:0:0:0:
70,145,153382,6,0,P|64:115|54:69,1,67.5000025749208,0|0,1:2|0:0,0:0:0:0:
170,182,153723,1,0,1:2:0:0:
85,258,153893,1,0,0:0:0:0:
210,329,154064,5,0,1:2:0:0:
210,329,154149,1,0,1:2:0:0:
210,329,154234,2,0,P|241:332|258:336,1,33.7500012874604,0|0,1:2|1:2,0:0:0:0:
316,358,154404,6,0,B|352:284|475:296|475:296|422:309|421:335,1,251.100006130371,2|0,1:2|0:0,0:0:0:0:
256,192,157132,12,0,159689,0:0:0:0:
45,345,159859,6,0,P|130:330|194:328,1,135,4|0,1:0|0:0,0:0:0:0:
179,328,160200,1,10,0:0:0:0:
394,245,160370,1,8,0:0:0:0:
394,245,160456,1,8,0:0:0:0:
394,245,160541,2,0,B|382:193|382:193|403:149,1,90,2|0,3:0|1:0,0:0:0:0:
486,211,160882,1,0,3:0:0:0:
334,359,161053,1,8,0:0:0:0:
257,141,161223,5,2,1:2:0:0:
188,315,161394,1,0,1:0:0:0:
281,128,161564,1,8,0:0:0:0:
115,199,161734,1,8,0:0:0:0:
115,199,161820,1,8,0:0:0:0:
115,199,161905,1,2,3:0:0:0:
44,30,162075,1,0,1:0:0:0:
204,144,162245,5,0,1:0:0:0:
229,174,162330,1,0,1:0:0:0:
235,214,162415,1,0,1:0:0:0:
219,250,162500,1,0,1:0:0:0:
219,250,162586,6,0,P|205:299|204:342,1,90,2|0,1:2|0:0,0:0:0:0:
490,343,162928,2,0,P|446:352|401:348,1,90,10|10,0:0|0:0,0:0:0:0:
323,287,163183,1,8,0:0:0:0:
325,278,163269,2,0,L|338:188,1,90,2|2,3:0|1:2,0:0:0:0:
412,45,163609,1,2,3:2:0:0:
233,140,163780,1,10,0:0:0:0:
406,247,163950,6,0,P|425:183|411:138,1,90,2|0,1:2|1:2,0:0:0:0:
235,214,164291,2,0,P|175:205|140:213,1,90,8|10,3:2|0:0,0:0:0:0:
43,179,164547,1,8,0:0:0:0:
41,170,164632,2,0,L|27:76,1,90,0|2,3:0|1:2,0:0:0:0:
78,332,164973,5,0,1:2:0:0:
118,329,165058,1,0,1:2:0:0:
155,316,165143,1,0,1:2:0:0:
188,285,165228,1,0,1:2:0:0:
188,285,165314,6,0,L|180:383,1,90,6|0,1:2|0:0,0:0:0:0:
120,181,165654,2,0,P|41:149|-22:133,1,135,8|8,0:0|0:0,0:0:0:0:
1,117,165995,1,2,3:0:0:0:
256,81,166166,1,0,1:0:0:0:
256,81,166336,2,0,P|332:71|380:73,1,90,0|8,3:0|0:0,0:0:0:0:
504,190,166678,5,2,1:2:0:0:
494,31,166848,1,0,1:2:0:0:
387,184,167018,2,0,P|353:221|370:307,1,135,8|8,3:2|0:0,0:0:0:0:
374,311,167359,2,0,P|425:302|474:292,1,90,2|0,3:0|1:2,0:0:0:0:
245,342,167700,5,0,1:2:0:0:
269,315,167785,1,0,1:2:0:0:
277,280,167870,1,0,1:2:0:0:
253,247,167955,1,0,1:2:0:0:
253,247,168041,6,0,P|202:238|153:228,1,90,2|0,1:2|0:0,0:0:0:0:
45,359,168382,2,0,P|32:263|23:203,1,135,10|8,0:0|0:0,0:0:0:0:
17,205,168723,5,2,3:0:0:0:
157,343,168894,1,0,1:0:0:0:
253,247,169064,1,0,3:0:0:0:
129,122,169234,1,8,0:0:0:0:
269,60,169404,6,0,P|281:110|289:166,1,90,2|0,1:2|1:0,0:0:0:0:
485,161,169745,2,0,P|474:204|466:249,1,90,8|8,0:0|0:0,0:0:0:0:
403,336,170001,1,8,0:0:0:0:
401,322,170087,2,0,L|392:225,1,90,2|0,3:0|1:0,0:0:0:0:
165,254,170428,5,0,1:0:0:0:
200,228,170513,1,0,1:0:0:0:
216,186,170598,1,0,1:0:0:0:
207,143,170683,1,0,1:0:0:0:
183,111,170769,5,4,1:0:0:0:
102,341,170940,5,0,0:0:0:0:
293,249,171110,1,8,0:0:0:0:
28,183,171280,5,2,0:0:0:0:
248,315,171451,1,8,0:2:0:0:
42,282,171621,5,0,1:0:0:0:
259,178,171792,1,8,0:2:0:0:
102,85,171962,1,0,1:0:0:0:
367,205,172132,5,10,3:2:0:0:
140,162,172303,1,0,1:0:0:0:
358,65,172474,1,10,3:2:0:0:
267,318,172644,5,0,1:0:0:0:
238,82,172814,1,10,3:2:0:0:
417,188,172985,5,0,1:0:0:0:
196,315,173155,1,10,3:2:0:0:
416,364,173325,1,0,1:0:0:0:
329,144,173496,5,10,1:2:0:0:
93,66,173667,1,8,1:2:0:0:
300,300,173837,1,10,1:2:0:0:
289,23,174008,5,8,1:2:0:0:
109,305,174178,1,10,1:2:0:0:
27,34,174349,5,8,1:2:0:0:
213,303,174519,1,10,1:2:0:0:
395,34,174689,5,8,1:2:0:0:
216,325,174860,1,10,1:2:0:0:
12,106,175030,5,8,1:2:0:0:
383,281,175201,1,10,1:2:0:0:
210,16,175371,5,8,1:2:0:0:
370,205,175541,5,10,1:2:0:0:
413,208,175626,1,8,1:2:0:0:
449,182,175712,1,8,1:2:0:0:
458,138,175797,1,8,1:2:0:0:
436,100,175882,5,8,1:2:0:0:
420,116,175967,1,8,1:2:0:0:
430,135,176053,1,8,1:2:0:0:
413,150,176138,1,8,1:2:0:0:
390,168,176223,6,0,P|450:177|491:233,1,116.999994644165,2|0,0:0|0:0,0:0:0:0:
383,281,176734,2,0,B|259:269|259:269|298:287|311:314,1,182.249994438172,0|0,0:0|0:0,0:0:0:0:
353,361,177586,5,4,1:0:0:0:
145,100,180314,5,4,1:0:0:0:
178,100,182359,6,0,P|185:152|195:189,1,67.5000025749208,0|0,1:0|0:0,0:0:0:0:
251,217,182700,2,0,P|247:250|240:283,1,67.5000025749208,0|0,1:0|0:0,0:0:0:0:
201,355,183041,5,4,1:0:0:0:
150,280,183723,1,0,1:0:0:0:
165,192,184404,1,0,1:0:0:0:
236,138,185086,1,0,1:0:0:0:
325,147,185768,1,4,1:0:0:0:
383,215,186450,1,0,1:0:0:0:
379,304,187132,1,0,1:0:0:0:
315,366,187814,1,0,1:0:0:0:
257,309,188495,5,4,1:0:0:0:
256,227,189177,1,0,1:0:0:0:
255,145,189859,1,0,1:0:0:0:
255,63,190541,1,0,1:0:0:0:
271,274,191223,5,12,1:2:0:0:
189,64,191394,1,8,0:0:0:0:
380,156,191564,5,8,1:2:0:0:
115,222,191734,1,8,0:0:0:0:
335,90,191904,5,8,1:2:0:0:
129,123,192075,1,8,0:0:0:0:
346,227,192246,5,8,1:2:0:0:
189,320,192416,1,8,0:0:0:0:
454,200,192586,5,8,1:2:0:0:
464,154,192671,1,8,0:0:0:0:
450,110,192756,1,8,0:0:0:0:
415,79,192841,1,8,0:0:0:0:
369,72,192926,1,8,0:2:0:0:
326,89,193012,1,8,0:0:0:0:
295,122,193098,1,8,0:0:0:0:
286,164,193183,1,8,0:0:0:0:
295,206,193268,1,0,1:0:0:0:
111,322,193609,5,4,1:3:0:0:
111,322,193694,1,4,1:3:0:0:
111,322,193779,1,4,1:3:0:0:
111,322,193865,1,4,1:3:0:0:
111,322,193950,6,0,P|88:322|66:316,3,45,4|0|2|0,1:0|0:0|0:0|0:0,0:0:0:0:
97,242,194291,2,0,P|77:229|62:211,3,45,0|0|2|0,1:2|0:0|0:0|0:0,0:0:0:0:
130,176,194632,6,0,P|153:176|175:170,1,45,2|0,1:2|0:0,0:0:0:0:
144,107,194802,2,0,P|163:94|178:76,1,45,2|0,0:0|0:0,0:0:0:0:
239,123,194973,2,0,P|262:122|284:128,1,45,0|0,1:2|0:0,0:0:0:0:
253,192,195143,2,0,P|272:204|287:222,1,45,2|2,0:0|0:0,0:0:0:0:
357,337,195314,5,0,1:0:0:0:
388,303,195399,1,2,0:0:0:0:
404,260,195484,1,2,0:0:0:0:
403,214,195569,1,2,0:0:0:0:
385,171,195654,1,2,1:2:0:0:
367,129,195740,1,2,0:0:0:0:
366,83,195825,1,2,0:0:0:0:
383,40,195910,1,2,0:0:0:0:
420,14,195995,5,2,1:2:0:0:
456,9,196081,1,0,0:0:0:0:
489,23,196166,2,0,P|509:56|506:98,1,45,8|0,0:0|0:0,0:0:0:0:
461,208,196336,2,0,P|471:188|474:165,1,45,10|0,0:0|0:0,0:0:0:0:
395,109,196507,1,0,0:0:0:0:
395,109,196592,1,0,0:0:0:0:
395,109,196677,5,0,1:2:0:0:
370,97,196762,1,0,0:0:0:0:
343,88,196848,1,0,0:0:0:0:
316,86,196933,1,0,0:0:0:0:
288,91,197018,1,0,1:2:0:0:
263,100,197103,1,0,0:0:0:0:
238,115,197189,1,0,0:0:0:0:
219,134,197274,1,0,0:0:0:0:
200,153,197359,5,2,1:2:0:0:
175,168,197444,1,0,0:0:0:0:
150,177,197529,1,2,0:0:0:0:
121,181,197615,1,0,0:0:0:0:
95,180,197700,1,2,1:2:0:0:
68,171,197785,1,2,0:0:0:0:
41,161,197870,1,2,0:0:0:0:
19,143,197956,1,2,0:0:0:0:
7,108,198041,6,0,P|17:77|36:57,1,45,8|0,0:0|0:0,0:0:0:0:
96,32,198211,1,2,0:0:0:0:
141,35,198296,1,2,0:0:0:0:
176,61,198381,1,2,1:2:0:0:
192,103,198467,1,0,0:0:0:0:
182,146,198552,2,0,P|192:200|185:230,1,45,8|0,0:0|0:0,0:0:0:0:
121,237,198723,6,0,P|115:216|105:196,1,45,0|0,1:0|1:0,0:0:0:0:
32,288,198893,2,0,P|39:266|50:246,1,45,8|8,0:0|0:0,0:0:0:0:
90,362,199064,2,0,P|60:365|38:359,1,45,8|0,0:0|0:0,0:0:0:0:
159,328,199234,1,8,0:0:0:0:
197,303,199319,1,8,0:0:0:0:
234,280,199404,6,0,L|279:274,3,45,4|0|0|0,1:0|0:0|0:0|0:0,0:0:0:0:
241,206,199745,2,0,L|276:175,3,45,0|0|2|0,1:2|0:0|0:0|0:0,0:0:0:0:
333,129,200086,2,0,P|372:123|390:120,3,45,0|0|0|0,1:2|0:0|0:0|0:0,0:0:0:0:
422,71,200427,2,0,P|461:77|479:80,3,45,2|0|0|0,1:2|0:0|0:0|0:0,0:0:0:0:
498,139,200768,5,0,1:0:0:0:
495,166,200853,1,2,0:0:0:0:
493,194,200939,1,2,0:0:0:0:
490,221,201024,1,0,0:0:0:0:
488,249,201109,1,2,1:2:0:0:
486,277,201194,1,2,0:0:0:0:
483,304,201279,1,2,0:0:0:0:
481,332,201365,1,2,0:0:0:0:
479,360,201450,5,2,1:2:0:0:
445,374,201535,1,0,0:0:0:0:
408,377,201620,1,8,0:0:0:0:
372,368,201706,1,0,0:0:0:0:
341,348,201791,2,0,P|326:315|332:275,1,45,10|0,0:0|0:0,0:0:0:0:
390,271,201961,1,0,0:0:0:0:
389,234,202046,1,0,0:0:0:0:
400,199,202132,5,2,1:2:0:0:
425,160,202217,1,0,0:0:0:0:
434,115,202302,1,0,0:0:0:0:
424,70,202387,1,0,0:0:0:0:
397,33,202473,1,0,1:2:0:0:
357,9,202558,1,0,0:0:0:0:
312,3,202643,2,0,P|303:50|290:73,1,45,8|0,0:0|0:0,0:0:0:0:
231,93,202814,6,0,P|231:116|235:138,1,45,0|0,1:0|0:0,0:0:0:0:
306,130,202984,2,0,P|322:146|340:159,1,45,2|2,0:0|0:0,0:0:0:0:
177,192,203154,2,0,P|177:215|173:237,1,45,10|0,0:0|0:0,0:0:0:0:
103,228,203325,2,0,P|86:244|68:257,1,45,2|0,0:0|0:0,0:0:0:0:
215,303,203495,5,10,0:2:0:0:
242,345,203581,1,2,0:0:0:0:
290,361,203666,2,0,P|314:354|367:356,1,45,8|0,0:0|0:0,0:0:0:0:
416,319,203836,2,0,P|407:354|407:363,1,45,8|0,0:0|0:0,0:0:0:0:
354,243,204007,1,2,0:0:0:0:
312,214,204092,1,2,0:0:0:0:
256,207,204177,6,0,P|217:212|184:209,1,45,8|0,0:0|0:0,0:0:0:0:
120,137,204348,1,8,0:0:0:0:
121,97,204433,1,8,0:0:0:0:
151,66,204518,2,0,P|182:69|218:68,1,45,10|0,0:0|0:0,0:0:0:0:
321,62,204689,1,8,0:0:0:0:
348,104,204774,1,8,0:0:0:0:
353,154,204859,6,0,L|347:199,1,45,4|0,1:0|0:0,0:0:0:0:
263,338,205029,2,0,L|268:292,1,45,0|0,0:0|0:0,0:0:0:0:
190,154,205200,2,0,P|189:177|184:199,1,45,0|0,1:0|0:0,0:0:0:0:
100,338,205370,2,0,P|100:314|105:292,1,45,0|0,0:0|0:0,0:0:0:0:
269,216,205541,5,0,1:0:0:0:
269,216,205626,1,0,0:0:0:0:
269,216,205711,1,2,0:0:0:0:
309,247,205796,1,2,0:0:0:0:
359,256,205882,1,2,1:2:0:0:
407,243,205967,1,0,0:0:0:0:
447,212,206052,1,2,0:0:0:0:
468,165,206137,1,0,0:0:0:0:
465,114,206223,5,2,1:2:0:0:
438,70,206308,1,0,0:0:0:0:
396,40,206393,1,0,0:0:0:0:
345,29,206478,1,0,0:0:0:0:
295,39,206564,5,0,1:0:0:0:
254,70,206649,1,0,0:0:0:0:
221,108,206734,1,0,0:0:0:0:
175,131,206819,1,0,0:0:0:0:
123,132,206904,5,0,1:0:0:0:
75,112,206990,1,0,0:0:0:0:
36,79,207075,1,2,0:0:0:0:
36,79,207160,1,0,0:0:0:0:
36,79,207245,2,0,L|32:32,1,45,8|0,0:0|0:0,0:0:0:0:
123,132,207416,1,0,0:0:0:0:
122,159,207501,1,0,0:0:0:0:
121,186,207586,6,0,P|122:209|116:231,1,45,8|0,1:2|0:0,0:0:0:0:
67,351,207757,2,0,P|66:329|72:307,1,45,8|0,0:0|0:0,0:0:0:0:
43,198,207927,2,0,P|31:216|13:231,1,45,8|0,1:2|0:0,0:0:0:0:
146,339,208097,2,0,P|158:320|176:305,1,45,8|0,0:0|0:0,0:0:0:0:
304,272,208268,6,0,L|372:292,1,45,8|0,1:2|0:0,0:0:0:0:
461,180,208439,2,0,L|393:200,1,45,8|0,0:0|0:0,0:0:0:0:
287,150,208609,2,0,L|355:170,1,45,8|0,1:2|0:0,0:0:0:0:
444,58,208780,2,0,L|376:78,1,45,8|0,0:0|0:0,0:0:0:0:
289,255,208950,5,8,0:0:0:0:
225,259,209035,1,8,0:0:0:0:
171,220,209121,1,8,0:0:0:0:
157,154,209206,1,8,0:0:0:0:
196,99,209291,5,8,0:0:0:0:
233,154,209376,1,8,0:0:0:0:
196,211,209462,1,8,0:0:0:0:
250,250,209547,1,8,0:0:0:0:
201,296,209632,1,2,0:0:0:0:
319,31,210314,5,4,1:0:0:0:
201,101,210484,1,0,0:0:0:0:
359,180,210654,1,8,0:0:0:0:
165,307,210825,2,0,P|223:297|285:358,1,135,8|0,0:0|0:0,0:0:0:0:
273,357,211166,2,0,P|262:286|256:249,1,90,2|2,1:2|0:3,0:0:0:0:
272,146,211507,1,10,0:0:0:0:
106,31,211677,6,0,B|59:57|59:57|79:157,1,135,2|0,0:0|0:0,0:0:0:0:
91,154,212018,2,0,P|49:143|-10:113,1,90,10|0,0:0|0:0,0:0:0:0:
123,289,212359,2,0,P|88:328|84:386,1,90,2|0,0:0|1:2,0:0:0:0:
238,203,212700,2,0,L|336:181,1,90,10|0,0:0|0:0,0:0:0:0:
439,20,213041,5,2,1:2:0:0:
272,63,213211,1,0,1:2:0:0:
232,230,213382,1,8,0:0:0:0:
456,162,213552,1,8,0:0:0:0:
456,162,213637,1,8,0:0:0:0:
456,162,213723,1,2,0:3:0:0:
431,265,213893,2,0,P|448:211|462:167,1,90,2|0,1:2|3:0,0:0:0:0:
424,362,214234,6,0,B|340:358|378:290|254:305,1,180,10|0,0:0|1:0,0:0:0:0:
431,265,214745,2,0,P|477:283|531:295,1,90,10|0,0:0|0:0,0:0:0:0:
332,107,215086,2,0,P|350:61|362:7,1,90,2|0,0:0|1:2,0:0:0:0:
197,226,215427,2,0,P|130:238|57:268,1,135,10|0,0:0|0:0,0:0:0:0:
26,201,215768,6,0,B|122:198|92:256|190:272,1,180,4|8,1:0|0:0,0:0:0:0:
327,36,216279,2,0,B|234:54|234:54|204:103|248:139,1,180,8|0,0:0|1:2,0:0:0:0:
376,235,216791,2,0,P|420:258|472:269,1,90,2|10,0:0|0:0,0:0:0:0:
185,271,217132,6,0,P|144:276|47:328,1,135,2|0,0:3|0:0,0:0:0:0:
46,342,217473,1,8,0:0:0:0:
141,176,217643,2,0,B|208:161|208:161|228:126|228:126|313:106,1,180,2|0,0:0|1:2,0:0:0:0:
410,291,218154,2,0,B|429:252|429:252|416:197,1,90,10|0,0:0|0:0,0:0:0:0:
219,359,218495,5,2,1:2:0:0:
321,240,218666,1,0,1:2:0:0:
452,373,218836,1,8,0:0:0:0:
243,282,219007,1,8,0:0:0:0:
243,282,219092,1,8,0:0:0:0:
243,282,219177,2,0,P|198:291|121:316,1,90,2|2,0:3|1:2,0:0:0:0:
268,187,219518,1,8,0:0:0:0:
212,49,219689,1,10,0:1:0:0:
203,142,219859,6,0,B|94:157|134:218|27:240,1,180,2|10,0:3|0:1,0:0:0:0:
225,261,220370,1,2,0:1:0:0:
236,272,220456,1,0,0:0:0:0:
243,282,220541,2,0,B|352:297|312:358|419:380,1,180,2|10,0:1|2:0,0:0:0:0:
421,267,221052,2,0,P|431:245|430:198,1,45,0|0,0:0|0:0,0:0:0:0:
273,102,221223,5,4,1:0:0:0:
352,219,221393,1,0,1:0:0:0:
81,206,221564,5,8,0:0:0:0:
166,90,221734,2,0,P|185:158|198:240,1,135,8|0,0:0|0:0,0:0:0:0:
195,221,222075,1,2,1:2:0:0:
125,374,222245,2,0,P|129:333|141:301,1,45,2|0,0:0|0:0,0:0:0:0:
252,355,222416,6,0,P|312:366|389:387,1,135,10|0,0:0|0:0,0:0:0:0:
407,364,222757,1,0,1:2:0:0:
344,155,222927,1,10,0:0:0:0:
252,355,223098,5,0,0:0:0:0:
350,274,223268,1,0,3:0:0:0:
450,196,223439,1,0,1:2:0:0:
344,155,223609,6,0,P|354:134|356:103,1,45,10|0,0:0|0:0,0:0:0:0:
424,54,223779,2,0,P|413:32|408:9,1,45,0|0,0:0|0:0,0:0:0:0:
281,110,223950,5,8,1:2:0:0:
63,207,224121,1,8,0:2:0:0:
190,363,224291,5,8,1:2:0:0:
161,127,224461,1,8,0:2:0:0:
340,233,224632,5,8,1:2:0:0:
119,360,224802,1,8,0:2:0:0:
237,164,224973,5,8,1:2:0:0:
356,354,225143,1,8,0:2:0:0:
427,130,225314,6,0,P|417:94|416:63,1,45,8|8,1:2|0:0,0:0:0:0:
304,205,225484,2,0,P|311:183|314:161,1,45,8|8,0:0|0:0,0:0:0:0:
468,244,225654,6,0,L|418:262,1,45,8|8,1:2|0:0,0:0:0:0:
356,354,225825,2,0,L|300:341,1,45,8|8,0:0|0:0,0:0:0:0:
206,382,225995,2,0,P|207:332|184:242,1,135,10|0,0:0|0:0,0:0:0:0:
128,204,226336,5,2,1:2:0:0:
128,204,226421,1,0,1:2:0:0:
128,204,226506,1,0,1:2:0:0:
128,204,226591,1,0,1:2:0:0:
128,204,226677,5,6,1:2:0:0:
232,152,226848,1,2,1:2:0:0:
56,84,227018,1,10,0:0:0:0:
112,288,227189,1,10,0:0:0:0:
140,168,227359,6,0,P|94:182|41:193,1,90.275001721859,2|2,1:2|1:0,0:0:0:0:
279,338,227700,1,10,0:0:0:0:
279,338,227870,2,0,P|219:326|85:313,1,180,2|0,3:2|1:0,0:0:0:0:
296,183,228382,1,10,0:0:0:0:
171,141,228552,5,0,0:0:0:0:
171,141,228637,1,0,0:0:0:0:
171,141,228723,2,0,L|184:216,2,45.1375008609295,2|0|0,0:0|0:0|1:0,0:0:0:0:
373,284,229064,2,0,L|399:187,1,90.275001721859,10|0,0:0|3:0,0:0:0:0:
396,169,229319,1,0,3:0:0:0:
390,152,229404,5,2,1:0:0:0:
289,255,229575,1,2,1:2:0:0:
444,373,229745,1,10,0:0:0:0:
416,247,229916,1,10,0:0:0:0:
229,374,230086,6,0,P|272:363|331:354,1,90.275001721859,2|2,1:2|1:2,0:0:0:0:
408,165,230427,1,8,0:0:0:0:
246,93,230598,2,0,B|270:131|270:131|255:183,1,90.275001721859,2|2,3:2|1:3,0:0:0:0:
52,257,230939,1,0,1:0:0:0:
52,257,231024,1,0,0:0:0:0:
52,257,231109,2,0,B|28:219|28:219|43:167,1,90.275001721859,10|0,0:0|0:0,0:0:0:0:
329,65,231450,6,0,P|373:73|424:77,1,90.275001721859,2|0,0:3|1:0,0:0:0:0:
205,191,231791,2,0,P|160:194|115:202,1,90.275001721859,10|0,0:0|3:0,0:0:0:0:
358,215,232132,6,0,P|336:276|309:398,1,180,6|8,1:0|0:0,0:0:0:0:
74,312,232643,2,0,P|157:295|271:270,1,180.550003443718,8|0,0:0|1:0,0:0:0:0:
336,149,233154,6,0,P|353:86|359:51,1,90,10|0,0:0|3:2,0:0:0:0:
181,181,233495,2,0,P|168:137|159:93,1,90,2|0,1:2|1:0,0:0:0:0:
376,143,233836,6,0,P|398:60|406:14,1,90,10|0,0:0|3:2,0:0:0:0:
133,194,234177,2,0,P|116:137|104:79,1,90,2|0,3:2|1:0,0:0:0:0:
286,296,234518,5,10,0:0:0:0:
284,267,234603,1,0,3:0:0:0:
288,243,234688,1,0,3:0:0:0:
295,217,234774,1,0,3:0:0:0:
295,217,234859,6,0,P|311:283|329:374,1,135,2|0,1:0|0:0,0:0:0:0:
324,348,235200,1,10,0:0:0:0:
453,235,235370,1,8,0:0:0:0:
453,235,235456,1,8,0:0:0:0:
453,235,235541,1,0,1:0:0:0:
338,133,235711,2,0,P|293:117|238:122,1,90,2|8,1:2|0:0,0:0:0:0:
105,234,236052,6,0,L|83:54,1,180,2|0,3:2|1:0,0:0:0:0:
281,192,236564,1,10,0:0:0:0:
224,305,236734,1,0,0:0:0:0:
224,305,236819,1,0,0:0:0:0:
224,305,236904,2,0,L|172:295,2,45,0|0|0,3:0|0:0|1:0,0:0:0:0:
393,363,237245,2,0,P|443:352|490:349,1,90,10|0,0:0|0:0,0:0:0:0:
257,221,237586,6,0,L|158:200,1,90,6|0,1:2|1:0,0:0:0:0:
282,354,237927,1,8,0:0:0:0:
388,280,238098,2,0,P|391:323|399:373,1,90,2|0,1:0|1:2,0:0:0:0:
257,221,238439,1,0,1:0:0:0:
405,148,238609,2,0,P|447:153|496:164,1,90,10|0,0:0|3:2,0:0:0:0:
284,30,238950,6,0,P|297:71|305:124,1,90,2|0,1:3|1:0,0:0:0:0:
113,272,239291,1,10,0:0:0:0:
113,272,239461,2,0,P|92:194|154:121,1,180,0|0,3:0|1:0,0:0:0:0:
256,193,239973,2,0,P|214:199|159:214,1,90,10|0,0:0|1:0,0:0:0:0:
23,343,240314,6,0,P|36:304|52:255,1,90,6|0,1:2|1:0,0:0:0:0:
237,380,240654,1,8,0:0:0:0:
147,325,240825,2,0,P|218:276|306:301,1,180,8|0,0:0|1:0,0:0:0:0:
397,183,241336,2,0,P|405:142|423:94,1,90,8|2,0:0|3:2,0:0:0:0:
512,256,241677,6,0,P|473:276|418:278,1,90,2|0,1:3|1:0,0:0:0:0:
284,181,242018,1,10,0:0:0:0:
420,102,242189,1,2,0:0:0:0:
311,12,242359,2,0,P|327:51|327:102,1,90,2|2,0:0|1:0,0:0:0:0:
156,213,242700,2,0,P|140:174|140:123,1,90,8|0,0:0|3:0,0:0:0:0:
307,274,243041,6,0,P|296:315|282:383,1,90,6|0,1:2|1:0,0:0:0:0:
228,148,243382,1,8,0:0:0:0:
113,312,243552,1,8,0:0:0:0:
113,312,243637,1,8,0:0:0:0:
113,312,243723,2,0,L|25:326,1,90,2|0,1:2|1:0,0:0:0:0:
33,190,244064,1,8,0:0:0:0:
187,42,244234,1,2,3:2:0:0:
0,92,244404,6,0,P|91:100|139:177,1,180,2|10,1:3|0:0,0:0:0:0:
387,53,244916,1,2,0:0:0:0:
387,53,245001,1,0,0:0:0:0:
387,53,245086,2,0,P|292:57|244:134,1,180,2|8,0:0|0:0,0:0:0:0:
348,151,245598,1,0,3:0:0:0:
502,6,245768,6,0,P|489:49|482:93,1,90,6|0,1:2|1:0,0:0:0:0:
325,273,246109,1,8,0:0:0:0:
460,164,246279,1,8,0:0:0:0:
421,315,246450,1,2,1:2:0:0:
246,120,246621,2,0,P|258:163|265:207,1,90,0|8,1:0|0:0,0:0:0:0:
193,312,246961,1,2,3:2:0:0:
193,312,247132,6,0,P|131:304|58:388,1,180,2|10,1:3|0:0,0:0:0:0:
65,216,247643,2,0,P|50:159|39:124,1,90,2|2,0:0|0:0,0:0:0:0:
177,55,247984,1,2,1:0:0:0:
177,55,248069,1,0,0:0:0:0:
206,68,248154,5,4,1:3:0:0:
244,85,248239,1,4,1:3:0:0:
285,88,248325,1,4,1:3:0:0:
324,75,248410,1,4,1:3:0:0:
356,62,248495,6,0,P|367:107|374:142,1,67.5000025749208,6|0,1:0|1:0,0:0:0:0:
454,247,248836,2,0,P|465:202|472:167,1,67.5000025749208,10|10,0:0|0:0,0:0:0:0:
364,221,249177,1,2,0:0:0:0:
312,342,249348,2,0,P|373:311|438:328,1,135.000005149842,0|10,1:0|0:2,0:0:0:0:
358,223,249859,6,0,P|302:229|278:232,1,67.5000025749208,2|2,3:2|1:2,0:0:0:0:
184,173,250200,2,0,P|128:167|104:164,1,67.5000025749208,10|0,0:0|1:2,0:0:0:0:
116,165,250455,1,8,0:2:0:0:
116,165,250540,1,2,1:2:0:0:
5,283,250711,1,0,1:0:0:0:
133,321,250882,2,0,P|130:297|125:268,3,33.7500012874604,10|0|0|0,3:2|3:0|3:0|3:0,0:0:0:0:
115,265,251223,5,2,1:2:0:0:
158,83,251393,1,0,1:0:0:0:
290,230,251564,2,0,P|348:201|398:213,1,101.250003862381,8|8,0:0|0:0,0:0:0:0:
408,216,251904,2,0,L|402:292,1,67.5000025749208,2|0,3:2|1:0,0:0:0:0:
507,159,252245,1,0,3:2:0:0:
290,136,252416,6,0,L|127:164,1,135.000005149842,10|0,0:0|1:0,0:0:0:0:
46,302,252927,2,0,P|34:266|23:236,1,67.5000025749208,10|2,0:2|0:0,0:0:0:0:
23,238,253182,1,8,0:0:0:0:
23,238,253268,1,2,1:2:0:0:
28,82,253438,1,0,1:2:0:0:
156,157,253609,2,0,P|159:174|163:191,3,33.7500012874604,8|0|0|0,3:2|0:0|3:0|3:0,0:0:0:0:
181,214,253950,5,0,1:0:0:0:
305,355,254120,1,0,1:0:0:0:
311,230,254290,1,8,0:0:0:0:
177,341,254461,1,8,0:0:0:0:
177,341,254546,1,8,0:0:0:0:
177,341,254631,1,2,0:2:0:0:
380,276,254802,2,0,P|393:230|323:149,1,135.000005149842,2|10,1:2|0:0,0:0:0:0:
244,242,255314,6,0,P|301:231|336:226,1,67.5000025749208,0|0,0:0|1:0,0:0:0:0:
439,73,255654,2,0,P|397:48|330:53,1,101.250003862381,10|8,0:0|0:0,0:0:0:0:
321,58,255995,2,0,P|281:66|249:70,1,67.5000025749208,0|0,1:0|1:0,0:0:0:0:
85,102,256336,1,8,3:2:0:0:
78,88,256421,1,0,0:0:0:0:
71,70,256507,1,0,0:0:0:0:
183,165,256677,5,2,0:0:0:0:
256,192,256762,12,0,262132,0:0:0:0:
