osu file format v14

[General]
AudioFilename: audio.mp3
AudioLeadIn: 0
PreviewTime: 38144
Countdown: 0
SampleSet: Normal
StackLeniency: 0
Mode: 1
LetterboxInBreaks: 0
WidescreenStoryboard: 1

[Editor]
Bookmarks: 21270
DistanceSpacing: 0.6
BeatDivisor: 4
GridSize: 32
TimelineZoom: 3.599999

[Metadata]
Title:school bus (Sped Up & Cut Ver.)
TitleUnicode:school bus (Sped Up & Cut Ver.)
Artist:nouns
ArtistUnicode:nouns
Creator:liku
Version:muzukashii
Source:
Tags:punk emo noise rock english still bummed version speed experimental
BeatmapID:4219314
BeatmapSetID:2024857

[Difficulty]
HPDrainRate:10
CircleSize:5
OverallDifficulty:4.5
ApproachRate:5
SliderMultiplier:1.4
SliderTickRate:1

[Events]
//Background and Video events
0,0,"bgg.jpg",0,0
//Break Periods
//Storyboard Layer 0 (Background)
//Storyboard Layer 1 (Fail)
//Storyboard Layer 2 (Pass)
//Storyboard Layer 3 (Foreground)
//Storyboard Layer 4 (Overlay)
//Storyboard Sound Samples

[TimingPoints]
367,555.555555555556,4,1,0,10,1,0
367,-105.263157894737,4,1,0,10,0,0
20228,-105.263157894737,4,1,0,75,0,0
37867,-105.263157894737,4,1,0,5,0,0
39255,277.777777777778,4,1,0,100,1,1
39255,-90.9090909090909,4,1,0,100,0,1
57032,555.555555555556,4,1,0,100,1,0
57032,-45.4545454545455,4,1,0,100,0,0
57171,-50,4,1,0,50,0,0
58140,-52.0833333333333,4,1,0,50,0,0
58696,-54.3478260869565,4,1,0,50,0,0
59252,-56.8181818181818,4,1,0,50,0,0
59807,-59.5238095238095,4,1,0,50,0,0
60363,-62.5,4,1,0,50,0,0

[HitObjects]
256,192,20367,5,0,0:0:0:0:
256,192,20922,1,8,0:0:0:0:
256,192,21200,1,0,0:0:0:0:
256,192,21478,1,0,0:0:0:0:
256,192,22033,1,8,0:0:0:0:
256,192,22589,1,0,0:0:0:0:
256,192,23144,1,8,0:0:0:0:
256,192,23422,1,0,0:0:0:0:
256,192,23700,1,0,0:0:0:0:
256,192,23978,1,0,0:0:0:0:
256,192,24255,1,8,0:0:0:0:
256,192,24811,1,0,0:0:0:0:
256,192,25367,1,8,0:0:0:0:
256,192,25644,1,0,0:0:0:0:
256,192,25922,1,0,0:0:0:0:
256,192,26478,1,8,0:0:0:0:
256,192,27033,1,0,0:0:0:0:
256,192,27311,1,0,0:0:0:0:
256,192,27589,1,8,0:0:0:0:
256,192,27867,1,0,0:0:0:0:
256,192,28144,1,0,0:0:0:0:
256,192,28422,1,0,0:0:0:0:
256,192,28700,1,8,0:0:0:0:
256,192,29255,1,0,0:0:0:0:
256,192,29811,1,8,0:0:0:0:
256,192,30089,1,0,0:0:0:0:
256,192,30367,1,0,0:0:0:0:
256,192,30922,1,8,0:0:0:0:
256,192,31478,1,0,0:0:0:0:
256,192,32033,1,8,0:0:0:0:
256,192,32311,1,8,0:0:0:0:
256,192,32589,1,0,0:0:0:0:
256,192,32867,1,0,0:0:0:0:
256,192,33144,1,8,0:0:0:0:
256,192,33700,1,0,0:0:0:0:
256,192,34255,1,8,0:0:0:0:
256,192,34533,1,0,0:0:0:0:
256,192,34811,1,0,0:0:0:0:
256,192,35367,1,8,0:0:0:0:
256,192,35922,1,0,0:0:0:0:
256,192,36200,1,0,0:0:0:0:
256,192,36478,1,8,0:0:0:0:
256,192,36755,1,8,0:0:0:0:
256,192,37033,1,0,0:0:0:0:
256,192,37311,1,0,0:0:0:0:
256,192,37589,1,8,0:0:0:0:
256,192,38144,12,0,38978,0:0:0:0:
256,192,39255,5,12,0:0:0:0:
256,192,39532,1,8,0:0:0:0:
256,192,39671,1,0,0:0:0:0:
256,192,39810,1,8,0:0:0:0:
256,192,39880,1,8,0:0:0:0:
256,192,39949,1,8,0:0:0:0:
256,192,40088,1,0,0:0:0:0:
256,192,40227,1,8,0:0:0:0:
256,192,40366,1,0,0:0:0:0:
256,192,40435,1,0,0:0:0:0:
256,192,40505,1,0,0:0:0:0:
256,192,40643,1,8,0:0:0:0:
256,192,40782,1,8,0:0:0:0:
256,192,40921,1,0,0:0:0:0:
256,192,41199,1,8,0:0:0:0:
256,192,41477,1,0,0:0:0:0:
256,192,41755,1,8,0:0:0:0:
256,192,41893,1,0,0:0:0:0:
256,192,42032,1,8,0:0:0:0:
256,192,42102,1,8,0:0:0:0:
256,192,42171,1,8,0:0:0:0:
256,192,42310,1,0,0:0:0:0:
256,192,42449,1,0,0:0:0:0:
256,192,42588,1,8,0:0:0:0:
256,192,42657,1,8,0:0:0:0:
256,192,42727,1,8,0:0:0:0:
256,192,42866,1,0,0:0:0:0:
256,192,43005,1,8,0:0:0:0:
256,192,43143,1,0,0:0:0:0:
256,192,43421,1,8,0:0:0:0:
256,192,43699,1,0,0:0:0:0:
256,192,43977,1,8,0:0:0:0:
256,192,44116,1,0,0:0:0:0:
256,192,44255,1,8,0:0:0:0:
256,192,44324,1,8,0:0:0:0:
256,192,44393,1,8,0:0:0:0:
256,192,44532,1,0,0:0:0:0:
256,192,44671,1,8,0:0:0:0:
256,192,44810,1,0,0:0:0:0:
256,192,44880,1,0,0:0:0:0:
256,192,44949,1,0,0:0:0:0:
256,192,45088,1,8,0:0:0:0:
256,192,45227,1,8,0:0:0:0:
256,192,45366,1,0,0:0:0:0:
256,192,45435,1,0,0:0:0:0:
256,192,45505,1,0,0:0:0:0:
256,192,45643,1,8,0:0:0:0:
256,192,45921,1,0,0:0:0:0:
256,192,46199,1,0,0:0:0:0:
256,192,46338,1,8,0:0:0:0:
256,192,46477,1,0,0:0:0:0:
256,192,46546,1,0,0:0:0:0:
256,192,46616,1,0,0:0:0:0:
256,192,46755,1,8,0:0:0:0:
256,192,46893,1,0,0:0:0:0:
256,192,47032,1,8,0:0:0:0:
256,192,47102,1,8,0:0:0:0:
256,192,47171,1,8,0:0:0:0:
256,192,47310,1,0,0:0:0:0:
256,192,47449,1,8,0:0:0:0:
256,192,47588,1,0,0:0:0:0:
256,192,48143,1,4,0:0:0:0:
256,192,48421,1,12,0:0:0:0:
256,192,48560,1,4,0:0:0:0:
256,192,48699,1,12,0:0:0:0:
256,192,48977,1,12,0:0:0:0:
256,192,49255,1,4,0:0:0:0:
256,192,49393,1,4,0:0:0:0:
256,192,49532,1,12,0:0:0:0:
256,192,49671,1,12,0:0:0:0:
256,192,49810,1,4,0:0:0:0:
256,192,50366,1,12,0:0:0:0:
256,192,50643,1,4,0:0:0:0:
256,192,50782,1,4,0:0:0:0:
256,192,50921,1,12,0:0:0:0:
256,192,51199,1,12,0:0:0:0:
256,192,51477,1,4,0:0:0:0:
256,192,51616,1,4,0:0:0:0:
256,192,51755,1,12,0:0:0:0:
256,192,51893,1,4,0:0:0:0:
256,192,52032,1,12,0:0:0:0:
256,192,52588,1,12,0:0:0:0:
256,192,52866,1,4,0:0:0:0:
256,192,53005,1,12,0:0:0:0:
256,192,53143,1,4,0:0:0:0:
256,192,53421,1,12,0:0:0:0:
256,192,53699,1,4,0:0:0:0:
256,192,53838,1,4,0:0:0:0:
256,192,53977,1,12,0:0:0:0:
256,192,54116,1,12,0:0:0:0:
256,192,54255,1,4,0:0:0:0:
256,192,54532,1,8,0:0:0:0:
256,192,54810,1,0,0:0:0:0:
256,192,54880,1,0,0:0:0:0:
256,192,54949,1,0,0:0:0:0:
256,192,55088,1,8,0:0:0:0:
256,192,55227,1,0,0:0:0:0:
256,192,55366,1,8,0:0:0:0:
256,192,55435,1,8,0:0:0:0:
256,192,55505,1,8,0:0:0:0:
256,192,55643,1,8,0:0:0:0:
256,192,55921,1,0,0:0:0:0:
256,192,56060,1,0,0:0:0:0:
256,192,56199,1,8,0:0:0:0:
256,192,56338,1,0,0:0:0:0:
256,192,56477,1,8,0:0:0:0:
256,192,56546,1,8,0:0:0:0:
256,192,56616,1,8,0:0:0:0:
256,192,56685,1,8,0:0:0:0:
256,192,56755,1,8,0:0:0:0:
256,192,57032,1,4,0:0:0:0:
256,192,57588,1,0,0:0:0:0:
256,192,58143,1,0,0:0:0:0:
256,192,58699,1,0,0:0:0:0:
256,192,59255,1,0,0:0:0:0:
256,192,59810,1,0,0:0:0:0:
256,192,60366,1,0,0:0:0:0:
