osu file format v14

[General]
AudioFilename: audio.mp3
AudioLeadIn: 0
PreviewTime: 38144
Countdown: 0
SampleSet: Normal
StackLeniency: 0
Mode: 1
LetterboxInBreaks: 0
WidescreenStoryboard: 1

[Editor]
Bookmarks: 21270
DistanceSpacing: 0.6
BeatDivisor: 4
GridSize: 32
TimelineZoom: 1.7

[Metadata]
Title:school bus (Sped Up & Cut Ver.)
TitleUnicode:school bus (Sped Up & Cut Ver.)
Artist:nouns
ArtistUnicode:nouns
Creator:liku
Version:kantan
Source:
Tags:punk emo noise rock english still bummed version speed experimental
BeatmapID:4219313
BeatmapSetID:2024857

[Difficulty]
HPDrainRate:10
CircleSize:5
OverallDifficulty:2.5
ApproachRate:5
SliderMultiplier:1.4
SliderTickRate:1

[Events]
//Background and Video events
0,0,"bgg.jpg",0,0
//Break Periods
//Storyboard Layer 0 (Background)
//Storyboard Layer 1 (Fail)
//Storyboard Layer 2 (Pass)
//Storyboard Layer 3 (Foreground)
//Storyboard Layer 4 (Overlay)
//Storyboard Sound Samples

[TimingPoints]
367,555.555555555556,4,1,0,10,1,0
20228,-86.9565217391304,4,1,0,75,0,0
37867,-86.9565217391304,4,1,0,5,0,0
39255,277.777777777778,4,1,0,100,1,1
57032,555.555555555556,4,1,0,100,1,0
57032,-50,4,1,0,100,0,0
57171,-50,4,1,0,50,0,0
58140,-50.5050505050505,4,1,0,50,0,0
58696,-51.0204081632653,4,1,0,50,0,0
59252,-51.5463917525773,4,1,0,50,0,0
59807,-52.0833333333333,4,1,0,50,0,0
60363,-52.6315789473684,4,1,0,50,0,0

[HitObjects]
256,192,20367,5,0,0:0:0:0:
256,192,20922,1,8,0:0:0:0:
256,192,22033,1,8,0:0:0:0:
256,192,22589,1,0,0:0:0:0:
256,192,23700,1,0,0:0:0:0:
256,192,24255,1,8,0:0:0:0:
256,192,24811,1,0,0:0:0:0:
256,192,25922,1,0,0:0:0:0:
256,192,27033,1,8,0:0:0:0:
256,192,27589,1,0,0:0:0:0:
256,192,28144,1,8,0:0:0:0:
256,192,28700,1,8,0:0:0:0:
256,192,29255,1,0,0:0:0:0:
256,192,30367,1,0,0:0:0:0:
256,192,31478,1,0,0:0:0:0:
256,192,32033,1,8,0:0:0:0:
256,192,32589,1,0,0:0:0:0:
256,192,33700,1,0,0:0:0:0:
256,192,34255,1,8,0:0:0:0:
256,192,34811,1,0,0:0:0:0:
256,192,35922,1,0,0:0:0:0:
256,192,36478,1,8,0:0:0:0:
256,192,37033,1,0,0:0:0:0:
256,192,37589,1,8,0:0:0:0:
256,192,39255,5,4,0:0:0:0:
256,192,39810,1,8,0:0:0:0:
256,192,40366,1,8,0:0:0:0:
256,192,40643,1,0,0:0:0:0:
256,192,40921,1,8,0:0:0:0:
256,192,41477,1,0,0:0:0:0:
256,192,42032,1,8,0:0:0:0:
256,192,42310,1,8,0:0:0:0:
256,192,42588,1,8,0:0:0:0:
256,192,43699,1,0,0:0:0:0:
256,192,44255,1,8,0:0:0:0:
256,192,44810,1,0,0:0:0:0:
256,192,45088,1,0,0:0:0:0:
256,192,45366,1,8,0:0:0:0:
256,192,45643,1,8,0:0:0:0:
256,192,45921,1,0,0:0:0:0:
256,192,46477,1,8,0:0:0:0:
256,192,46755,1,8,0:0:0:0:
256,192,47032,1,0,0:0:0:0:
256,192,48143,1,4,0:0:0:0:
256,192,48699,1,4,0:0:0:0:
256,192,49255,1,12,0:0:0:0:
256,192,49532,1,4,0:0:0:0:
256,192,49810,1,12,0:0:0:0:
256,192,50366,1,4,0:0:0:0:
256,192,50921,1,12,0:0:0:0:
256,192,51477,1,12,0:0:0:0:
256,192,52588,1,4,0:0:0:0:
256,192,53143,1,4,0:0:0:0:
256,192,53699,1,12,0:0:0:0:
256,192,53977,1,12,0:0:0:0:
256,192,54255,1,12,0:0:0:0:
256,192,54810,1,0,0:0:0:0:
256,192,55366,1,8,0:0:0:0:
256,192,55921,1,0,0:0:0:0:
256,192,56199,1,0,0:0:0:0:
256,192,56477,1,8,0:0:0:0:
256,192,56755,1,8,0:0:0:0:
256,192,57032,1,4,0:0:0:0:
256,192,57588,1,0,0:0:0:0:
256,192,58143,1,0,0:0:0:0:
256,192,58699,1,0,0:0:0:0:
256,192,59255,1,0,0:0:0:0:
256,192,59810,1,0,0:0:0:0:
256,192,60366,1,0,0:0:0:0:
